<?xml version="1.0" standalone="no"?>
<!DOCTYPE svg PUBLIC "-//W3C//DTD SVG 1.1//EN" "http://www.w3.org/Graphics/SVG/1.1/DTD/svg11.dtd" >
<svg xmlns="http://www.w3.org/2000/svg" xmlns:xlink="http://www.w3.org/1999/xlink" version="1.1">
<metadata>
Created by FontForge 20190801 at Sun Feb 21 12:30:54 2010
 By root
Copyright (c) 2009 by Hannes von Dhren. All rights reserved.
</metadata>
<defs>
<font id="BrandonGrotesque-Medium" horiz-adv-x="490" >
  <font-face 
    font-family="Brandon Grotesque Medium"
    font-weight="420"
    font-stretch="normal"
    units-per-em="1000"
    panose-1="2 11 6 3 2 2 3 6 2 2"
    ascent="700"
    descent="-300"
    x-height="400"
    cap-height="700"
    bbox="-140 -379.131 1070.67 1034.38"
    underline-thickness="50"
    underline-position="-100"
    stemh="87"
    stemv="97"
    unicode-range="U+0020-FB02"
  />
<missing-glyph horiz-adv-x="599" 
d="M50 30v640c0 21 9 30 30 30h439c21 0 30 -9 30 -30v-640c0 -21 -9 -30 -30 -30h-439c-21 0 -30 9 -30 30zM262 314c0 -7 7 -12 14 -12h36c9 0 15 4 15 13v26c0 48 105 63 105 150c0 65 -54 111 -125 111c-87 0 -130 -61 -130 -61c-4 -6 -6 -13 0 -18l22 -22
c6 -4 11 -4 17 0c13 12 36 41 84 41c40 0 61 -25 61 -52c0 -63 -99 -72 -99 -147v-29zM245 156c0 -26 22 -48 48 -48c27 0 49 22 49 48s-22 48 -49 48c-26 0 -48 -22 -48 -48z" />
    <glyph glyph-name="fi" unicode="fi" horiz-adv-x="544" 
d="M96 19v298h-47c-11 0 -19 9 -19 19v45c0 11 8 19 19 19h47v124c0 119 81 186 180 186c67 0 129 -32 150 -45c8 -5 10 -17 5 -25l-25 -45c-6 -12 -15 -11 -26 -5c-9 5 -60 32 -104 32c-41 0 -83 -29 -83 -98v-124h267c10 0 19 -9 19 -19v-362c0 -10 -9 -19 -19 -19h-57
c-10 0 -19 9 -19 19v298h-191v-298c0 -15 -16 -19 -28 -19h-50c-10 0 -19 9 -19 19z" />
    <glyph glyph-name="fl" unicode="fl" horiz-adv-x="552" 
d="M97 19v299h-49c-11 0 -19 9 -19 19v44c0 11 8 19 19 19h49v124c0 123 83 186 179 186c85 0 137 -54 137 -54l9 27c4 9 9 17 22 17h24c10 0 19 -9 19 -19v-662c0 -10 -9 -19 -19 -19h-57c-10 0 -19 9 -19 19v544c-3 4 -43 56 -108 56c-44 0 -91 -26 -91 -95v-124h100
c11 0 19 -8 19 -19v-44c0 -10 -8 -19 -19 -19h-100v-299c0 -10 -9 -19 -19 -19h-59c-10 0 -18 9 -18 19z" />
    <glyph glyph-name="f_f" unicode="ff" horiz-adv-x="621" 
d="M96 19v298h-48c-11 0 -19 9 -19 19v45c0 11 8 19 19 19h48v101c0 137 92 199 196 199c69 0 112 -26 134 -43c31 35 75 53 126 53c54 0 96 -24 114 -40c7 -6 8 -16 4 -23l-25 -45c-5 -9 -15 -10 -25 -3c-13 9 -42 24 -66 24c-44 0 -75 -32 -75 -99v-124h108
c11 0 19 -8 19 -19v-45c0 -10 -8 -19 -19 -19h-108v-298c0 -10 -9 -19 -19 -19h-59c-10 0 -19 9 -19 19v298h-189v-298c0 -10 -9 -19 -19 -19h-59c-10 0 -19 9 -19 19zM193 400h189v124c0 19 2 37 6 53c-14 15 -51 36 -93 36c-53 0 -102 -33 -102 -112v-101z" />
    <glyph glyph-name="f_f_i" unicode="ffi" horiz-adv-x="830" 
d="M96 19v298h-48c-11 0 -19 9 -19 19v45c0 11 8 19 19 19h48v101c0 122 78 195 196 199c77 0 121 -34 134 -43c31 35 76 53 133 53c67 0 132 -32 153 -45c8 -5 10 -17 5 -25l-26 -47c-6 -9 -15 -8 -26 -3c-8 5 -59 32 -103 32c-43 0 -83 -30 -83 -99v-123h267
c10 0 19 -9 19 -19v-362c0 -10 -9 -19 -19 -19h-57c-11 0 -19 9 -19 19v298h-191v-298c0 -10 -9 -19 -19 -19h-59c-10 0 -19 9 -19 19v298h-189v-298c0 -10 -9 -19 -19 -19h-59c-10 0 -19 9 -19 19zM193 400h189v124c0 19 2 37 5 53c-13 15 -50 36 -92 36
c-54 0 -102 -33 -102 -112v-101z" />
    <glyph glyph-name="f_f_l" unicode="ffl" horiz-adv-x="838" 
d="M96 19v298h-48c-11 0 -19 9 -19 19v45c0 11 8 19 19 19h48v101c0 137 92 199 196 199c69 0 112 -26 134 -43c31 35 79 53 138 53c83 0 135 -54 135 -54l9 27c3 9 9 17 22 17h24c10 0 19 -9 19 -19v-662c0 -10 -9 -19 -19 -19h-57c-10 0 -19 9 -19 19v544
c-3 4 -43 56 -108 56c-44 0 -91 -26 -91 -95v-124h100c11 0 19 -8 19 -19v-44c0 -10 -8 -19 -19 -19h-100v-299c0 -10 -9 -19 -19 -19h-59c-10 0 -19 9 -19 19v298h-189v-298c0 -10 -9 -19 -19 -19h-59c-10 0 -19 9 -19 19zM193 400h189v124c0 19 2 37 6 53
c-14 15 -51 36 -93 36c-53 0 -102 -33 -102 -112v-101z" />
    <glyph glyph-name="f_f_h" unicode="ffh" horiz-adv-x="1121" 
d="M96 19v298h-48c-11 0 -19 9 -19 19v45c0 11 8 19 19 19h48v90c0 142 84 210 196 210c69 0 112 -26 134 -43c31 35 79 53 138 53c83 0 135 -54 135 -54l9 27c3 9 9 17 22 17h24c10 0 19 -9 19 -19c0 -105 1 -210 1 -314c10 7 56 43 120 43c131 0 167 -96 167 -207v-184
c0 -10 -9 -19 -19 -19h-57c-10 0 -19 9 -19 19v201c0 65 -32 101 -84 101c-61 0 -103 -43 -108 -63v-24v-215c0 -11 -8 -19 -20 -19h-57c-10 0 -19 9 -19 19v544c-3 4 -43 56 -108 56c-47 0 -91 -27 -91 -102v-117h100c11 0 19 -8 19 -19v-44c0 -10 -8 -19 -19 -19h-100
v-299c0 -10 -9 -19 -19 -19h-59c-10 0 -19 9 -19 19v298h-189v-298c0 -10 -9 -19 -19 -19h-59c-10 0 -19 9 -19 19zM193 400h189v124c0 19 2 37 6 53c-14 15 -51 36 -93 36c-53 0 -102 -33 -102 -112v-101z" />
    <glyph glyph-name="f_k" unicode="fk" horiz-adv-x="794" 
d="M97 19v299h-49c-11 0 -19 9 -19 19v44c0 11 8 19 19 19h49v124c0 123 84 186 179 186c85 0 137 -54 137 -54l9 27c3 9 9 17 22 17h24c10 0 19 -9 19 -19v-433l157 140c6 6 15 12 24 12h71c17 0 19 -19 11 -27l-167 -151l197 -196c9 -9 5 -26 -12 -26h-82
c-7 0 -14 4 -18 8l-181 186v-175c0 -10 -9 -19 -19 -19h-57c-10 0 -19 9 -19 19v544c-3 4 -43 56 -108 56c-44 0 -91 -26 -91 -95v-124h100c11 0 19 -8 19 -19v-44c0 -10 -8 -19 -19 -19h-100v-299c0 -10 -9 -19 -19 -19h-59c-10 0 -18 9 -18 19z" />
    <glyph glyph-name="f_j" unicode="fj" horiz-adv-x="544" 
d="M96 19v298h-47c-11 0 -19 9 -19 19v45c0 11 8 19 19 19h47v124c0 119 81 186 180 186c67 0 129 -32 150 -45c8 -5 10 -17 5 -25l-25 -45c-6 -12 -15 -11 -26 -5c-9 5 -60 32 -104 32c-41 0 -83 -29 -83 -98v-124h267c10 0 19 -9 19 -19v-505c0 -124 -74 -186 -170 -186
c-54 0 -96 23 -114 40c-6 5 -8 16 -4 23l25 45c5 9 16 9 25 3c13 -9 43 -25 66 -25c46 0 76 32 76 100v441h-190v-298c0 -10 -9 -19 -19 -19h-59c-10 0 -19 9 -19 19z" />
    <glyph glyph-name="f_f_j" unicode="ffj" horiz-adv-x="830" 
d="M96 19v298h-48c-11 0 -19 9 -19 19v45c0 11 8 19 19 19h48v98c0 135 86 202 196 202c77 0 121 -34 134 -43c31 35 76 53 133 53c67 0 131 -32 153 -45c8 -5 10 -17 5 -25l-26 -47c-6 -9 -15 -8 -26 -3c-8 5 -59 32 -103 32c-58 0 -83 -40 -83 -122v-100h267
c10 0 19 -9 19 -19v-498c0 -66 -34 -101 -78 -109c-34 -56 -90 -72 -147 -64c-41 3 -72 27 -63 43l25 45c5 9 15 9 25 3c13 -9 42 -25 66 -25c45 0 76 32 76 100v441h-190v-298c0 -10 -9 -19 -19 -19h-59c-10 0 -19 9 -19 19v298h-189v-298c0 -10 -9 -19 -19 -19h-59
c-10 0 -19 9 -19 19zM193 400h189v109c0 34 2 52 5 68c-13 15 -50 36 -92 36c-54 0 -102 -33 -102 -112v-101z" />
    <glyph glyph-name="f_b" unicode="fb" horiz-adv-x="817" 
d="M97 19v299h-49c-11 0 -19 9 -19 19v44c0 11 8 19 19 19h49v106c0 13 0 24 1 36c8 106 82 168 178 168c85 0 137 -54 137 -54l9 27c3 9 9 17 22 17h24c10 0 19 -9 19 -19v-294c9 4 46 23 96 23c112 0 198 -93 198 -210c0 -115 -82 -210 -187 -210c-80 0 -127 56 -127 56
c-6 -22 -9 -46 -32 -46h-24c-10 0 -19 9 -19 19v544c-3 4 -43 56 -108 56c-44 0 -91 -26 -91 -95v-18v-106h100c11 0 19 -8 19 -19v-44c0 -10 -8 -19 -19 -19h-100v-299c0 -10 -9 -19 -19 -19h-59c-10 0 -18 9 -18 19zM486 146c2 -12 34 -71 96 -71c64 0 106 58 106 125
c0 68 -48 121 -114 121c-53 0 -88 -23 -88 -23v-152z" />
    <glyph glyph-name="f_f_k" unicode="ffk" horiz-adv-x="1080" 
d="M96 19v298h-48c-11 0 -19 9 -19 19v45c0 11 8 19 19 19h48v101c0 137 92 199 196 199c69 0 112 -26 134 -43c31 35 79 53 137 53c84 0 136 -54 136 -54l10 29c2 7 8 15 19 15h26c10 0 19 -9 19 -19v-433l157 140c6 6 15 12 24 12h71c17 0 19 -19 11 -27l-167 -151
l197 -196c9 -9 5 -26 -12 -26h-82c-7 0 -14 4 -18 8l-181 186v-175c0 -10 -9 -19 -19 -19h-57c-10 0 -19 9 -19 19v544c-3 4 -43 56 -108 56c-44 0 -91 -26 -91 -95v-124h100c11 0 19 -8 19 -19v-44c0 -10 -8 -19 -19 -19h-100v-299c0 -10 -9 -19 -19 -19h-59
c-10 0 -19 9 -19 19v298h-189v-298c0 -10 -9 -19 -19 -19h-59c-10 0 -19 9 -19 19zM193 400h189v124c0 19 2 37 6 53c-14 15 -51 36 -93 36c-53 0 -102 -33 -102 -112v-101z" />
    <glyph glyph-name="f_h" unicode="fh" horiz-adv-x="834" 
d="M97 19v299h-49c-11 0 -19 9 -19 19v44c0 11 8 19 19 19h49v106c0 13 0 24 1 36c8 106 83 168 179 168c84 0 136 -54 136 -54l9 27c3 9 9 17 22 17h24c10 0 19 -9 19 -19c0 -105 1 -210 1 -314c10 7 56 43 120 43c121 0 167 -87 167 -207v-184c0 -10 -9 -19 -19 -19h-57
c-10 0 -19 9 -19 19v201c0 65 -32 101 -84 101c-61 0 -103 -43 -108 -63v-19v-220c0 -11 -8 -19 -20 -19h-57c-10 0 -19 9 -19 19v544c-3 4 -43 56 -108 56c-44 0 -91 -26 -91 -95v-18v-106h100c11 0 19 -8 19 -19v-44c0 -10 -8 -19 -19 -19h-100v-299c0 -10 -9 -19 -19 -19
h-59c-10 0 -18 9 -18 19z" />
    <glyph glyph-name="f_f_b" unicode="ffb" horiz-adv-x="1103" 
d="M96 19v298h-48c-11 0 -19 9 -19 19v45c0 11 8 19 19 19h48v100c0 128 84 200 196 200c69 0 112 -26 134 -43c31 35 79 53 137 53c84 0 136 -54 136 -54l9 27c3 9 9 17 22 17h24c10 0 19 -9 19 -19v-294c9 4 46 23 96 23c112 0 198 -93 198 -210
c0 -115 -82 -210 -187 -210c-80 0 -127 56 -127 56c-6 -22 -9 -46 -32 -46h-24c-10 0 -19 9 -19 19v544c-3 4 -43 56 -108 56c-44 0 -91 -26 -91 -95v-18v-106h100c11 0 19 -8 19 -19v-44c0 -10 -8 -19 -19 -19h-100v-299c0 -10 -9 -19 -19 -19h-59c-10 0 -19 9 -19 19v298
h-189v-298c0 -10 -9 -19 -19 -19h-59c-10 0 -19 9 -19 19zM193 400h189v124c0 19 2 37 6 53c-14 15 -51 36 -93 36c-53 0 -102 -33 -102 -112v-101zM772 146c2 -12 34 -71 96 -71c64 0 106 58 106 125c0 68 -48 121 -114 121c-53 0 -88 -23 -88 -23v-152z" />
    <glyph glyph-name=".notdef" horiz-adv-x="599" 
d="M50 30v640c0 21 9 30 30 30h439c21 0 30 -9 30 -30v-640c0 -21 -9 -30 -30 -30h-439c-21 0 -30 9 -30 30zM262 314c0 -7 7 -12 14 -12h36c9 0 15 4 15 13v26c0 48 105 63 105 150c0 65 -54 111 -125 111c-87 0 -130 -61 -130 -61c-4 -6 -6 -13 0 -18l22 -22
c6 -4 11 -4 17 0c13 12 36 41 84 41c40 0 61 -25 61 -52c0 -63 -99 -72 -99 -147v-29zM245 156c0 -26 22 -48 48 -48c27 0 49 22 49 48s-22 48 -49 48c-26 0 -48 -22 -48 -48z" />
    <glyph glyph-name=".null" horiz-adv-x="0" 
 />
    <glyph glyph-name="CR" horiz-adv-x="0" 
 />
    <glyph glyph-name="space" unicode=" " horiz-adv-x="220" 
 />
    <glyph glyph-name="exclam" unicode="!" horiz-adv-x="294" 
d="M136 272c-9 0 -18 8 -19 16l-29 279v114c0 10 9 19 19 19h80c10 0 19 -9 19 -19v-112l-29 -281c-1 -8 -10 -16 -19 -16h-22zM77 59c0 39 32 70 69 70c39 0 70 -31 70 -70c0 -38 -31 -69 -70 -69c-37 0 -69 31 -69 69z" />
    <glyph glyph-name="quotedbl" unicode="&#x22;" horiz-adv-x="324" 
d="M222 501c-10 0 -19 9 -19 19v161c0 10 9 19 19 19h57c13 0 22 -11 18 -25l-34 -159c-2 -8 -11 -15 -18 -15h-23zM61 501c-10 0 -19 9 -19 19v161c0 10 9 19 19 19h57c13 0 22 -11 18 -25l-34 -159c-2 -8 -11 -15 -18 -15h-23z" />
    <glyph glyph-name="numbersign" unicode="#" horiz-adv-x="540" 
d="M105 22l24 169h-70c-11 0 -19 7 -19 17v14c0 11 8 18 19 18h77l24 167h-72c-10 0 -19 7 -19 17v14c0 10 9 18 19 18h78l32 228c1 8 9 16 18 16h11c11 0 20 -10 18 -22l-30 -222h154l31 228c1 8 10 16 19 16h9c12 0 21 -10 19 -22l-30 -222h67c11 0 19 -8 19 -18v-14
c0 -10 -7 -17 -18 -17h-74l-24 -167h68c10 0 19 -7 19 -18v-14c0 -10 -8 -17 -18 -17h-76l-25 -175c-1 -9 -9 -16 -19 -16h-10c-12 0 -20 10 -19 22l25 169h-156l-24 -175c-1 -9 -10 -16 -19 -16h-9c-13 0 -21 10 -19 22zM184 240h156l22 167h-154z" />
    <glyph glyph-name="dollar" unicode="$" horiz-adv-x="522" 
d="M50 69c-8 8 -16 15 -5 32l29 42c8 11 20 16 31 7c5 -5 65 -55 133 -68c0 76 1 150 1 226c-100 39 -187 88 -194 199c-1 12 0 24 1 36c7 71 65 153 193 166v32c0 11 9 19 19 19h10c10 0 19 -8 19 -19v-33c88 -7 153 -51 162 -57c8 -5 15 -19 6 -34
c-18 -26 -36 -64 -60 -48c-6 3 -57 37 -108 49c0 -73 -1 -147 -1 -220c104 -44 202 -99 202 -219c0 -104 -83 -179 -203 -188v-104c0 -12 -10 -18 -21 -18s-26 3 -26 18v104c-106 8 -173 64 -188 78zM238 418v202c-68 -7 -96 -53 -96 -87c0 -51 34 -85 96 -115zM286 78
c55 7 97 45 97 92c0 48 -33 83 -97 116v-208z" />
    <glyph glyph-name="percent" unicode="%" horiz-adv-x="668" 
d="M163 441c-75 0 -135 60 -135 135s60 135 135 135c74 0 135 -60 135 -135s-61 -135 -135 -135zM116 27l343 663c4 6 12 10 17 10h33c15 0 24 -14 17 -27l-345 -663c-2 -4 -12 -10 -17 -10h-31c-15 0 -24 14 -17 27zM163 512c34 0 62 28 62 64c0 33 -28 62 -62 62
c-35 0 -63 -29 -63 -62c0 -36 28 -64 63 -64zM351 124c0 75 60 135 135 135c74 0 135 -60 135 -135s-61 -135 -135 -135c-75 0 -135 60 -135 135zM422 124c0 -35 28 -63 64 -63c33 0 62 28 62 63c0 34 -29 62 -62 62c-36 0 -64 -28 -64 -62z" />
    <glyph glyph-name="ampersand" unicode="&#x26;" horiz-adv-x="679" 
d="M79 176c0 120 103 179 139 200v2l-23 25c-39 41 -70 85 -69 145c0 76 60 162 183 162c110 0 179 -72 179 -159c0 -96 -96 -160 -135 -187l140 -140c22 42 35 93 38 144c1 22 9 28 28 24l41 -8c23 -4 18 -22 17 -31c-8 -75 -36 -147 -61 -192l93 -90c12 -12 21 -23 -2 -46
l-26 -26c-12 -11 -28 -13 -43 3l-79 80c-36 -41 -108 -92 -218 -92c-126 0 -202 86 -202 186zM295 423c30 18 104 57 104 124c0 43 -35 86 -95 86c-56 0 -89 -39 -89 -86c-1 -39 24 -68 58 -102zM174 182c0 -63 51 -108 115 -108c72 0 121 38 150 72l-167 176
c-31 -19 -98 -61 -98 -140z" />
    <glyph glyph-name="quotesingle" unicode="'" horiz-adv-x="163" 
d="M61 501c-10 0 -19 9 -19 19v161c0 10 9 19 19 19h57c13 0 22 -11 18 -25l-34 -159c-2 -8 -11 -15 -18 -15h-23z" />
    <glyph glyph-name="parenleft" unicode="(" horiz-adv-x="341" 
d="M302 -2c7 -2 13 -9 11 -18l-2 -46c-1 -9 -8 -13 -19 -13c-114 7 -242 90 -242 394s128 387 242 393c11 1 18 -4 19 -13l2 -46c2 -9 -4 -17 -11 -18c-112 -25 -155 -135 -155 -316c0 -182 43 -291 155 -317z" />
    <glyph glyph-name="parenright" unicode=")" horiz-adv-x="341" 
d="M28 -19c-1 8 4 16 11 17c112 26 156 135 156 317c0 181 -44 291 -156 316c-7 1 -12 9 -11 18l3 46c0 9 7 14 18 13c114 -6 242 -89 242 -393s-128 -387 -242 -394c-11 0 -18 4 -18 13z" />
    <glyph glyph-name="asterisk" unicode="*" horiz-adv-x="338" 
d="M158 392c-10 0 -19 9 -19 19l2 85l-70 -49c-8 -6 -21 -3 -26 5l-12 19c-6 9 -3 21 5 27l79 48l-80 49c-8 6 -10 18 -5 26s8 13 13 19c5 8 17 11 25 5l71 -49l-2 85c0 10 9 19 19 19h22c10 0 19 -9 19 -19l-2 -85l70 51c8 5 20 2 26 -6l12 -19c5 -9 4 -20 -5 -26l-80 -50
l80 -50c10 -6 11 -18 6 -26l-13 -19c-5 -9 -17 -11 -26 -6l-70 50l2 -84c0 -10 -9 -19 -19 -19h-22z" />
    <glyph glyph-name="plus" unicode="+" horiz-adv-x="583" 
d="M252 153v153h-154c-10 0 -19 9 -19 19v42c0 10 9 19 19 19h154v155c0 10 9 18 19 18h42c10 0 19 -8 19 -18v-155h154c10 0 18 -9 18 -19v-42c0 -10 -8 -19 -18 -19h-154v-153c0 -10 -9 -18 -19 -18h-42c-10 0 -19 8 -19 18z" />
    <glyph glyph-name="comma" unicode="," horiz-adv-x="244" 
d="M45 59c0 38 32 70 73 70c37 0 83 -25 83 -111c0 -103 -64 -174 -99 -200c-9 -8 -17 -8 -24 0l-15 15c-6 6 -5 17 5 25c11 10 71 58 71 136c-2 0 -12 -4 -25 -4c-37 0 -69 31 -69 69z" />
    <glyph glyph-name="hyphen" unicode="-" horiz-adv-x="390" 
d="M87 206c-11 0 -19 8 -19 18v43c0 11 8 19 19 19h216c11 0 19 -8 19 -19v-43c0 -10 -8 -18 -19 -18h-216z" />
    <glyph glyph-name="period" unicode="." horiz-adv-x="229" 
d="M45 59c0 39 31 70 69 70c39 0 70 -31 70 -70c0 -38 -31 -69 -70 -69c-38 0 -69 31 -69 69z" />
    <glyph glyph-name="slash" unicode="/" horiz-adv-x="335" 
d="M34 25l196 662c2 7 10 13 18 13h47c14 0 22 -11 18 -25l-195 -662c-2 -7 -11 -13 -18 -13h-48c-13 0 -22 11 -18 25z" />
    <glyph glyph-name="zero" unicode="0" horiz-adv-x="631" 
d="M316 -10c-158 0 -248 131 -248 350s90 350 248 350c157 0 247 -131 247 -350s-90 -350 -247 -350zM316 81c93 0 146 93 146 259c0 164 -53 258 -146 258c-94 0 -147 -94 -147 -258c0 -166 53 -259 147 -259z" />
    <glyph glyph-name="one" unicode="1" horiz-adv-x="343" 
d="M146 19v508l-80 -38c-9 -4 -19 -2 -22 7l-12 35c-3 8 -1 16 3 20l142 129h49c10 0 18 -9 18 -19v-642c0 -10 -8 -19 -18 -19h-61c-11 0 -19 9 -19 19z" />
    <glyph glyph-name="two" unicode="2" horiz-adv-x="518" 
d="M36 19v26c74 84 178 211 252 299c50 56 76 106 76 146c0 51 -35 109 -123 109c-55 0 -100 -38 -127 -67c-8 -8 -19 -8 -27 0l-34 34c-6 6 -8 18 -1 26c0 0 75 98 194 98c143 0 219 -91 219 -196c0 -77 -42 -130 -96 -195c-53 -64 -123 -146 -182 -213h255
c10 0 19 -9 19 -19v-48c0 -10 -9 -19 -19 -19h-387c-11 0 -19 9 -19 19z" />
    <glyph glyph-name="three" unicode="3" horiz-adv-x="529" 
d="M42 79c-6 7 -6 18 1 24l39 36c10 8 19 7 27 -2c6 -8 62 -62 136 -62c65 0 125 41 125 108c0 60 -51 117 -158 117h-56c-11 0 -19 7 -19 21v43c0 15 6 21 20 21h56c94 0 141 48 141 107c0 67 -55 109 -114 109c-60 0 -96 -34 -116 -56c-6 -8 -17 -10 -26 -2l-37 33
c-8 7 -7 19 0 26c0 0 76 88 185 88c116 0 209 -71 209 -183c0 -77 -58 -136 -103 -157v-3c47 -20 121 -80 121 -166c0 -109 -88 -191 -226 -191c-124 0 -183 63 -205 89z" />
    <glyph glyph-name="four" unicode="4" horiz-adv-x="593" 
d="M35 149c-11 0 -19 9 -19 19v60l370 457c3 3 11 6 15 6h37c10 0 19 -8 19 -19v-442h81c11 0 19 -8 19 -18v-42c0 -10 -8 -19 -19 -19h-81l1 -132c0 -10 -9 -19 -19 -19h-59c-10 0 -19 9 -19 19v130h-326zM124 232h241v294z" />
    <glyph glyph-name="five" unicode="5" horiz-adv-x="530" 
d="M62 73c-13 15 -14 22 -2 34c13 11 24 24 37 35c8 7 16 9 24 0c7 -9 63 -65 139 -65c82 0 136 70 136 141c0 70 -46 128 -139 128h-153c-20 0 -31 19 -31 35v280c0 10 8 19 19 19h309c11 0 19 -9 19 -19v-49c0 -10 -8 -19 -19 -19h-238v-158h101c147 0 230 -85 230 -216
c0 -125 -100 -229 -237 -229c-109 0 -170 53 -195 83z" />
    <glyph glyph-name="six" unicode="6" horiz-adv-x="541" 
d="M48 270c0 279 239 397 331 432c12 4 21 -1 25 -12l17 -41c5 -12 1 -23 -18 -29c-46 -15 -205 -98 -238 -221c8 5 66 37 133 37c106 0 209 -79 209 -217c0 -126 -102 -229 -223 -229c-160 0 -236 126 -236 280zM283 80c74 0 132 63 132 138s-59 136 -133 136
c-79 0 -131 -58 -137 -76c-8 -84 29 -198 138 -198z" />
    <glyph glyph-name="seven" unicode="7" horiz-adv-x="478" 
d="M71 19v11l270 562h-296c-10 0 -19 9 -19 19v50c0 10 9 19 19 19h409c10 0 19 -9 19 -19v-7l-294 -627c-9 -20 -14 -27 -39 -27h-46c-13 0 -23 9 -23 19z" />
    <glyph glyph-name="eight" unicode="8" horiz-adv-x="572" 
d="M55 182c0 87 84 150 121 167v3c-43 22 -103 77 -103 155c0 110 92 183 212 183c123 0 214 -73 214 -183c0 -77 -60 -132 -103 -154v-4c46 -21 121 -81 121 -167c0 -109 -88 -192 -233 -192c-140 0 -229 83 -229 192zM286 396c77 11 112 54 112 107c0 61 -49 105 -115 105
c-60 0 -109 -44 -109 -105c0 -54 34 -95 112 -107zM159 180c0 -66 60 -109 126 -109c71 0 128 42 128 109c0 53 -46 108 -127 120c-81 -12 -127 -67 -127 -120z" />
    <glyph glyph-name="nine" unicode="9" horiz-adv-x="540" 
d="M119 37c-5 12 -1 23 18 29c46 15 206 98 239 220c-9 -5 -67 -36 -133 -36c-107 0 -210 79 -210 217c0 126 102 229 224 229c159 0 235 -126 235 -281c0 -279 -239 -396 -331 -432c-12 -4 -21 1 -25 12zM258 331c80 0 132 58 137 76c9 84 -29 199 -138 199
c-73 0 -132 -64 -132 -138c0 -76 59 -137 133 -137z" />
    <glyph glyph-name="colon" unicode=":" horiz-adv-x="247" 
d="M124 281c-36 0 -65 29 -65 64c0 36 29 65 65 65s64 -29 64 -65c0 -35 -28 -64 -64 -64zM59 54c0 36 29 65 65 65s64 -29 64 -65c0 -35 -28 -64 -64 -64s-65 29 -65 64z" />
    <glyph glyph-name="semicolon" unicode=";" horiz-adv-x="253" 
d="M124 281c-36 0 -65 29 -65 64c0 36 29 65 65 65s64 -29 64 -65c0 -35 -28 -64 -64 -64zM61 52c0 34 28 62 64 62c34 0 75 -22 75 -99c0 -90 -58 -157 -87 -183c-9 -8 -17 -8 -24 -1l-14 15c-6 6 -4 15 4 23c10 8 65 53 65 124c-2 -1 -11 -3 -21 -3c-34 0 -62 28 -62 62z
" />
    <glyph glyph-name="less" unicode="&#x3c;" horiz-adv-x="436" 
d="M31 210c-5 3 -10 11 -10 17v5c0 6 5 14 10 17l343 212c13 8 28 0 28 -16v-53c0 -8 -5 -15 -10 -18l-238 -144l238 -139c5 -3 10 -10 10 -17v-53c0 -16 -15 -24 -28 -16z" />
    <glyph glyph-name="equal" unicode="=" horiz-adv-x="498" 
d="M93 344c-11 0 -19 9 -19 19v43c0 10 8 19 19 19h312c11 0 19 -9 19 -19v-43c0 -10 -8 -19 -19 -19h-312zM93 133c-11 0 -19 9 -19 19v44c0 10 8 19 19 19h312c11 0 19 -9 19 -19v-44c0 -10 -8 -19 -19 -19h-312z" />
    <glyph glyph-name="greater" unicode="&#x3e;" horiz-adv-x="436" 
d="M34 21v53c0 7 4 14 10 17l237 139l-237 144c-6 3 -10 10 -10 18v53s15 24 28 16l343 -212c5 -3 10 -11 10 -17v-5c0 -6 -5 -14 -10 -17l-343 -205c-13 -8 -28 0 -28 16z" />
    <glyph glyph-name="question" unicode="?" horiz-adv-x="454" 
d="M182 272c-10 0 -19 8 -19 19v42c0 109 145 122 145 214c0 41 -32 77 -90 77c-71 0 -103 -43 -123 -60c-8 -7 -16 -7 -24 0l-33 32c-8 7 -6 18 0 26c0 0 63 88 190 88c104 0 184 -66 184 -161c0 -126 -155 -149 -155 -220v-37c0 -13 -9 -20 -21 -20h-54zM139 59
c0 39 31 70 69 70c39 0 70 -31 70 -70c0 -38 -31 -69 -70 -69c-38 0 -69 31 -69 69z" />
    <glyph glyph-name="at" unicode="@" horiz-adv-x="983" 
d="M37 223c0 284 186 487 468 487c273 0 429 -181 429 -422c0 -132 -55 -298 -218 -298c-69 0 -103 36 -117 78h-8c-21 -42 -66 -78 -128 -78c-103 0 -178 89 -178 211c0 126 76 209 181 209c72 0 110 -48 118 -56c10 30 8 46 41 46h13c10 0 19 -9 19 -19v-198
c0 -94 28 -114 67 -114c71 0 123 88 123 216c0 194 -116 345 -345 345c-230 0 -379 -155 -379 -407c0 -177 105 -309 253 -371c13 -6 15 -12 10 -25l-18 -45c-4 -9 -11 -13 -21 -9c-179 70 -310 236 -310 450zM372 204c-2 -79 44 -128 99 -128c64 0 92 42 93 97v92
c-2 14 -32 63 -93 63c-57 0 -97 -46 -99 -124z" />
    <glyph glyph-name="A" unicode="A" horiz-adv-x="662" 
d="M20 0c-15 0 -23 13 -17 26l307 673c3 6 12 11 17 11h10c5 0 14 -5 17 -11l305 -673c6 -13 -2 -26 -17 -26h-63c-12 0 -19 6 -23 15l-62 137h-327c-20 -46 -41 -91 -61 -137c-3 -7 -11 -15 -23 -15h-63zM206 238h250l-123 274h-5z" />
    <glyph glyph-name="B" unicode="B" horiz-adv-x="622" 
d="M97 19v662c0 10 8 19 19 19h224c121 0 208 -80 208 -185c0 -77 -57 -132 -104 -159c53 -22 125 -71 125 -163c0 -112 -92 -193 -218 -193h-235c-11 0 -19 9 -19 19zM199 396h135c64 0 103 47 103 107c0 61 -39 103 -103 103h-135v-210zM198 92h152c61 0 108 47 108 109
c0 61 -58 105 -123 105h-137v-214z" />
    <glyph glyph-name="C" unicode="C" horiz-adv-x="696" 
d="M46 349c0 200 161 361 361 361c101 0 174 -34 242 -93c9 -8 9 -20 1 -28l-44 -45c-7 -9 -16 -9 -25 0c-47 41 -111 67 -173 67c-143 0 -251 -120 -251 -260s109 -259 252 -259c73 0 124 29 172 66c9 7 18 6 24 1l46 -45c8 -7 6 -20 -1 -27c-68 -66 -154 -97 -243 -97
c-200 0 -361 159 -361 359z" />
    <glyph glyph-name="D" unicode="D" horiz-adv-x="743" 
d="M97 19v662c0 10 8 19 18 19h230c193 0 351 -157 351 -349c0 -194 -158 -351 -351 -351h-230c-10 0 -18 9 -18 19zM199 95h132c147 0 254 108 254 256c0 147 -107 254 -254 254h-132v-510z" />
    <glyph glyph-name="E" unicode="E" horiz-adv-x="589" 
d="M97 19v662c0 10 8 19 19 19h400c11 0 19 -9 19 -19v-56c0 -10 -8 -19 -19 -19h-316v-204h267c10 0 19 -9 19 -19v-56c0 -11 -9 -19 -19 -19h-267v-215h316c11 0 19 -9 19 -19v-55c0 -10 -8 -19 -19 -19h-400c-11 0 -19 9 -19 19z" />
    <glyph glyph-name="F" unicode="F" horiz-adv-x="566" 
d="M97 19v662c0 10 8 19 19 19h400c11 0 19 -9 19 -19v-56c0 -10 -8 -19 -19 -19h-316v-231h267c10 0 19 -9 19 -19v-55c0 -10 -9 -19 -19 -19h-267v-263c0 -10 -9 -19 -19 -19h-65c-11 0 -19 9 -19 19z" />
    <glyph glyph-name="G" unicode="G" horiz-adv-x="722" 
d="M46 349c0 200 161 361 360 361c96 0 175 -35 243 -93c8 -8 9 -20 1 -28c-15 -16 -30 -31 -45 -47c-8 -9 -16 -8 -26 1c-47 41 -109 68 -170 68c-142 0 -251 -120 -251 -260c0 -139 109 -259 251 -259c83 0 140 30 150 34v112h-98c-11 0 -19 8 -19 18v58c0 11 8 19 19 19
h182c10 0 18 -9 18 -19c0 -80 1 -162 1 -242c0 -5 -4 -13 -8 -16c0 0 -103 -66 -248 -66c-199 0 -360 159 -360 359z" />
    <glyph glyph-name="H" unicode="H" horiz-adv-x="768" 
d="M97 19v662c0 10 9 19 19 19h66c11 0 19 -9 19 -19v-279h366v279c0 10 8 19 19 19h66c10 0 19 -9 19 -19v-662c0 -10 -9 -19 -19 -19h-66c-11 0 -19 9 -19 19v289h-366v-289c0 -10 -8 -19 -19 -19h-66c-10 0 -19 9 -19 19z" />
    <glyph glyph-name="I" unicode="I" horiz-adv-x="298" 
d="M97 19v662c0 10 9 19 19 19h66c10 0 19 -9 19 -19v-662c0 -10 -9 -19 -19 -19h-66c-10 0 -19 9 -19 19z" />
    <glyph glyph-name="J" unicode="J" horiz-adv-x="412" 
d="M-17 63c-5 8 -4 18 2 25l36 39c14 12 23 8 32 -2c15 -17 43 -43 82 -43c49 0 101 38 101 126v473c0 10 8 19 19 19h66c11 0 19 -9 19 -19v-472c0 -139 -88 -219 -205 -219c-87 0 -135 52 -152 73z" />
    <glyph glyph-name="K" unicode="K" horiz-adv-x="636" 
d="M97 24v652c0 13 10 24 24 24h58c13 0 24 -11 24 -24v-277l282 291c4 5 11 10 19 10h75c18 0 28 -21 14 -36l-289 -294l306 -337c8 -10 3 -33 -18 -33h-80c-10 0 -16 4 -18 7l-291 328v-311c0 -13 -11 -24 -24 -24h-58c-14 0 -24 11 -24 24z" />
    <glyph glyph-name="L" unicode="L" horiz-adv-x="499" 
d="M97 19v662c0 10 8 19 19 19h66c10 0 19 -9 19 -19v-588h271c11 0 19 -9 19 -19v-55c0 -10 -8 -19 -19 -19h-356c-11 0 -19 9 -19 19z" />
    <glyph glyph-name="M" unicode="M" horiz-adv-x="869" 
d="M49 23l124 672c2 8 10 15 18 15h16c6 0 15 -5 17 -11l209 -511h4l208 511c2 6 10 11 17 11h16c8 0 16 -7 18 -15l123 -672c3 -14 -4 -23 -18 -23h-65c-9 0 -17 7 -19 14l-74 447h-3l-180 -460c-2 -6 -8 -11 -17 -11h-18c-8 0 -15 5 -17 11l-181 460h-4l-72 -447
c-1 -7 -10 -14 -18 -14h-65c-14 0 -21 9 -19 23z" />
    <glyph glyph-name="N" unicode="N" horiz-adv-x="775" 
d="M97 19v673c0 10 9 18 19 18h25l434 -502h1v473c0 10 8 19 19 19h64c10 0 19 -9 19 -19v-673c0 -10 -9 -18 -19 -18h-26l-434 516h-1v-487c0 -10 -8 -19 -19 -19h-63c-10 0 -19 9 -19 19z" />
    <glyph glyph-name="O" unicode="O" horiz-adv-x="811" 
d="M46 349c0 200 159 361 359 361s360 -161 360 -361s-160 -359 -360 -359s-359 159 -359 359zM146 349c0 -143 117 -259 259 -259c143 0 260 116 260 259c0 142 -117 261 -260 261c-142 0 -259 -119 -259 -261z" />
    <glyph glyph-name="P" unicode="P" horiz-adv-x="594" 
d="M97 19v662c0 10 8 19 19 19h228c123 0 224 -100 224 -221c0 -124 -101 -225 -223 -225h-145v-235c0 -10 -9 -19 -19 -19h-65c-11 0 -19 9 -19 19zM200 352h138c69 0 127 56 127 128c0 68 -58 120 -127 120h-138v-248z" />
    <glyph glyph-name="Q" unicode="Q" horiz-adv-x="812" 
d="M46 349c0 200 159 361 359 361s360 -161 360 -361c0 -142 -83 -265 -204 -325l121 -192c9 -14 0 -30 -16 -30h-78c-4 0 -12 3 -16 10l-108 182c-19 -3 -41 -4 -59 -4c-200 0 -359 159 -359 359zM146 349c0 -143 117 -259 259 -259c143 0 260 116 260 259
c0 142 -117 261 -260 261c-142 0 -259 -119 -259 -261z" />
    <glyph glyph-name="R" unicode="R" horiz-adv-x="665" 
d="M97 19v662c0 10 8 19 19 19h272c120 0 218 -95 218 -214c0 -92 -61 -168 -148 -203l137 -254c7 -13 0 -29 -17 -29h-78c-8 0 -14 5 -16 9l-133 265h-151v-255c0 -10 -9 -19 -19 -19h-65c-11 0 -19 9 -19 19zM202 360h178c65 0 122 55 122 124c0 65 -57 119 -122 119h-178
v-243z" />
    <glyph glyph-name="S" unicode="S" horiz-adv-x="537" 
d="M58 69c-9 8 -16 15 -6 32c9 13 17 28 26 41s23 17 34 8c6 -5 83 -69 160 -69c69 0 113 42 113 93c0 60 -52 98 -151 139c-102 43 -182 96 -182 212c0 78 60 185 219 185c100 0 175 -52 185 -59c8 -5 16 -19 6 -34c-8 -12 -17 -26 -25 -38c-8 -13 -21 -19 -35 -10
c-7 4 -77 50 -135 50c-84 0 -113 -53 -113 -90c0 -57 44 -92 127 -126c116 -47 215 -102 215 -224c0 -104 -93 -189 -223 -189c-122 0 -199 64 -215 79z" />
    <glyph glyph-name="T" unicode="T" 
d="M193 19v587h-163c-11 0 -19 9 -19 19v56c0 10 8 19 19 19h430c11 0 19 -9 19 -19v-56c0 -10 -8 -19 -19 -19h-163v-587c0 -10 -9 -19 -19 -19h-66c-10 0 -19 9 -19 19z" />
    <glyph glyph-name="U" unicode="U" horiz-adv-x="720" 
d="M88 261v420c0 10 9 19 19 19h67c11 0 19 -9 19 -19v-413c0 -100 64 -178 166 -178c103 0 168 77 168 176v415c0 10 8 19 19 19h67c10 0 19 -9 19 -19v-420c0 -152 -115 -271 -273 -271c-157 0 -271 119 -271 271z" />
    <glyph glyph-name="V" unicode="V" horiz-adv-x="664" 
d="M309 1l-305 673c-6 13 2 26 17 26h71c8 0 15 -6 17 -11l220 -495h6l220 495c2 5 8 11 17 11h71c15 0 23 -13 17 -26l-307 -673c-3 -6 -9 -11 -17 -11h-10c-7 0 -14 5 -17 11z" />
    <glyph glyph-name="W" unicode="W" horiz-adv-x="900" 
d="M222 4l-189 672c-4 14 4 24 18 24h67c8 0 16 -7 18 -14l121 -459h4l163 472c2 6 9 11 17 11h18c8 0 15 -5 17 -11l165 -472h4l119 459c2 7 10 14 18 14h67c14 0 22 -10 18 -24l-189 -672c-2 -8 -10 -14 -18 -14h-16c-7 0 -15 5 -17 11l-176 497h-5l-173 -497
c-2 -6 -10 -11 -17 -11h-16c-8 0 -16 6 -18 14z" />
    <glyph glyph-name="X" unicode="X" horiz-adv-x="608" 
d="M35 28l206 331l-198 313c-8 13 0 28 17 28h85c7 0 14 -4 17 -9l141 -239h1l143 239c2 4 8 9 16 9h85c17 0 25 -15 17 -28l-198 -313l205 -331c8 -14 0 -28 -17 -28h-77c-8 0 -15 5 -17 9l-157 256h-2l-155 -256c-3 -4 -9 -9 -17 -9h-77c-18 0 -26 15 -18 28z" />
    <glyph glyph-name="Y" unicode="Y" horiz-adv-x="574" 
d="M234 19v318l-234 334c-8 13 0 29 16 29h74c8 0 13 -5 16 -9l181 -255l181 255c3 4 9 9 16 9h75c16 0 24 -16 16 -29l-237 -333v-319c0 -10 -9 -19 -19 -19h-66c-11 0 -19 9 -19 19z" />
    <glyph glyph-name="Z" unicode="Z" horiz-adv-x="535" 
d="M27 19v18l330 563v4h-282c-10 0 -19 9 -19 19v58c0 10 9 19 19 19h411c10 0 19 -9 19 -19v-13l-331 -572v-1h292c11 0 19 -9 19 -19v-57c0 -10 -8 -19 -19 -19h-420c-10 0 -19 9 -19 19z" />
    <glyph glyph-name="bracketleft" unicode="[" horiz-adv-x="337" 
d="M163 -219h134c10 0 19 -8 19 -18v-44c0 -10 -9 -19 -19 -19h-206c-10 0 -19 9 -19 19v962c0 10 9 19 19 19h206c10 0 19 -9 19 -19v-44c0 -11 -9 -19 -19 -19h-134v-837z" />
    <glyph glyph-name="backslash" unicode="\" horiz-adv-x="342" 
d="M217 13l-195 662c-4 14 4 25 18 25h54c8 0 16 -6 18 -13l196 -662c4 -14 -5 -25 -18 -25h-55c-7 0 -16 6 -18 13z" />
    <glyph glyph-name="bracketright" unicode="]" horiz-adv-x="337" 
d="M40 -219h133v837h-133c-10 0 -19 8 -19 19v44c0 10 9 19 19 19h206c10 0 19 -9 19 -19v-962c0 -10 -9 -19 -19 -19h-206c-10 0 -19 9 -19 19v44c0 10 9 18 19 18z" />
    <glyph glyph-name="asciicircum" unicode="^" horiz-adv-x="524" 
d="M56 391c-16 0 -24 15 -16 28l205 285c3 5 11 10 17 10h5c6 0 14 -5 17 -10l199 -285c8 -13 0 -28 -16 -28h-51c-9 0 -14 6 -17 10l-136 190l-138 -190c-3 -5 -11 -10 -18 -10h-51z" />
    <glyph glyph-name="underscore" unicode="_" horiz-adv-x="399" 
d="M21 -29c0 11 8 19 19 19h319c11 0 19 -8 19 -19v-28c0 -10 -8 -18 -19 -18h-319c-11 0 -19 8 -19 18v28z" />
    <glyph glyph-name="grave" unicode="`" horiz-adv-x="302" 
d="M235 543l-168 72c-8 4 -11 14 -6 24l23 44c5 9 20 7 26 3l157 -91c6 -3 10 -11 6 -19l-14 -29c-4 -8 -10 -11 -24 -4z" />
    <glyph glyph-name="a" unicode="a" horiz-adv-x="423" 
d="M36 124c0 73 58 129 160 129c42 0 79 -12 79 -12c1 63 -11 88 -62 88c-46 0 -91 -12 -112 -18c-12 -3 -19 5 -22 16l-8 37c-3 13 4 20 13 23c7 3 64 23 138 23c128 0 140 -78 140 -178v-213c0 -10 -9 -19 -19 -19h-28c-9 0 -13 4 -17 14l-10 27c-22 -21 -61 -51 -123 -51
c-75 0 -129 51 -129 134zM123 125c0 -36 24 -64 61 -64c40 0 78 30 90 50v64c-6 4 -34 16 -70 16c-48 0 -81 -25 -81 -66z" />
    <glyph glyph-name="b" unicode="b" 
d="M65 19v662c0 10 9 19 19 19h58c10 0 19 -9 19 -19v-293c9 3 45 22 96 22c111 0 197 -93 197 -210c0 -115 -81 -210 -187 -210c-79 0 -127 56 -127 56l-8 -29c-3 -10 -9 -17 -18 -17h-30c-10 0 -19 9 -19 19zM160 136c5 -11 34 -60 95 -60c64 0 106 57 106 124
c0 68 -47 123 -114 123c-52 0 -87 -23 -87 -23v-164z" />
    <glyph glyph-name="c" unicode="c" horiz-adv-x="434" 
d="M35 199c0 118 99 211 210 211c61 0 108 -25 145 -71c7 -9 5 -21 -4 -28l-33 -30c-12 -11 -19 -3 -27 4c-18 20 -47 38 -80 38c-65 0 -116 -55 -116 -123c0 -69 50 -124 115 -124c51 0 72 26 93 46c9 9 18 9 27 2l27 -22c10 -8 14 -18 7 -28c-32 -51 -86 -84 -155 -84
c-112 0 -209 89 -209 209z" />
    <glyph glyph-name="d" unicode="d" 
d="M36 200c0 117 86 210 197 210c51 0 87 -19 96 -22v293c0 10 9 19 19 19h58c10 0 19 -9 19 -19v-662c0 -10 -9 -19 -19 -19h-30c-9 0 -15 7 -18 17l-8 29s-48 -56 -127 -56c-106 0 -187 95 -187 210zM129 200c0 -67 42 -124 106 -124c61 0 90 49 95 60v163s-35 24 -87 24
c-67 0 -114 -55 -114 -123z" />
    <glyph glyph-name="e" unicode="e" horiz-adv-x="451" 
d="M36 200c0 113 80 210 200 210c104 0 184 -78 184 -185c0 -7 -1 -20 -2 -27c-1 -10 -9 -17 -18 -17h-272c3 -54 50 -107 115 -107c36 0 69 16 89 29c12 7 19 11 27 1l28 -38c7 -8 10 -16 -2 -26c-29 -25 -81 -50 -148 -50c-121 0 -201 95 -201 210zM133 244h194
c-3 48 -43 89 -92 89c-54 0 -96 -39 -102 -89z" />
    <glyph glyph-name="f" unicode="f" horiz-adv-x="335" 
d="M96 19v298h-47c-11 0 -19 9 -19 19v45c0 11 8 19 19 19h47v124c0 124 74 186 170 186c54 0 96 -24 114 -40c7 -6 8 -16 4 -23l-25 -45c-5 -9 -15 -10 -25 -3c-13 9 -42 24 -66 24c-44 0 -75 -32 -75 -99v-124h108c11 0 19 -8 19 -19v-45c0 -10 -8 -19 -19 -19h-108v-298
c0 -10 -9 -19 -19 -19h-59c-10 0 -19 9 -19 19z" />
    <glyph glyph-name="g" unicode="g" horiz-adv-x="460" 
d="M25 24c0 77 71 114 71 114s-31 37 -31 97c0 93 70 175 172 175h175c11 0 19 -8 19 -19v-25c0 -7 -4 -16 -11 -17l-55 -15s43 -32 43 -107c0 -85 -66 -163 -170 -163c-51 0 -79 16 -87 16c-7 0 -41 -17 -41 -49c0 -23 18 -41 48 -41h136c87 0 157 -47 157 -134
c0 -88 -80 -166 -213 -166c-141 0 -198 72 -198 137c0 60 49 88 59 94v3c-21 6 -74 33 -74 100zM239 141c50 0 84 38 84 92s-34 92 -84 92c-51 0 -88 -38 -88 -92s37 -92 88 -92zM133 -157c0 -41 43 -71 104 -71s114 31 114 79c0 16 -10 57 -75 57c-29 0 -59 0 -88 -2
c-6 -2 -55 -18 -55 -63z" />
    <glyph glyph-name="h" unicode="h" horiz-adv-x="508" 
d="M65 19v662c0 10 9 19 19 19h58c10 0 19 -9 19 -19v-314c10 7 56 43 120 43c113 0 167 -81 167 -190v-201c0 -10 -9 -19 -19 -19h-56c-11 0 -19 9 -19 19v203c0 65 -33 101 -85 101c-61 0 -103 -46 -108 -63v-241c0 -11 -7 -19 -20 -19h-57c-10 0 -19 9 -19 19z" />
    <glyph glyph-name="i" unicode="i" horiz-adv-x="225" 
d="M111 563c-32 0 -57 26 -57 58c0 33 25 59 57 59c33 0 59 -26 59 -59c0 -32 -26 -58 -59 -58zM65 19v362c0 10 9 19 19 19h57c10 0 19 -9 19 -19v-362c0 -10 -9 -19 -19 -19h-57c-10 0 -19 9 -19 19z" />
    <glyph glyph-name="j" unicode="j" horiz-adv-x="226" 
d="M112 563c-32 0 -57 26 -57 58c0 33 25 59 57 59c33 0 59 -26 59 -59c0 -32 -26 -58 -59 -58zM65 -124v505c0 11 9 19 19 19h58c10 0 19 -8 19 -19v-505c0 -124 -74 -186 -170 -186c-54 0 -96 23 -114 40c-7 5 -8 16 -4 23l25 45c5 9 15 9 25 3c13 -9 42 -25 66 -25
c45 0 76 32 76 100z" />
    <glyph glyph-name="k" unicode="k" horiz-adv-x="467" 
d="M65 19v662c0 10 9 19 19 19h58c10 0 19 -9 19 -19v-433l156 140c7 6 15 12 25 12h70c17 0 20 -19 11 -27l-166 -151l196 -196c9 -9 6 -26 -11 -26h-82c-7 0 -15 4 -18 8l-181 186v-175c0 -10 -9 -19 -19 -19h-58c-10 0 -19 9 -19 19z" />
    <glyph glyph-name="l" unicode="l" horiz-adv-x="225" 
d="M65 19v662c0 10 9 19 19 19h57c10 0 19 -9 19 -19v-662c0 -10 -9 -19 -19 -19h-57c-10 0 -19 9 -19 19z" />
    <glyph glyph-name="m" unicode="m" horiz-adv-x="771" 
d="M65 19v362c0 10 9 19 19 19h28c9 0 14 -5 17 -12l11 -34c9 9 55 56 132 56c58 0 100 -23 129 -64c11 11 69 64 145 64c122 0 165 -86 165 -190v-201c0 -10 -8 -19 -19 -19h-56c-11 0 -19 9 -19 19v205c0 63 -29 99 -83 99c-61 0 -96 -43 -103 -49c2 -9 3 -28 3 -48v-207
c0 -10 -9 -19 -19 -19h-53c-11 0 -19 9 -19 19v205c0 64 -29 99 -85 99c-60 0 -94 -47 -99 -60v-244c0 -10 -9 -19 -19 -19h-56c-10 0 -19 9 -19 19z" />
    <glyph glyph-name="n" unicode="n" horiz-adv-x="508" 
d="M65 19v362c0 10 9 19 19 19h29c8 0 14 -5 16 -12l12 -34c7 8 60 56 140 56c122 0 167 -86 167 -190v-201c0 -10 -9 -19 -19 -19h-57c-11 0 -19 9 -19 19v205c0 64 -31 99 -83 99c-63 0 -106 -46 -111 -60v-244c0 -13 -6 -19 -23 -19h-52c-10 0 -19 9 -19 19z" />
    <glyph glyph-name="o" unicode="o" horiz-adv-x="474" 
d="M35 201c0 113 90 209 202 209s202 -96 202 -209c0 -115 -90 -211 -202 -211s-202 96 -202 211zM124 201c0 -69 50 -125 113 -125s113 56 113 125c0 67 -50 122 -113 122s-113 -55 -113 -122z" />
    <glyph glyph-name="p" unicode="p" 
d="M161 17v-298c0 -11 -7 -19 -21 -19h-56c-10 0 -19 9 -19 19v662c0 10 9 19 19 19h30c8 0 13 -4 17 -13l10 -26c7 7 48 49 122 49c110 0 191 -96 191 -211c0 -117 -86 -209 -195 -209c-52 0 -91 23 -98 27zM159 105c0 0 35 -29 88 -29c66 0 114 55 114 123
c0 67 -42 124 -110 124c-58 0 -88 -46 -92 -58v-160z" />
    <glyph glyph-name="q" unicode="q" 
d="M36 199c0 115 81 211 191 211c74 0 115 -42 122 -49l10 25c3 8 10 14 19 14h28c10 0 19 -9 19 -19v-662c0 -10 -9 -19 -19 -19h-57c-11 0 -20 7 -20 19v299c-7 -3 -46 -28 -98 -28c-109 0 -195 92 -195 209zM128 199c0 -68 48 -123 114 -123c53 0 88 28 88 28v157
c-4 12 -34 62 -92 62c-68 0 -110 -57 -110 -124z" />
    <glyph glyph-name="r" unicode="r" horiz-adv-x="336" 
d="M65 19v362c0 10 9 19 19 19h29c7 0 15 -6 17 -14l11 -34c7 10 44 58 117 58c38 0 84 -10 73 -37l-24 -49c-5 -11 -15 -13 -24 -9c-6 3 -21 7 -34 7c-58 0 -86 -42 -90 -49v-254c0 -17 -11 -19 -27 -19h-48c-10 0 -19 9 -19 19z" />
    <glyph glyph-name="s" unicode="s" horiz-adv-x="358" 
d="M47 31c-6 4 -10 13 -6 21l21 39c4 8 15 11 25 5c0 0 44 -26 93 -26c30 0 49 12 49 34c0 27 -22 40 -77 65c-62 27 -114 65 -114 131c0 50 41 110 137 110c56 0 98 -18 118 -31c9 -6 14 -19 8 -29l-18 -34c-5 -9 -18 -12 -26 -8c0 0 -44 21 -82 21c-34 0 -45 -15 -45 -30
c0 -26 25 -37 64 -54c73 -32 133 -63 133 -138c0 -62 -59 -117 -148 -117c-67 0 -111 24 -132 41z" />
    <glyph glyph-name="t" unicode="t" horiz-adv-x="346" 
d="M91 109v208h-42c-11 0 -19 9 -19 19v45c0 11 8 19 19 19h42v111c0 10 9 19 19 19l57 1c10 0 18 -9 18 -19v-112h102c11 0 19 -8 19 -19v-45c0 -10 -8 -19 -19 -19h-102v-198c0 -34 13 -40 32 -40c21 0 49 12 61 18c13 6 19 0 23 -9l18 -44c5 -11 1 -19 -9 -24
c-10 -6 -69 -30 -117 -30c-79 0 -102 48 -102 119z" />
    <glyph glyph-name="u" unicode="u" horiz-adv-x="493" 
d="M59 179v202c0 10 9 19 19 19h57c10 0 19 -9 19 -19v-205c0 -65 31 -100 82 -100c59 0 96 48 99 66v239c0 16 8 19 22 19h52c10 0 19 -9 19 -19v-362c0 -10 -9 -19 -19 -19h-28c-10 0 -15 7 -18 16l-10 29c-9 -8 -51 -55 -132 -55c-120 0 -162 85 -162 189z" />
    <glyph glyph-name="v" unicode="v" horiz-adv-x="415" 
d="M188 0l-177 377c-6 13 0 23 15 23h59c10 0 15 -5 18 -11l104 -236h1l108 236c5 11 16 11 27 11h46c15 0 21 -10 15 -23l-177 -377c-2 -5 -8 -10 -17 -10h-5c-9 0 -15 5 -17 10z" />
    <glyph glyph-name="w" unicode="w" horiz-adv-x="613" 
d="M146 0l-119 377c-6 13 0 23 14 23h54c7 0 16 -5 18 -12l67 -221h1l107 233c2 5 9 10 17 10h6c9 0 15 -5 17 -10l106 -234h1l66 222c5 12 20 12 31 12h39c14 0 21 -10 15 -23l-117 -377c-2 -6 -9 -10 -18 -10h-4c-8 0 -15 4 -17 9l-123 267h-1l-122 -267
c-2 -5 -8 -9 -16 -9h-5c-8 0 -15 4 -17 10z" />
    <glyph glyph-name="x" unicode="x" horiz-adv-x="430" 
d="M29 26l130 178l-126 169c-10 13 -3 27 12 27h65c9 0 18 -3 24 -11l80 -115h1l82 115c5 7 13 11 23 11h66c17 0 22 -13 12 -26l-126 -169l127 -179c9 -13 4 -26 -12 -26h-63c-8 0 -16 5 -21 12l-88 124h-1l-90 -128c-3 -4 -8 -8 -16 -8h-67c-17 0 -21 13 -12 26z" />
    <glyph glyph-name="y" unicode="y" horiz-adv-x="463" 
d="M185 14l-174 360c-6 13 2 26 17 26h66c6 0 14 -5 17 -11l124 -266h1l120 266c4 9 12 11 21 11h57c16 0 24 -13 17 -26l-306 -662c-3 -6 -9 -12 -17 -12h-60c-15 0 -24 13 -17 27z" />
    <glyph glyph-name="z" unicode="z" horiz-adv-x="364" 
d="M32 19v10l170 285v1h-142c-10 0 -18 9 -18 19v47c0 11 8 19 18 19h258c15 0 25 -14 17 -27l-169 -288v-1h132c11 0 19 -8 19 -19v-46c0 -10 -8 -19 -19 -19h-247c-10 0 -19 9 -19 19z" />
    <glyph glyph-name="braceleft" unicode="{" horiz-adv-x="394" 
d="M105 -54v142c0 45 -45 69 -69 73c-8 1 -15 10 -15 18v40c0 8 7 14 14 16c16 2 70 29 70 73v144c0 201 143 255 246 257c11 1 20 -5 20 -17l2 -41c1 -8 -6 -17 -13 -18c-87 -15 -159 -76 -159 -181v-119c0 -93 -62 -125 -81 -133v-3c28 -12 81 -40 81 -131v-120
c0 -105 72 -165 159 -180c7 -1 14 -8 13 -18l-2 -41c0 -10 -10 -18 -20 -17c-103 2 -246 55 -246 256z" />
    <glyph glyph-name="bar" unicode="|" horiz-adv-x="189" 
d="M71 -282v1023c0 11 9 19 19 19h10c10 0 18 -8 18 -19v-1023c0 -10 -9 -18 -19 -18h-9c-10 0 -19 8 -19 18z" />
    <glyph glyph-name="braceright" unicode="}" horiz-adv-x="394" 
d="M193 -54v120c0 91 53 119 81 131v3c-19 8 -81 40 -81 133v119c0 105 -72 166 -159 181c-7 1 -14 10 -13 18l2 41c0 12 9 18 20 17c103 -2 246 -56 246 -257v-144c0 -44 54 -71 70 -73c7 -2 14 -8 14 -16v-40c0 -8 -7 -17 -15 -18c-24 -4 -69 -28 -69 -73v-142
c0 -201 -143 -254 -246 -256c-10 -1 -20 7 -20 17l-2 41c-1 10 6 17 13 18c87 15 159 75 159 180z" />
    <glyph glyph-name="asciitilde" unicode="~" horiz-adv-x="544" 
d="M79 212c-12 11 -22 18 -34 29c-6 7 -8 17 -2 24c0 0 63 96 142 96c44 0 76 -24 104 -43c17 -12 46 -33 73 -33c40 0 66 38 79 57c8 10 19 11 28 3l32 -29c7 -6 8 -17 2 -24c0 0 -62 -95 -141 -95c-46 0 -78 24 -107 43c-19 13 -42 32 -70 32c-40 0 -66 -37 -79 -57
c-7 -10 -19 -11 -27 -3z" />
    <glyph glyph-name="uni00A0" unicode="&#xa0;" horiz-adv-x="220" 
 />
    <glyph glyph-name="Agrave" unicode="&#xc0;" horiz-adv-x="662" 
d="M20 0c-15 0 -23 13 -17 26l307 673c3 6 12 11 17 11h10c5 0 14 -5 17 -11l305 -673c6 -13 -2 -26 -17 -26h-63c-12 0 -19 6 -23 15l-62 137h-327c-20 -46 -41 -91 -61 -137c-3 -7 -11 -15 -23 -15h-63zM206 238h250l-123 274h-5zM400 774l-168 72c-8 4 -11 14 -6 24
l23 44c5 9 20 7 26 3l157 -91c6 -3 10 -11 6 -19l-14 -28c-4 -9 -10 -11 -24 -5z" />
    <glyph glyph-name="Aacute" unicode="&#xc1;" horiz-adv-x="662" 
d="M20 0c-15 0 -23 13 -17 26l307 673c3 6 12 11 17 11h10c5 0 14 -5 17 -11l305 -673c6 -13 -2 -26 -17 -26h-63c-12 0 -19 6 -23 15l-62 137h-327c-20 -46 -41 -91 -61 -137c-3 -7 -11 -15 -23 -15h-63zM206 238h250l-123 274h-5zM262 774c-13 -6 -20 -4 -24 5l-14 28
c-4 8 1 16 6 19l157 91c6 4 21 6 26 -3l23 -44c6 -10 2 -20 -6 -24z" />
    <glyph glyph-name="Acircumflex" unicode="&#xc2;" horiz-adv-x="662" 
d="M20 0c-15 0 -23 13 -17 26l307 673c3 6 12 11 17 11h10c5 0 14 -5 17 -11l305 -673c6 -13 -2 -26 -17 -26h-63c-12 0 -19 6 -23 15l-62 137h-327c-20 -46 -41 -91 -61 -137c-3 -7 -11 -15 -23 -15h-63zM206 238h250l-123 274h-5zM235 768c-12 -7 -17 -5 -23 3l-20 27
c-5 7 0 15 6 19l125 98c6 5 17 5 24 0l125 -98c6 -4 11 -12 6 -19l-20 -27c-6 -8 -11 -11 -23 -3l-100 65z" />
    <glyph glyph-name="Atilde" unicode="&#xc3;" horiz-adv-x="662" 
d="M20 0c-15 0 -23 13 -17 26l307 673c3 6 12 11 17 11h10c5 0 14 -5 17 -11l305 -673c6 -13 -2 -26 -17 -26h-63c-12 0 -19 6 -23 15l-62 137h-327c-20 -46 -41 -91 -61 -137c-3 -7 -11 -15 -23 -15h-63zM206 238h250l-123 274h-5zM211 792l-23 15c-10 6 -9 16 -6 23
c9 18 39 84 98 84c58 0 77 -64 109 -64c23 0 31 25 41 40c6 10 13 16 25 9c8 -6 20 -11 26 -19c5 -8 2 -16 -3 -27c-10 -22 -39 -75 -94 -75c-51 0 -78 65 -107 65c-24 0 -37 -28 -43 -41c-5 -11 -10 -17 -23 -10z" />
    <glyph glyph-name="Adieresis" unicode="&#xc4;" horiz-adv-x="662" 
d="M20 0c-15 0 -23 13 -17 26l307 673c3 6 12 11 17 11h10c5 0 14 -5 17 -11l305 -673c6 -13 -2 -26 -17 -26h-63c-12 0 -19 6 -23 15l-62 137h-327c-20 -46 -41 -91 -61 -137c-3 -7 -11 -15 -23 -15h-63zM206 238h250l-123 274h-5zM444 782c-31 0 -56 26 -56 57
s25 56 56 56s57 -25 57 -56s-26 -57 -57 -57zM215 782c-31 0 -56 26 -56 57s25 56 56 56s57 -25 57 -56s-26 -57 -57 -57z" />
    <glyph glyph-name="Amacron" unicode="&#x100;" horiz-adv-x="662" 
d="M20 0c-15 0 -23 13 -17 26l307 673c3 6 12 11 17 11h10c5 0 14 -5 17 -11l305 -673c6 -13 -2 -26 -17 -26h-63c-12 0 -19 6 -23 15l-62 137h-327c-20 -46 -41 -91 -61 -137c-3 -7 -11 -15 -23 -15h-63zM206 238h250l-123 274h-5zM202 814c-11 0 -19 8 -19 18v28
c0 11 8 19 19 19h256c11 0 19 -8 19 -19v-28c0 -10 -8 -18 -19 -18h-256z" />
    <glyph glyph-name="Abreve" unicode="&#x102;" horiz-adv-x="662" 
d="M20 0c-15 0 -23 13 -17 26l307 673c3 6 12 11 17 11h10c5 0 14 -5 17 -11l305 -673c6 -13 -2 -26 -17 -26h-63c-12 0 -19 6 -23 15l-62 137h-327c-20 -46 -41 -91 -61 -137c-3 -7 -11 -15 -23 -15h-63zM206 238h250l-123 274h-5zM331 768c-72 0 -128 50 -138 116
c-2 11 4 21 16 21h29c10 0 16 -8 18 -16c11 -34 38 -58 75 -58c33 0 62 27 72 58c3 10 10 16 18 16h31c12 0 18 -10 16 -21c-11 -66 -67 -116 -137 -116z" />
    <glyph glyph-name="Aring" unicode="&#xc5;" horiz-adv-x="662" 
d="M20 0c-15 0 -23 13 -17 26l307 673c3 6 12 11 17 11h10c5 0 14 -5 17 -11l305 -673c6 -13 -2 -26 -17 -26h-63c-12 0 -19 6 -23 15l-62 137h-327c-20 -46 -41 -91 -61 -137c-3 -7 -11 -15 -23 -15h-63zM206 238h250l-123 274h-5zM330 756c-62 0 -111 49 -111 111
s49 111 111 111c61 0 111 -49 111 -111s-50 -111 -111 -111zM330 811c29 0 53 27 53 56s-24 53 -53 53c-31 0 -56 -24 -56 -53s24 -56 56 -56z" />
    <glyph glyph-name="Aringacute" unicode="&#x1fa;" horiz-adv-x="662" 
d="M241 893l-14 28c-4 8 1 16 6 19l157 91c6 4 21 6 26 -3l23 -44c6 -10 2 -20 -6 -24l-168 -72c-13 -6 -20 -4 -24 5zM20 0c-15 0 -23 13 -17 26l292 640c-43 16 -73 56 -73 105c0 62 49 111 111 111c61 0 111 -49 111 -111c0 -49 -32 -90 -75 -105l290 -640
c6 -13 -2 -26 -17 -26h-63c-12 0 -19 6 -23 15l-62 137h-327l-61 -137c-3 -7 -11 -15 -23 -15h-63zM333 715c29 0 53 27 53 56s-24 53 -53 53c-31 0 -56 -24 -56 -53s24 -56 56 -56zM206 238h250l-123 274h-5z" />
    <glyph glyph-name="Aogonek" unicode="&#x104;" horiz-adv-x="662" 
d="M20 0c-15 0 -23 13 -17 26l307 673c3 6 12 11 17 11h10c5 0 14 -5 17 -11l305 -673c6 -13 -2 -26 -17 -26h-38c-17 -17 -47 -52 -47 -98c0 -34 25 -60 62 -60c22 0 38 7 50 12c10 4 19 -3 19 -15v-28c0 -9 -7 -14 -14 -18c-7 -3 -36 -12 -68 -12c-62 0 -116 33 -116 106
s59 118 67 124l-63 141h-327l-61 -137c-3 -7 -11 -15 -23 -15h-63zM206 238h250l-123 274h-5z" />
    <glyph glyph-name="AE" unicode="&#xc6;" horiz-adv-x="897" 
d="M3 0c-15 0 -20 13 -12 26l401 643c13 20 18 31 44 31h388c11 0 19 -9 19 -19v-56c0 -10 -8 -19 -19 -19h-320v-204h271c10 0 19 -9 19 -19v-56c0 -11 -9 -19 -19 -19h-271v-215h320c11 0 19 -9 19 -19v-55c0 -10 -8 -19 -19 -19h-401c-11 0 -19 9 -19 19v133h-222
l-87 -139c-5 -7 -12 -13 -22 -13h-70zM234 238h170v274z" />
    <glyph glyph-name="AEacute" unicode="&#x1fc;" horiz-adv-x="897" 
d="M3 0c-15 0 -20 13 -12 26l401 643c13 20 18 31 44 31h388c11 0 19 -9 19 -19v-56c0 -10 -8 -19 -19 -19h-320v-204h271c10 0 19 -9 19 -19v-56c0 -11 -9 -19 -19 -19h-271v-215h320c11 0 19 -9 19 -19v-55c0 -10 -8 -19 -19 -19h-401c-11 0 -19 9 -19 19v133h-222
l-87 -139c-5 -7 -12 -13 -22 -13h-70zM234 238h170v274zM544 775c-13 -6 -20 -4 -24 5l-14 28c-4 8 1 16 6 19l157 91c6 4 21 6 26 -3l23 -44c6 -10 2 -20 -6 -24z" />
    <glyph glyph-name="Cacute" unicode="&#x106;" horiz-adv-x="696" 
d="M46 349c0 200 161 361 361 361c101 0 174 -34 242 -93c9 -8 9 -20 1 -28l-44 -45c-7 -9 -16 -9 -25 0c-47 41 -111 67 -173 67c-143 0 -251 -120 -251 -260s109 -259 252 -259c73 0 124 29 172 66c9 7 18 6 24 1l46 -45c8 -7 6 -20 -1 -27c-68 -66 -154 -97 -243 -97
c-200 0 -361 159 -361 359zM336 774c-13 -6 -20 -4 -24 5l-14 28c-4 8 1 16 6 19l157 91c6 4 21 6 26 -3l23 -44c6 -10 2 -20 -6 -24z" />
    <glyph glyph-name="Ccircumflex" unicode="&#x108;" horiz-adv-x="696" 
d="M46 349c0 200 161 361 361 361c101 0 174 -34 242 -93c9 -8 9 -20 1 -28l-44 -45c-7 -9 -16 -9 -25 0c-47 41 -111 67 -173 67c-143 0 -251 -120 -251 -260s109 -259 252 -259c73 0 124 29 172 66c9 7 18 6 24 1l46 -45c8 -7 6 -20 -1 -27c-68 -66 -154 -97 -243 -97
c-200 0 -361 159 -361 359zM306 769c-12 -7 -17 -5 -23 3l-20 27c-5 7 0 15 6 19l125 98c6 5 17 5 24 0l125 -98c6 -4 11 -12 6 -19l-20 -27c-6 -8 -11 -11 -23 -3l-100 65z" />
    <glyph glyph-name="Ccaron" unicode="&#x10c;" horiz-adv-x="696" 
d="M46 349c0 200 161 361 361 361c101 0 174 -34 242 -93c9 -8 9 -20 1 -28l-44 -45c-7 -9 -16 -9 -25 0c-47 41 -111 67 -173 67c-143 0 -251 -120 -251 -260s109 -259 252 -259c73 0 124 29 172 66c9 7 18 6 24 1l46 -45c8 -7 6 -20 -1 -27c-68 -66 -154 -97 -243 -97
c-200 0 -361 159 -361 359zM394 768l-125 98c-6 4 -11 12 -6 19l20 27c6 8 11 10 23 3l100 -65l100 65c12 8 17 5 23 -3l20 -27c5 -7 0 -15 -6 -19l-125 -98c-7 -5 -18 -5 -24 0z" />
    <glyph glyph-name="Cdotaccent" unicode="&#x10a;" horiz-adv-x="696" 
d="M46 349c0 200 161 361 361 361c101 0 174 -34 242 -93c9 -8 9 -20 1 -28l-44 -45c-7 -9 -16 -9 -25 0c-47 41 -111 67 -173 67c-143 0 -251 -120 -251 -260s109 -259 252 -259c73 0 124 29 172 66c9 7 18 6 24 1l46 -45c8 -7 6 -20 -1 -27c-68 -66 -154 -97 -243 -97
c-200 0 -361 159 -361 359zM407 788c-35 0 -64 29 -64 65s29 64 64 64c36 0 65 -28 65 -64s-29 -65 -65 -65z" />
    <glyph glyph-name="Ccedilla" unicode="&#xc7;" horiz-adv-x="698" 
d="M349 -5c-172 27 -302 174 -302 354c0 200 161 361 361 361c101 0 174 -34 242 -93c9 -8 9 -20 1 -28l-44 -45c-7 -9 -16 -9 -25 0c-47 41 -111 67 -173 67c-143 0 -251 -120 -251 -260s109 -259 252 -259c73 0 124 29 172 66c9 7 18 6 24 1l46 -45c8 -7 6 -20 -1 -27
c-68 -66 -154 -97 -242 -97v-43c61 -8 101 -46 101 -103c0 -58 -46 -104 -105 -104c-30 0 -59 15 -76 35c-8 9 -7 20 1 27l17 14c7 5 17 5 22 -1c10 -11 25 -15 36 -15c23 0 39 19 39 42c0 35 -35 51 -78 56c-15 3 -17 14 -17 19v78z" />
    <glyph glyph-name="Dcaron" unicode="&#x10e;" horiz-adv-x="743" 
d="M97 19v662c0 10 8 19 18 19h230c193 0 351 -157 351 -349c0 -194 -158 -351 -351 -351h-230c-10 0 -18 9 -18 19zM199 95h132c147 0 254 108 254 256c0 147 -107 254 -254 254h-132v-510zM323 768l-125 98c-6 4 -11 12 -6 19l20 27c6 8 11 10 23 3l100 -65l100 65
c12 8 17 5 23 -3l20 -27c5 -7 0 -15 -6 -19l-125 -98c-7 -5 -18 -5 -24 0z" />
    <glyph glyph-name="Dcroat" unicode="&#x110;" horiz-adv-x="747" 
d="M101 19v303h-29c-10 0 -18 9 -18 19v10c0 10 8 19 18 19h29v311c0 10 8 19 18 19h230c193 0 351 -157 351 -349c0 -194 -158 -351 -351 -351h-230c-10 0 -18 9 -18 19zM203 95h132c147 0 254 108 254 256c0 147 -107 254 -254 254h-132v-235h188c11 0 19 -9 19 -19v-11
c0 -10 -8 -18 -19 -18h-188v-227z" />
    <glyph glyph-name="Eth" unicode="&#xd0;" horiz-adv-x="747" 
d="M101 19v303h-29c-10 0 -18 9 -18 19v10c0 10 8 19 18 19h29v311c0 10 8 19 18 19h230c193 0 351 -157 351 -349c0 -194 -158 -351 -351 -351h-230c-10 0 -18 9 -18 19zM203 95h132c147 0 254 108 254 256c0 147 -107 254 -254 254h-132v-235h188c11 0 19 -9 19 -19v-11
c0 -10 -8 -18 -19 -18h-188v-227z" />
    <glyph glyph-name="Egrave" unicode="&#xc8;" horiz-adv-x="589" 
d="M97 19v662c0 10 8 19 19 19h400c11 0 19 -9 19 -19v-56c0 -10 -8 -19 -19 -19h-316v-204h267c10 0 19 -9 19 -19v-56c0 -11 -9 -19 -19 -19h-267v-215h316c11 0 19 -9 19 -19v-55c0 -10 -8 -19 -19 -19h-400c-11 0 -19 9 -19 19zM382 774l-168 72c-8 4 -11 14 -6 24
l23 44c5 9 20 7 26 3l157 -91c6 -3 10 -11 6 -19l-14 -28c-4 -9 -10 -11 -24 -5z" />
    <glyph glyph-name="Eacute" unicode="&#xc9;" horiz-adv-x="589" 
d="M97 19v662c0 10 8 19 19 19h400c11 0 19 -9 19 -19v-56c0 -10 -8 -19 -19 -19h-316v-204h267c10 0 19 -9 19 -19v-56c0 -11 -9 -19 -19 -19h-267v-215h316c11 0 19 -9 19 -19v-55c0 -10 -8 -19 -19 -19h-400c-11 0 -19 9 -19 19zM245 774c-13 -6 -20 -4 -24 5l-14 28
c-4 8 1 16 6 19l157 91c6 4 21 6 26 -3l23 -44c6 -10 2 -20 -6 -24z" />
    <glyph glyph-name="Ecircumflex" unicode="&#xca;" horiz-adv-x="589" 
d="M97 19v662c0 10 8 19 19 19h400c11 0 19 -9 19 -19v-56c0 -10 -8 -19 -19 -19h-316v-204h267c10 0 19 -9 19 -19v-56c0 -11 -9 -19 -19 -19h-267v-215h316c11 0 19 -9 19 -19v-55c0 -10 -8 -19 -19 -19h-400c-11 0 -19 9 -19 19zM211 769c-12 -7 -17 -5 -23 3l-20 27
c-5 7 0 15 6 19l125 98c6 5 17 5 24 0l125 -98c6 -4 11 -12 6 -19l-20 -27c-6 -8 -11 -11 -23 -3l-100 65z" />
    <glyph glyph-name="Ecaron" unicode="&#x11a;" horiz-adv-x="589" 
d="M97 19v662c0 10 8 19 19 19h400c11 0 19 -9 19 -19v-56c0 -10 -8 -19 -19 -19h-316v-204h267c10 0 19 -9 19 -19v-56c0 -11 -9 -19 -19 -19h-267v-215h316c11 0 19 -9 19 -19v-55c0 -10 -8 -19 -19 -19h-400c-11 0 -19 9 -19 19zM299 768l-125 98c-6 4 -11 12 -6 19
l20 27c6 8 11 10 23 3l100 -65l100 65c12 8 17 5 23 -3l20 -27c5 -7 0 -15 -6 -19l-125 -98c-7 -5 -18 -5 -24 0z" />
    <glyph glyph-name="Edieresis" unicode="&#xcb;" horiz-adv-x="589" 
d="M97 19v662c0 10 8 19 19 19h400c11 0 19 -9 19 -19v-56c0 -10 -8 -19 -19 -19h-316v-204h267c10 0 19 -9 19 -19v-56c0 -11 -9 -19 -19 -19h-267v-215h316c11 0 19 -9 19 -19v-55c0 -10 -8 -19 -19 -19h-400c-11 0 -19 9 -19 19zM429 782c-31 0 -56 26 -56 57
s25 56 56 56s57 -25 57 -56s-26 -57 -57 -57zM200 782c-31 0 -56 26 -56 57s25 56 56 56s57 -25 57 -56s-26 -57 -57 -57z" />
    <glyph glyph-name="Emacron" unicode="&#x112;" horiz-adv-x="589" 
d="M97 19v662c0 10 8 19 19 19h400c11 0 19 -9 19 -19v-56c0 -10 -8 -19 -19 -19h-316v-204h267c10 0 19 -9 19 -19v-56c0 -11 -9 -19 -19 -19h-267v-215h316c11 0 19 -9 19 -19v-55c0 -10 -8 -19 -19 -19h-400c-11 0 -19 9 -19 19zM186 814c-11 0 -19 8 -19 18v28
c0 11 8 19 19 19h256c11 0 19 -8 19 -19v-28c0 -10 -8 -18 -19 -18h-256z" />
    <glyph glyph-name="Ebreve" unicode="&#x114;" horiz-adv-x="589" 
d="M97 19v662c0 10 8 19 19 19h400c11 0 19 -9 19 -19v-56c0 -10 -8 -19 -19 -19h-316v-204h267c10 0 19 -9 19 -19v-56c0 -11 -9 -19 -19 -19h-267v-215h316c11 0 19 -9 19 -19v-55c0 -10 -8 -19 -19 -19h-400c-11 0 -19 9 -19 19zM314 768c-72 0 -128 50 -138 116
c-2 11 4 21 16 21h29c10 0 16 -8 18 -16c11 -34 38 -58 75 -58c33 0 62 27 72 58c3 10 10 16 18 16h31c12 0 18 -10 16 -21c-11 -66 -67 -116 -137 -116z" />
    <glyph glyph-name="Edotaccent" unicode="&#x116;" horiz-adv-x="589" 
d="M97 19v662c0 10 8 19 19 19h400c11 0 19 -9 19 -19v-56c0 -10 -8 -19 -19 -19h-316v-204h267c10 0 19 -9 19 -19v-56c0 -11 -9 -19 -19 -19h-267v-215h316c11 0 19 -9 19 -19v-55c0 -10 -8 -19 -19 -19h-400c-11 0 -19 9 -19 19zM318 788c-35 0 -64 29 -64 65
s29 64 64 64c36 0 65 -28 65 -64s-29 -65 -65 -65z" />
    <glyph glyph-name="Eogonek" unicode="&#x118;" horiz-adv-x="589" 
d="M97 19v662c0 10 8 19 19 19h400c11 0 19 -9 19 -19v-56c0 -10 -8 -19 -19 -19h-316v-204h267c10 0 19 -9 19 -19v-56c0 -11 -9 -19 -19 -19h-267v-215h316c11 0 19 -9 19 -19v-55c0 -10 -8 -19 -19 -19c-17 -17 -47 -52 -47 -98c0 -34 25 -60 62 -60c22 0 38 7 50 12
c10 4 19 -3 19 -15v-28c0 -9 -7 -14 -14 -18c-7 -3 -36 -12 -68 -12c-62 0 -116 33 -116 106c0 55 34 95 55 113h-341c-11 0 -19 9 -19 19z" />
    <glyph glyph-name="Gcircumflex" unicode="&#x11c;" horiz-adv-x="722" 
d="M46 349c0 200 161 361 360 361c96 0 175 -35 243 -93c8 -8 9 -20 1 -28c-15 -16 -30 -31 -45 -47c-8 -9 -16 -8 -26 1c-47 41 -109 68 -170 68c-142 0 -251 -120 -251 -260c0 -139 109 -259 251 -259c83 0 140 30 150 34v112h-98c-11 0 -19 8 -19 18v58c0 11 8 19 19 19
h182c10 0 18 -9 18 -19c0 -80 1 -162 1 -242c0 -5 -4 -13 -8 -16c0 0 -103 -66 -248 -66c-199 0 -360 159 -360 359zM305 769c-12 -7 -17 -5 -23 3l-20 27c-5 7 0 15 6 19l125 98c6 5 17 5 24 0l125 -98c6 -4 11 -12 6 -19l-20 -27c-6 -8 -11 -11 -23 -3l-100 65z" />
    <glyph glyph-name="Gbreve" unicode="&#x11e;" horiz-adv-x="722" 
d="M46 349c0 200 161 361 360 361c96 0 175 -35 243 -93c8 -8 9 -20 1 -28c-15 -16 -30 -31 -45 -47c-8 -9 -16 -8 -26 1c-47 41 -109 68 -170 68c-142 0 -251 -120 -251 -260c0 -139 109 -259 251 -259c83 0 140 30 150 34v112h-98c-11 0 -19 8 -19 18v58c0 11 8 19 19 19
h182c10 0 18 -9 18 -19c0 -80 1 -162 1 -242c0 -5 -4 -13 -8 -16c0 0 -103 -66 -248 -66c-199 0 -360 159 -360 359zM407 768c-72 0 -128 50 -138 116c-2 11 4 21 16 21h29c10 0 16 -8 18 -16c11 -34 38 -58 75 -58c33 0 62 27 72 58c3 10 10 16 18 16h31
c12 0 18 -10 16 -21c-11 -66 -67 -116 -137 -116z" />
    <glyph glyph-name="Gdotaccent" unicode="&#x120;" horiz-adv-x="722" 
d="M46 349c0 200 161 361 360 361c96 0 175 -35 243 -93c8 -8 9 -20 1 -28c-15 -16 -30 -31 -45 -47c-8 -9 -16 -8 -26 1c-47 41 -109 68 -170 68c-142 0 -251 -120 -251 -260c0 -139 109 -259 251 -259c83 0 140 30 150 34v112h-98c-11 0 -19 8 -19 18v58c0 11 8 19 19 19
h182c10 0 18 -9 18 -19c0 -80 1 -162 1 -242c0 -5 -4 -13 -8 -16c0 0 -103 -66 -248 -66c-199 0 -360 159 -360 359zM406 788c-35 0 -64 29 -64 65s29 64 64 64c36 0 65 -28 65 -64s-29 -65 -65 -65z" />
    <glyph glyph-name="Gcommaaccent" unicode="&#x122;" horiz-adv-x="722" 
d="M46 349c0 200 161 361 360 361c96 0 175 -35 243 -93c8 -8 9 -20 1 -28c-15 -16 -30 -31 -45 -47c-8 -9 -16 -8 -26 1c-47 41 -109 68 -170 68c-142 0 -251 -120 -251 -260c0 -139 109 -259 251 -259c83 0 140 30 150 34v112h-98c-11 0 -19 8 -19 18v58c0 11 8 19 19 19
h182c10 0 18 -9 18 -19c0 -80 1 -162 1 -242c0 -5 -4 -13 -8 -16c0 0 -103 -66 -248 -66c-199 0 -360 159 -360 359zM408 -92c34 0 74 -21 74 -98c0 -91 -58 -157 -87 -183c-9 -8 -17 -8 -23 -1l-15 14c-5 6 -4 16 5 24c10 8 64 52 65 124c-3 -1 -11 -3 -22 -3
c-33 0 -62 27 -62 61c0 35 29 62 65 62z" />
    <glyph glyph-name="Hcircumflex" unicode="&#x124;" horiz-adv-x="768" 
d="M97 19v662c0 10 9 19 19 19h66c11 0 19 -9 19 -19v-279h366v279c0 10 8 19 19 19h66c10 0 19 -9 19 -19v-662c0 -10 -9 -19 -19 -19h-66c-11 0 -19 9 -19 19v289h-366v-289c0 -10 -8 -19 -19 -19h-66c-10 0 -19 9 -19 19zM289 769c-12 -7 -17 -5 -23 3l-20 27
c-5 7 0 15 6 19l125 98c6 5 17 5 24 0l125 -98c6 -4 11 -12 6 -19l-20 -27c-6 -8 -11 -11 -23 -3l-100 65z" />
    <glyph glyph-name="Hbar" unicode="&#x126;" horiz-adv-x="768" 
d="M97 19v515h-24c-10 0 -18 9 -18 19v10c0 10 8 19 18 19h24v99c0 10 9 19 19 19h66c11 0 19 -9 19 -19v-99h366v99c0 10 8 19 19 19h66c10 0 19 -9 19 -19v-99h23c11 0 19 -9 19 -19v-11c0 -10 -8 -18 -19 -18h-23v-515c0 -10 -9 -19 -19 -19h-66c-11 0 -19 9 -19 19v289
h-366v-289c0 -10 -8 -19 -19 -19h-66c-10 0 -19 9 -19 19zM201 402h366v132h-366v-132z" />
    <glyph glyph-name="Igrave" unicode="&#xcc;" horiz-adv-x="298" 
d="M97 19v662c0 10 9 19 19 19h66c10 0 19 -9 19 -19v-662c0 -10 -9 -19 -19 -19h-66c-10 0 -19 9 -19 19zM217 774l-168 72c-8 4 -11 14 -6 24l23 44c5 9 20 7 26 3l157 -91c6 -3 10 -11 6 -19l-14 -28c-4 -9 -10 -11 -24 -5z" />
    <glyph glyph-name="Iacute" unicode="&#xcd;" horiz-adv-x="298" 
d="M97 19v662c0 10 9 19 19 19h66c10 0 19 -9 19 -19v-662c0 -10 -9 -19 -19 -19h-66c-10 0 -19 9 -19 19zM80 774c-13 -6 -20 -4 -24 5l-14 28c-4 8 1 16 6 19l157 91c6 4 21 6 26 -3l23 -44c6 -10 2 -20 -6 -24z" />
    <glyph glyph-name="Ibreve" unicode="&#x12c;" horiz-adv-x="298" 
d="M97 19v662c0 10 9 19 19 19h66c10 0 19 -9 19 -19v-662c0 -10 -9 -19 -19 -19h-66c-10 0 -19 9 -19 19zM150 768c-72 0 -128 50 -138 116c-2 11 4 21 16 21h29c10 0 16 -8 18 -16c11 -34 38 -58 75 -58c33 0 62 27 72 58c3 10 10 16 18 16h31c12 0 18 -10 16 -21
c-11 -66 -67 -116 -137 -116z" />
    <glyph glyph-name="Icircumflex" unicode="&#xce;" horiz-adv-x="298" 
d="M97 19v662c0 10 9 19 19 19h66c10 0 19 -9 19 -19v-662c0 -10 -9 -19 -19 -19h-66c-10 0 -19 9 -19 19zM48 769c-12 -7 -17 -5 -23 3l-20 27c-5 7 0 15 6 19l125 98c6 5 17 5 24 0l125 -98c6 -4 11 -12 6 -19l-20 -27c-6 -8 -11 -11 -23 -3l-100 65z" />
    <glyph glyph-name="Itilde" unicode="&#x128;" horiz-adv-x="298" 
d="M97 19v662c0 10 9 19 19 19h66c10 0 19 -9 19 -19v-662c0 -10 -9 -19 -19 -19h-66c-10 0 -19 9 -19 19zM27 792l-23 15c-10 6 -9 16 -6 23c9 18 39 84 98 84c58 0 77 -64 109 -64c23 0 31 25 41 40c6 10 13 16 25 9c8 -6 20 -11 26 -19c5 -8 2 -16 -3 -27
c-10 -22 -39 -75 -94 -75c-51 0 -78 65 -107 65c-24 0 -37 -28 -43 -41c-5 -11 -10 -17 -23 -10z" />
    <glyph glyph-name="Idieresis" unicode="&#xcf;" horiz-adv-x="298" 
d="M97 19v662c0 10 9 19 19 19h66c10 0 19 -9 19 -19v-662c0 -10 -9 -19 -19 -19h-66c-10 0 -19 9 -19 19zM264 782c-31 0 -56 26 -56 57s25 56 56 56s57 -25 57 -56s-26 -57 -57 -57zM35 782c-31 0 -56 26 -56 57s25 56 56 56s57 -25 57 -56s-26 -57 -57 -57z" />
    <glyph glyph-name="Imacron" unicode="&#x12a;" horiz-adv-x="298" 
d="M97 19v662c0 10 9 19 19 19h66c10 0 19 -9 19 -19v-662c0 -10 -9 -19 -19 -19h-66c-10 0 -19 9 -19 19zM22 814c-11 0 -19 8 -19 18v28c0 11 8 19 19 19h256c11 0 19 -8 19 -19v-28c0 -10 -8 -18 -19 -18h-256z" />
    <glyph glyph-name="Idotaccent" unicode="&#x130;" horiz-adv-x="298" 
d="M97 19v662c0 10 9 19 19 19h66c10 0 19 -9 19 -19v-662c0 -10 -9 -19 -19 -19h-66c-10 0 -19 9 -19 19zM149 788c-35 0 -64 29 -64 65s29 64 64 64c36 0 65 -28 65 -64s-29 -65 -65 -65z" />
    <glyph glyph-name="Iogonek" unicode="&#x12e;" horiz-adv-x="298" 
d="M97 19v662c0 10 9 19 19 19h66c10 0 19 -9 19 -19v-662c0 -10 -9 -19 -19 -19h-8c-17 -17 -47 -52 -47 -98c0 -34 25 -60 62 -60c22 0 38 7 50 12c10 4 19 -3 19 -15v-28c0 -9 -7 -14 -14 -18c-7 -3 -36 -12 -68 -12c-62 0 -116 33 -116 106c0 55 34 95 55 113
c-10 0 -18 9 -18 19z" />
    <glyph glyph-name="Jcircumflex" unicode="&#x134;" horiz-adv-x="413" 
d="M-17 63c-5 8 -4 18 2 25l36 39c14 12 23 8 32 -2c15 -17 43 -43 82 -43c49 0 101 38 101 126v473c0 10 8 19 19 19h66c11 0 19 -9 19 -19v-472c0 -139 -88 -219 -205 -219c-87 0 -135 52 -152 73zM189 769c-12 -7 -17 -5 -23 3l-20 27c-5 7 0 15 6 19l125 98
c6 5 17 5 24 0l125 -98c6 -4 11 -12 6 -19l-20 -27c-6 -8 -11 -11 -23 -3l-100 65z" />
    <glyph glyph-name="Kcommaaccent" unicode="&#x136;" horiz-adv-x="636" 
d="M97 24v652c0 13 10 24 24 24h58c13 0 24 -11 24 -24v-277l282 291c4 5 11 10 19 10h75c18 0 28 -21 14 -36l-289 -294l306 -337c8 -10 3 -33 -18 -33h-80c-10 0 -16 4 -18 7l-291 328v-311c0 -13 -11 -24 -24 -24h-58c-14 0 -24 11 -24 24zM336 -92c34 0 74 -21 74 -98
c0 -91 -58 -157 -87 -183c-9 -8 -17 -8 -23 -1l-15 14c-5 6 -4 16 5 24c10 8 64 52 65 124c-3 -1 -11 -3 -22 -3c-33 0 -62 27 -62 61c0 35 29 62 65 62z" />
    <glyph glyph-name="Lacute" unicode="&#x139;" horiz-adv-x="499" 
d="M97 19v662c0 10 8 19 19 19h66c10 0 19 -9 19 -19v-588h271c11 0 19 -9 19 -19v-55c0 -10 -8 -19 -19 -19h-356c-11 0 -19 9 -19 19zM80 774c-13 -6 -20 -4 -24 5l-14 28c-4 8 1 16 6 19l157 91c6 4 21 6 26 -3l23 -44c6 -10 2 -20 -6 -24z" />
    <glyph glyph-name="Lcaron" unicode="&#x13d;" horiz-adv-x="499" 
d="M97 19v662c0 10 8 19 19 19h66c10 0 19 -9 19 -19v-588h271c11 0 19 -9 19 -19v-55c0 -10 -8 -19 -19 -19h-356c-11 0 -19 9 -19 19zM394 710c34 0 74 -21 74 -98c0 -91 -58 -157 -87 -183c-9 -8 -17 -8 -23 -1l-15 14c-5 6 -4 16 5 24c10 8 64 52 65 124
c-3 -1 -11 -3 -22 -3c-33 0 -62 27 -62 61c0 35 29 62 65 62z" />
    <glyph glyph-name="Lcommaaccent" unicode="&#x13b;" horiz-adv-x="499" 
d="M97 19v662c0 10 8 19 19 19h66c10 0 19 -9 19 -19v-588h271c11 0 19 -9 19 -19v-55c0 -10 -8 -19 -19 -19h-356c-11 0 -19 9 -19 19zM294 -92c34 0 74 -21 74 -98c0 -91 -58 -157 -87 -183c-9 -8 -17 -8 -23 -1l-15 14c-5 6 -4 16 5 24c10 8 64 52 65 124
c-3 -1 -11 -3 -22 -3c-33 0 -62 27 -62 61c0 35 29 62 65 62z" />
    <glyph glyph-name="Lslash" unicode="&#x141;" horiz-adv-x="508" 
d="M106 19v289l-22 -12c-8 -5 -20 -2 -25 7l-5 9c-5 8 -3 20 6 26l46 25v318c0 10 8 19 19 19h66c10 0 19 -9 19 -19v-257l99 57c10 6 21 1 26 -7l5 -9c5 -9 2 -20 -7 -26l-123 -71v-275h271c11 0 19 -9 19 -19v-55c0 -10 -8 -19 -19 -19h-356c-11 0 -19 9 -19 19z" />
    <glyph glyph-name="Ldot" unicode="&#x13f;" horiz-adv-x="561" 
d="M97 19v662c0 10 8 19 19 19h66c10 0 19 -9 19 -19v-588h271c11 0 19 -9 19 -19v-55c0 -10 -8 -19 -19 -19h-356c-11 0 -19 9 -19 19zM464 287c-35 0 -64 29 -64 65s29 64 64 64c36 0 65 -28 65 -64s-29 -65 -65 -65z" />
    <glyph glyph-name="Nacute" unicode="&#x143;" horiz-adv-x="775" 
d="M97 19v673c0 10 9 18 19 18h25l434 -502h1v473c0 10 8 19 19 19h64c10 0 19 -9 19 -19v-673c0 -10 -9 -18 -19 -18h-26l-434 516h-1v-487c0 -10 -8 -19 -19 -19h-63c-10 0 -19 9 -19 19zM327 774c-13 -6 -20 -4 -24 5l-14 28c-4 8 1 16 6 19l157 91c6 4 21 6 26 -3
l23 -44c6 -10 2 -20 -6 -24z" />
    <glyph glyph-name="Ncaron" unicode="&#x147;" horiz-adv-x="775" 
d="M97 19v673c0 10 9 18 19 18h25l434 -502h1v473c0 10 8 19 19 19h64c10 0 19 -9 19 -19v-673c0 -10 -9 -18 -19 -18h-26l-434 516h-1v-487c0 -10 -8 -19 -19 -19h-63c-10 0 -19 9 -19 19zM380 768l-125 98c-6 4 -11 12 -6 19l20 27c6 8 11 10 23 3l100 -65l100 65
c12 8 17 5 23 -3l20 -27c5 -7 0 -15 -6 -19l-125 -98c-7 -5 -18 -5 -24 0z" />
    <glyph glyph-name="Ntilde" unicode="&#xd1;" horiz-adv-x="775" 
d="M97 19v673c0 10 9 18 19 18h25l434 -502h1v473c0 10 8 19 19 19h64c10 0 19 -9 19 -19v-673c0 -10 -9 -18 -19 -18h-26l-434 516h-1v-487c0 -10 -8 -19 -19 -19h-63c-10 0 -19 9 -19 19zM270 792l-23 15c-10 6 -9 16 -6 23c9 18 39 84 98 84c58 0 77 -64 109 -64
c23 0 31 25 41 40c6 10 13 16 25 9c8 -6 20 -11 26 -19c5 -8 2 -16 -3 -27c-10 -22 -39 -75 -94 -75c-51 0 -78 65 -107 65c-24 0 -37 -28 -43 -41c-5 -11 -10 -17 -23 -10z" />
    <glyph glyph-name="Ncommaaccent" unicode="&#x145;" horiz-adv-x="775" 
d="M97 19v673c0 10 9 18 19 18h25l434 -502h1v473c0 10 8 19 19 19h64c10 0 19 -9 19 -19v-673c0 -10 -9 -18 -19 -18h-26l-434 516h-1v-487c0 -10 -8 -19 -19 -19h-63c-10 0 -19 9 -19 19zM390 -92c34 0 74 -21 74 -98c0 -91 -58 -157 -87 -183c-9 -8 -17 -8 -23 -1l-15 14
c-5 6 -4 16 5 24c10 8 64 52 65 124c-3 -1 -11 -3 -22 -3c-33 0 -62 27 -62 61c0 35 29 62 65 62z" />
    <glyph glyph-name="Ograve" unicode="&#xd2;" horiz-adv-x="811" 
d="M46 349c0 200 159 361 359 361s360 -161 360 -361s-160 -359 -360 -359s-359 159 -359 359zM146 349c0 -143 117 -259 259 -259c143 0 260 116 260 259c0 142 -117 261 -260 261c-142 0 -259 -119 -259 -261zM474 774l-168 72c-8 4 -11 14 -6 24l23 44c5 9 20 7 26 3
l157 -91c6 -3 10 -11 6 -19l-14 -28c-4 -9 -10 -11 -24 -5z" />
    <glyph glyph-name="Oacute" unicode="&#xd3;" horiz-adv-x="811" 
d="M46 349c0 200 159 361 359 361s360 -161 360 -361s-160 -359 -360 -359s-359 159 -359 359zM146 349c0 -143 117 -259 259 -259c143 0 260 116 260 259c0 142 -117 261 -260 261c-142 0 -259 -119 -259 -261zM338 774c-13 -6 -20 -4 -24 5l-14 28c-4 8 1 16 6 19l157 91
c6 4 21 6 26 -3l23 -44c6 -10 2 -20 -6 -24z" />
    <glyph glyph-name="Ocircumflex" unicode="&#xd4;" horiz-adv-x="811" 
d="M46 349c0 200 159 361 359 361s360 -161 360 -361s-160 -359 -360 -359s-359 159 -359 359zM146 349c0 -143 117 -259 259 -259c143 0 260 116 260 259c0 142 -117 261 -260 261c-142 0 -259 -119 -259 -261zM304 769c-12 -7 -17 -5 -23 3l-20 27c-5 7 0 15 6 19l125 98
c6 5 17 5 24 0l125 -98c6 -4 11 -12 6 -19l-20 -27c-6 -8 -11 -11 -23 -3l-100 65z" />
    <glyph glyph-name="Otilde" unicode="&#xd5;" horiz-adv-x="811" 
d="M46 349c0 200 159 361 359 361s360 -161 360 -361s-160 -359 -360 -359s-359 159 -359 359zM146 349c0 -143 117 -259 259 -259c143 0 260 116 260 259c0 142 -117 261 -260 261c-142 0 -259 -119 -259 -261zM283 792l-23 15c-10 6 -9 16 -6 23c9 18 39 84 98 84
c58 0 77 -64 109 -64c23 0 31 25 41 40c6 10 13 16 25 9c8 -6 20 -11 26 -19c5 -8 2 -16 -3 -27c-10 -22 -39 -75 -94 -75c-51 0 -78 65 -107 65c-24 0 -37 -28 -43 -41c-5 -11 -10 -17 -23 -10z" />
    <glyph glyph-name="Odieresis" unicode="&#xd6;" horiz-adv-x="811" 
d="M46 349c0 200 159 361 359 361s360 -161 360 -361s-160 -359 -360 -359s-359 159 -359 359zM146 349c0 -143 117 -259 259 -259c143 0 260 116 260 259c0 142 -117 261 -260 261c-142 0 -259 -119 -259 -261zM520 782c-31 0 -56 26 -56 57s25 56 56 56s57 -25 57 -56
s-26 -57 -57 -57zM291 782c-31 0 -56 26 -56 57s25 56 56 56s57 -25 57 -56s-26 -57 -57 -57z" />
    <glyph glyph-name="Omacron" unicode="&#x14c;" horiz-adv-x="811" 
d="M46 349c0 200 159 361 359 361s360 -161 360 -361s-160 -359 -360 -359s-359 159 -359 359zM146 349c0 -143 117 -259 259 -259c143 0 260 116 260 259c0 142 -117 261 -260 261c-142 0 -259 -119 -259 -261zM278 814c-11 0 -19 8 -19 18v28c0 11 8 19 19 19h256
c11 0 19 -8 19 -19v-28c0 -10 -8 -18 -19 -18h-256z" />
    <glyph glyph-name="Obreve" unicode="&#x14e;" horiz-adv-x="811" 
d="M46 349c0 200 159 361 359 361s360 -161 360 -361s-160 -359 -360 -359s-359 159 -359 359zM146 349c0 -143 117 -259 259 -259c143 0 260 116 260 259c0 142 -117 261 -260 261c-142 0 -259 -119 -259 -261zM406 768c-72 0 -128 50 -138 116c-2 11 4 21 16 21h29
c10 0 16 -8 18 -16c11 -34 38 -58 75 -58c33 0 62 27 72 58c3 10 10 16 18 16h31c12 0 18 -10 16 -21c-11 -66 -67 -116 -137 -116z" />
    <glyph glyph-name="Ohungarumlaut" unicode="&#x150;" horiz-adv-x="811" 
d="M46 349c0 200 159 361 359 361s360 -161 360 -361s-160 -359 -360 -359s-359 159 -359 359zM146 349c0 -143 117 -259 259 -259c143 0 260 116 260 259c0 142 -117 261 -260 261c-142 0 -259 -119 -259 -261zM492 768c-16 0 -22 9 -19 19l43 141c3 10 9 19 19 19h57
c19 0 26 -12 18 -25l-78 -139c-4 -7 -11 -15 -18 -15h-22zM326 768c-14 0 -22 9 -19 19l43 141c3 10 9 19 19 19h57c19 0 25 -12 18 -25l-78 -139c-4 -8 -11 -15 -18 -15h-22z" />
    <glyph glyph-name="Oslash" unicode="&#xd8;" horiz-adv-x="811" 
d="M72 22c-7 7 -8 19 -1 26l63 63c-55 63 -88 146 -88 238c0 200 159 361 359 361c91 0 175 -35 238 -90l66 65c7 7 19 7 26 0l7 -7c7 -7 7 -19 0 -26l-65 -66c54 -63 88 -146 88 -237c0 -200 -160 -359 -360 -359c-92 0 -174 32 -237 87l-63 -63c-7 -7 -19 -6 -26 1z
M207 183l365 366c-45 37 -104 61 -167 61c-142 0 -259 -119 -259 -261c0 -63 23 -121 61 -166zM240 149c45 -37 103 -59 165 -59c143 0 260 117 260 259c0 63 -22 121 -60 165z" />
    <glyph glyph-name="Oslashacute" unicode="&#x1fe;" horiz-adv-x="811" 
d="M72 22c-7 7 -8 19 -1 26l63 63c-55 63 -88 146 -88 238c0 200 159 361 359 361c91 0 175 -35 238 -90l66 65c7 7 19 7 26 0l7 -7c7 -7 7 -19 0 -26l-65 -66c54 -63 88 -146 88 -237c0 -200 -160 -359 -360 -359c-92 0 -174 32 -237 87l-63 -63c-7 -7 -19 -6 -26 1z
M207 183l365 366c-45 37 -104 61 -167 61c-142 0 -259 -119 -259 -261c0 -63 23 -121 61 -166zM240 149c45 -37 103 -59 165 -59c143 0 260 117 260 259c0 63 -22 121 -60 165zM336 774c-13 -6 -20 -4 -24 5l-14 28c-4 8 1 16 6 19l157 91c6 4 21 6 26 -3l23 -44
c6 -10 2 -20 -6 -24z" />
    <glyph glyph-name="OE" unicode="&#x152;" horiz-adv-x="970" 
d="M46 349c0 200 159 361 359 361c50 0 92 -10 92 -10h400c11 0 19 -9 19 -19v-56c0 -10 -8 -19 -19 -19h-316v-204h267c10 0 19 -9 19 -19v-56c0 -11 -9 -19 -19 -19h-267v-215h316c11 0 19 -9 19 -19v-55c0 -10 -8 -19 -19 -19h-400s-49 -10 -92 -10
c-200 0 -359 159 -359 359zM146 349c0 -143 117 -260 259 -260c25 0 49 2 73 10v500c-24 7 -48 11 -73 11c-142 0 -259 -119 -259 -261z" />
    <glyph glyph-name="Racute" unicode="&#x154;" horiz-adv-x="665" 
d="M97 19v662c0 10 8 19 19 19h272c120 0 218 -95 218 -214c0 -92 -61 -168 -148 -203l137 -254c7 -13 0 -29 -17 -29h-78c-8 0 -14 5 -16 9l-133 265h-151v-255c0 -10 -9 -19 -19 -19h-65c-11 0 -19 9 -19 19zM202 360h178c65 0 122 55 122 124c0 65 -57 119 -122 119h-178
v-243zM247 774c-13 -6 -20 -4 -24 5l-14 28c-4 8 1 16 6 19l157 91c6 4 21 6 26 -3l23 -44c6 -10 2 -20 -6 -24z" />
    <glyph glyph-name="Rcaron" unicode="&#x158;" horiz-adv-x="665" 
d="M97 19v662c0 10 8 19 19 19h272c120 0 218 -95 218 -214c0 -92 -61 -168 -148 -203l137 -254c7 -13 0 -29 -17 -29h-78c-8 0 -14 5 -16 9l-133 265h-151v-255c0 -10 -9 -19 -19 -19h-65c-11 0 -19 9 -19 19zM202 360h178c65 0 122 55 122 124c0 65 -57 119 -122 119h-178
v-243zM297 768l-125 98c-6 4 -11 12 -6 19l20 27c6 8 11 10 23 3l100 -65l100 65c12 8 17 5 23 -3l20 -27c5 -7 0 -15 -6 -19l-125 -98c-7 -5 -18 -5 -24 0z" />
    <glyph glyph-name="Rcommaaccent" unicode="&#x156;" horiz-adv-x="664" 
d="M97 19v662c0 10 8 19 19 19h272c120 0 218 -95 218 -214c0 -92 -61 -168 -148 -203l137 -254c7 -13 0 -29 -17 -29h-78c-8 0 -14 5 -16 9l-133 265h-151v-255c0 -10 -9 -19 -19 -19h-65c-11 0 -19 9 -19 19zM202 360h178c65 0 122 55 122 124c0 65 -57 119 -122 119h-178
v-243zM324 -92c34 0 74 -21 74 -98c0 -91 -58 -157 -87 -183c-9 -8 -17 -8 -23 -1l-15 14c-5 6 -4 16 5 24c10 8 64 52 65 124c-3 -1 -11 -3 -22 -3c-33 0 -62 27 -62 61c0 35 29 62 65 62z" />
    <glyph glyph-name="Sacute" unicode="&#x15a;" horiz-adv-x="537" 
d="M58 69c-9 8 -16 15 -6 32c9 13 17 28 26 41s23 17 34 8c6 -5 83 -69 160 -69c69 0 113 42 113 93c0 60 -52 98 -151 139c-102 43 -182 96 -182 212c0 78 60 185 219 185c100 0 175 -52 185 -59c8 -5 16 -19 6 -34c-8 -12 -17 -26 -25 -38c-8 -13 -21 -19 -35 -10
c-7 4 -77 50 -135 50c-84 0 -113 -53 -113 -90c0 -57 44 -92 127 -126c116 -47 215 -102 215 -224c0 -104 -93 -189 -223 -189c-122 0 -199 64 -215 79zM206 774c-13 -6 -20 -4 -24 5l-14 28c-4 8 1 16 6 19l157 91c6 4 21 6 26 -3l23 -44c6 -10 2 -20 -6 -24z" />
    <glyph glyph-name="Scircumflex" unicode="&#x15c;" horiz-adv-x="537" 
d="M58 69c-9 8 -16 15 -6 32c9 13 17 28 26 41s23 17 34 8c6 -5 83 -69 160 -69c69 0 113 42 113 93c0 60 -52 98 -151 139c-102 43 -182 96 -182 212c0 78 60 185 219 185c100 0 175 -52 185 -59c8 -5 16 -19 6 -34c-8 -12 -17 -26 -25 -38c-8 -13 -21 -19 -35 -10
c-7 4 -77 50 -135 50c-84 0 -113 -53 -113 -90c0 -57 44 -92 127 -126c116 -47 215 -102 215 -224c0 -104 -93 -189 -223 -189c-122 0 -199 64 -215 79zM167 769c-12 -7 -17 -5 -23 3l-20 27c-5 7 0 15 6 19l125 98c6 5 17 5 24 0l125 -98c6 -4 11 -12 6 -19l-20 -27
c-6 -8 -11 -11 -23 -3l-100 65z" />
    <glyph glyph-name="Scaron" unicode="&#x160;" horiz-adv-x="537" 
d="M58 69c-9 8 -16 15 -6 32c9 13 17 28 26 41s23 17 34 8c6 -5 83 -69 160 -69c69 0 113 42 113 93c0 60 -52 98 -151 139c-102 43 -182 96 -182 212c0 78 60 185 219 185c100 0 175 -52 185 -59c8 -5 16 -19 6 -34c-8 -12 -17 -26 -25 -38c-8 -13 -21 -19 -35 -10
c-7 4 -77 50 -135 50c-84 0 -113 -53 -113 -90c0 -57 44 -92 127 -126c116 -47 215 -102 215 -224c0 -104 -93 -189 -223 -189c-122 0 -199 64 -215 79zM254 768l-125 98c-6 4 -11 12 -6 19l20 27c6 8 11 10 23 3l100 -65l100 65c12 8 17 5 23 -3l20 -27c5 -7 0 -15 -6 -19
l-125 -98c-7 -5 -18 -5 -24 0z" />
    <glyph glyph-name="Scedilla" unicode="&#x15e;" horiz-adv-x="539" 
d="M59 69c-9 8 -16 15 -6 32c9 13 17 28 26 41s23 17 34 8c6 -5 83 -69 160 -69c69 0 113 42 113 93c0 60 -52 98 -151 139c-102 43 -182 96 -182 212c0 78 60 185 219 185c100 0 175 -52 185 -59c8 -5 16 -19 6 -34l-25 -38c-8 -13 -21 -19 -35 -10c-7 4 -77 50 -135 50
c-84 0 -113 -53 -113 -90c0 -57 44 -92 127 -126c116 -47 215 -102 215 -224c0 -103 -92 -187 -220 -189v-43c61 -8 101 -46 101 -103c0 -58 -46 -104 -105 -104c-30 0 -59 15 -76 35c-8 9 -7 20 1 27l17 14c7 5 17 5 22 -1c10 -11 25 -15 36 -15c23 0 39 19 39 42
c0 35 -35 51 -78 56c-15 3 -17 14 -17 19v78c-89 15 -145 61 -158 74z" />
    <glyph glyph-name="Scommaaccent" unicode="&#x218;" horiz-adv-x="537" 
d="M58 69c-9 8 -16 15 -6 32c9 13 17 28 26 41s23 17 34 8c6 -5 83 -69 160 -69c69 0 113 42 113 93c0 60 -52 98 -151 139c-102 43 -182 96 -182 212c0 78 60 185 219 185c100 0 175 -52 185 -59c8 -5 16 -19 6 -34c-8 -12 -17 -26 -25 -38c-8 -13 -21 -19 -35 -10
c-7 4 -77 50 -135 50c-84 0 -113 -53 -113 -90c0 -57 44 -92 127 -126c116 -47 215 -102 215 -224c0 -104 -93 -189 -223 -189c-122 0 -199 64 -215 79zM279 -92c34 0 74 -21 74 -98c0 -91 -58 -157 -87 -183c-9 -8 -17 -8 -23 -1l-15 14c-5 6 -4 16 5 24c10 8 64 52 65 124
c-3 -1 -11 -3 -22 -3c-33 0 -62 27 -62 61c0 35 29 62 65 62z" />
    <glyph glyph-name="Tcaron" unicode="&#x164;" 
d="M193 19v587h-163c-11 0 -19 9 -19 19v56c0 10 8 19 19 19h430c11 0 19 -9 19 -19v-56c0 -10 -8 -19 -19 -19h-163v-587c0 -10 -9 -19 -19 -19h-66c-10 0 -19 9 -19 19zM232 768l-125 98c-6 4 -11 12 -6 19l20 27c6 8 11 10 23 3l100 -65l100 65c12 8 17 5 23 -3l20 -27
c5 -7 0 -15 -6 -19l-125 -98c-7 -5 -18 -5 -24 0z" />
    <glyph glyph-name="Tcommaaccent" unicode="&#x162;" 
d="M193 19v587h-163c-11 0 -19 9 -19 19v56c0 10 8 19 19 19h430c11 0 19 -9 19 -19v-56c0 -10 -8 -19 -19 -19h-163v-587c0 -10 -9 -19 -19 -19h-66c-10 0 -19 9 -19 19zM242 -92c34 0 74 -21 74 -98c0 -91 -58 -157 -87 -183c-9 -8 -17 -8 -23 -1l-15 14c-5 6 -4 16 5 24
c10 8 64 52 65 124c-3 -1 -11 -3 -22 -3c-33 0 -62 27 -62 61c0 35 29 62 65 62z" />
    <glyph glyph-name="uni021A" unicode="&#x21a;" 
d="M193 19v587h-163c-11 0 -19 9 -19 19v56c0 10 8 19 19 19h430c11 0 19 -9 19 -19v-56c0 -10 -8 -19 -19 -19h-163v-587c0 -10 -9 -19 -19 -19h-66c-10 0 -19 9 -19 19zM242 -92c34 0 74 -21 74 -98c0 -91 -58 -157 -87 -183c-9 -8 -17 -8 -23 -1l-15 14c-5 6 -4 16 5 24
c10 8 64 52 65 124c-3 -1 -11 -3 -22 -3c-33 0 -62 27 -62 61c0 35 29 62 65 62z" />
    <glyph glyph-name="Tbar" unicode="&#x166;" 
d="M193 19v274h-105c-10 0 -18 9 -18 19v10c0 10 8 19 18 19h105v265h-163c-11 0 -19 9 -19 19v56c0 10 8 19 19 19h430c11 0 19 -9 19 -19v-56c0 -10 -8 -19 -19 -19h-163v-265h104c11 0 19 -9 19 -19v-11c0 -10 -8 -18 -19 -18h-104v-274c0 -10 -9 -19 -19 -19h-66
c-10 0 -19 9 -19 19z" />
    <glyph glyph-name="Thorn" unicode="&#xde;" horiz-adv-x="594" 
d="M97 19v662c0 10 8 19 19 19h65c10 0 19 -9 19 -19v-108h144c123 1 224 -100 224 -221c0 -124 -101 -225 -223 -225h-145v-108c0 -10 -9 -19 -19 -19h-65c-11 0 -19 9 -19 19zM200 225h138c69 0 127 56 127 129c0 68 -58 120 -127 120h-138v-249z" />
    <glyph glyph-name="Ugrave" unicode="&#xd9;" horiz-adv-x="721" 
d="M89 261v420c0 10 9 19 19 19h67c11 0 19 -9 19 -19v-413c0 -100 64 -178 166 -178c103 0 168 77 168 176v415c0 10 8 19 19 19h67c10 0 19 -9 19 -19v-420c0 -152 -115 -271 -273 -271c-157 0 -271 119 -271 271zM427 774l-168 72c-8 4 -11 14 -6 24l23 44c5 9 20 7 26 3
l157 -91c6 -3 10 -11 6 -19l-14 -28c-4 -9 -10 -11 -24 -5z" />
    <glyph glyph-name="Uacute" unicode="&#xda;" horiz-adv-x="721" 
d="M89 261v420c0 10 9 19 19 19h67c11 0 19 -9 19 -19v-413c0 -100 64 -178 166 -178c103 0 168 77 168 176v415c0 10 8 19 19 19h67c10 0 19 -9 19 -19v-420c0 -152 -115 -271 -273 -271c-157 0 -271 119 -271 271zM291 774c-13 -6 -20 -4 -24 5l-14 28c-4 8 1 16 6 19
l157 91c6 4 21 6 26 -3l23 -44c6 -10 2 -20 -6 -24z" />
    <glyph glyph-name="Ucircumflex" unicode="&#xdb;" horiz-adv-x="721" 
d="M89 261v420c0 10 9 19 19 19h67c11 0 19 -9 19 -19v-413c0 -100 64 -178 166 -178c103 0 168 77 168 176v415c0 10 8 19 19 19h67c10 0 19 -9 19 -19v-420c0 -152 -115 -271 -273 -271c-157 0 -271 119 -271 271zM261 769c-12 -7 -17 -5 -23 3l-20 27c-5 7 0 15 6 19
l125 98c6 5 17 5 24 0l125 -98c6 -4 11 -12 6 -19l-20 -27c-6 -8 -11 -11 -23 -3l-100 65z" />
    <glyph glyph-name="Utilde" unicode="&#x168;" horiz-adv-x="721" 
d="M89 261v420c0 10 9 19 19 19h67c11 0 19 -9 19 -19v-413c0 -100 64 -178 166 -178c103 0 168 77 168 176v415c0 10 8 19 19 19h67c10 0 19 -9 19 -19v-420c0 -152 -115 -271 -273 -271c-157 0 -271 119 -271 271zM250 792l-23 15c-10 6 -9 16 -6 23c9 18 39 84 98 84
c58 0 77 -64 109 -64c23 0 31 25 41 40c6 10 13 16 25 9c8 -6 20 -11 26 -19c5 -8 2 -16 -3 -27c-10 -22 -39 -75 -94 -75c-51 0 -78 65 -107 65c-24 0 -37 -28 -43 -41c-5 -11 -10 -17 -23 -10z" />
    <glyph glyph-name="Udieresis" unicode="&#xdc;" horiz-adv-x="721" 
d="M89 261v420c0 10 9 19 19 19h67c11 0 19 -9 19 -19v-413c0 -100 64 -178 166 -178c103 0 168 77 168 176v415c0 10 8 19 19 19h67c10 0 19 -9 19 -19v-420c0 -152 -115 -271 -273 -271c-157 0 -271 119 -271 271zM478 782c-31 0 -56 26 -56 57s25 56 56 56s57 -25 57 -56
s-26 -57 -57 -57zM249 782c-31 0 -56 26 -56 57s25 56 56 56s57 -25 57 -56s-26 -57 -57 -57z" />
    <glyph glyph-name="Umacron" unicode="&#x16a;" horiz-adv-x="721" 
d="M89 261v420c0 10 9 19 19 19h67c11 0 19 -9 19 -19v-413c0 -100 64 -178 166 -178c103 0 168 77 168 176v415c0 10 8 19 19 19h67c10 0 19 -9 19 -19v-420c0 -152 -115 -271 -273 -271c-157 0 -271 119 -271 271zM236 814c-11 0 -19 8 -19 18v28c0 11 8 19 19 19h256
c11 0 19 -8 19 -19v-28c0 -10 -8 -18 -19 -18h-256z" />
    <glyph glyph-name="Ubreve" unicode="&#x16c;" horiz-adv-x="721" 
d="M89 261v420c0 10 9 19 19 19h67c11 0 19 -9 19 -19v-413c0 -100 64 -178 166 -178c103 0 168 77 168 176v415c0 10 8 19 19 19h67c10 0 19 -9 19 -19v-420c0 -152 -115 -271 -273 -271c-157 0 -271 119 -271 271zM367 768c-72 0 -128 50 -138 116c-2 11 4 21 16 21h29
c10 0 16 -8 18 -16c11 -34 38 -58 75 -58c33 0 62 27 72 58c3 10 10 16 18 16h31c12 0 18 -10 16 -21c-11 -66 -67 -116 -137 -116z" />
    <glyph glyph-name="Uring" unicode="&#x16e;" horiz-adv-x="721" 
d="M89 261v420c0 10 9 19 19 19h67c11 0 19 -9 19 -19v-413c0 -100 64 -178 166 -178c103 0 168 77 168 176v415c0 10 8 19 19 19h67c10 0 19 -9 19 -19v-420c0 -152 -115 -271 -273 -271c-157 0 -271 119 -271 271zM363 756c-62 0 -111 49 -111 111s49 111 111 111
c61 0 111 -49 111 -111s-50 -111 -111 -111zM363 811c29 0 53 27 53 56s-24 53 -53 53c-31 0 -56 -24 -56 -53s24 -56 56 -56z" />
    <glyph glyph-name="Uhungarumlaut" unicode="&#x170;" horiz-adv-x="721" 
d="M89 261v420c0 10 9 19 19 19h67c11 0 19 -9 19 -19v-413c0 -100 64 -178 166 -178c103 0 168 77 168 176v415c0 10 8 19 19 19h67c10 0 19 -9 19 -19v-420c0 -152 -115 -271 -273 -271c-157 0 -271 119 -271 271zM436 768c-16 0 -22 9 -19 19l43 141c3 10 9 19 19 19h57
c19 0 26 -12 18 -25l-78 -139c-4 -7 -11 -15 -18 -15h-22zM270 768c-14 0 -22 9 -19 19l43 141c3 10 9 19 19 19h57c19 0 25 -12 18 -25l-78 -139c-4 -8 -11 -15 -18 -15h-22z" />
    <glyph glyph-name="Uogonek" unicode="&#x172;" horiz-adv-x="724" 
d="M90 261v420c0 10 9 19 19 19h67c11 0 19 -9 19 -19v-413c0 -100 64 -178 166 -178c103 0 168 77 168 176v415c0 10 8 19 19 19h67c10 0 19 -9 19 -19v-420c0 -146 -105 -260 -253 -270c-17 -19 -38 -50 -38 -89c0 -34 25 -60 62 -60c22 0 38 7 50 12c10 4 19 -3 19 -15
v-28c0 -9 -7 -14 -14 -18c-7 -3 -36 -12 -68 -12c-62 0 -116 33 -116 106c0 49 27 85 47 106c-137 17 -233 128 -233 268z" />
    <glyph glyph-name="Wacute" unicode="&#x1e82;" horiz-adv-x="900" 
d="M222 4l-189 672c-4 14 4 24 18 24h67c8 0 16 -7 18 -14l121 -459h4l163 472c2 6 9 11 17 11h18c8 0 15 -5 17 -11l165 -472h4l119 459c2 7 10 14 18 14h67c14 0 22 -10 18 -24l-189 -672c-2 -8 -10 -14 -18 -14h-16c-7 0 -15 5 -17 11l-176 497h-5l-173 -497
c-2 -6 -10 -11 -17 -11h-16c-8 0 -16 6 -18 14zM380 774c-13 -6 -20 -4 -24 5l-14 28c-4 8 1 16 6 19l157 91c6 4 21 6 26 -3l23 -44c6 -10 2 -20 -6 -24z" />
    <glyph glyph-name="Wcircumflex" unicode="&#x174;" horiz-adv-x="900" 
d="M222 4l-189 672c-4 14 4 24 18 24h67c8 0 16 -7 18 -14l121 -459h4l163 472c2 6 9 11 17 11h18c8 0 15 -5 17 -11l165 -472h4l119 459c2 7 10 14 18 14h67c14 0 22 -10 18 -24l-189 -672c-2 -8 -10 -14 -18 -14h-16c-7 0 -15 5 -17 11l-176 497h-5l-173 -497
c-2 -6 -10 -11 -17 -11h-16c-8 0 -16 6 -18 14zM349 769c-12 -7 -17 -5 -23 3l-20 27c-5 7 0 15 6 19l125 98c6 5 17 5 24 0l125 -98c6 -4 11 -12 6 -19l-20 -27c-6 -8 -11 -11 -23 -3l-100 65z" />
    <glyph glyph-name="Wdieresis" unicode="&#x1e84;" horiz-adv-x="900" 
d="M222 4l-189 672c-4 14 4 24 18 24h67c8 0 16 -7 18 -14l121 -459h4l163 472c2 6 9 11 17 11h18c8 0 15 -5 17 -11l165 -472h4l119 459c2 7 10 14 18 14h67c14 0 22 -10 18 -24l-189 -672c-2 -8 -10 -14 -18 -14h-16c-7 0 -15 5 -17 11l-176 497h-5l-173 -497
c-2 -6 -10 -11 -17 -11h-16c-8 0 -16 6 -18 14zM563 782c-31 0 -56 26 -56 57s25 56 56 56s57 -25 57 -56s-26 -57 -57 -57zM334 782c-31 0 -56 26 -56 57s25 56 56 56s57 -25 57 -56s-26 -57 -57 -57z" />
    <glyph glyph-name="Wgrave" unicode="&#x1e80;" horiz-adv-x="900" 
d="M222 4l-189 672c-4 14 4 24 18 24h67c8 0 16 -7 18 -14l121 -459h4l163 472c2 6 9 11 17 11h18c8 0 15 -5 17 -11l165 -472h4l119 459c2 7 10 14 18 14h67c14 0 22 -10 18 -24l-189 -672c-2 -8 -10 -14 -18 -14h-16c-7 0 -15 5 -17 11l-176 497h-5l-173 -497
c-2 -6 -10 -11 -17 -11h-16c-8 0 -16 6 -18 14zM517 774l-168 72c-8 4 -11 14 -6 24l23 44c5 9 20 7 26 3l157 -91c6 -3 10 -11 6 -19l-14 -28c-4 -9 -10 -11 -24 -5z" />
    <glyph glyph-name="Yacute" unicode="&#xdd;" horiz-adv-x="574" 
d="M234 19v318l-234 334c-8 13 0 29 16 29h74c8 0 13 -5 16 -9l181 -255l181 255c3 4 9 9 16 9h75c16 0 24 -16 16 -29l-237 -333v-319c0 -10 -9 -19 -19 -19h-66c-11 0 -19 9 -19 19zM218 774c-13 -6 -20 -4 -24 5l-14 28c-4 8 1 16 6 19l157 91c6 4 21 6 26 -3l23 -44
c6 -10 2 -20 -6 -24z" />
    <glyph glyph-name="Ycircumflex" unicode="&#x176;" horiz-adv-x="574" 
d="M234 19v318l-234 334c-8 13 0 29 16 29h74c8 0 13 -5 16 -9l181 -255l181 255c3 4 9 9 16 9h75c16 0 24 -16 16 -29l-237 -333v-319c0 -10 -9 -19 -19 -19h-66c-11 0 -19 9 -19 19zM187 769c-12 -7 -17 -5 -23 3l-20 27c-5 7 0 15 6 19l125 98c6 5 17 5 24 0l125 -98
c6 -4 11 -12 6 -19l-20 -27c-6 -8 -11 -11 -23 -3l-100 65z" />
    <glyph glyph-name="Ydieresis" unicode="&#x178;" horiz-adv-x="574" 
d="M234 19v318l-234 334c-8 13 0 29 16 29h74c8 0 13 -5 16 -9l181 -255l181 255c3 4 9 9 16 9h75c16 0 24 -16 16 -29l-237 -333v-319c0 -10 -9 -19 -19 -19h-66c-11 0 -19 9 -19 19zM400 782c-31 0 -56 26 -56 57s25 56 56 56s57 -25 57 -56s-26 -57 -57 -57zM171 782
c-31 0 -56 26 -56 57s25 56 56 56s57 -25 57 -56s-26 -57 -57 -57z" />
    <glyph glyph-name="Ygrave" unicode="&#x1ef2;" horiz-adv-x="574" 
d="M234 19v318l-234 334c-8 13 0 29 16 29h74c8 0 13 -5 16 -9l181 -255l181 255c3 4 9 9 16 9h75c16 0 24 -16 16 -29l-237 -333v-319c0 -10 -9 -19 -19 -19h-66c-11 0 -19 9 -19 19zM356 774l-168 72c-8 4 -11 14 -6 24l23 44c5 9 20 7 26 3l157 -91c6 -3 10 -11 6 -19
l-14 -28c-4 -9 -10 -11 -24 -5z" />
    <glyph glyph-name="Zacute" unicode="&#x179;" horiz-adv-x="535" 
d="M27 19v18l330 563v4h-282c-10 0 -19 9 -19 19v58c0 10 9 19 19 19h411c10 0 19 -9 19 -19v-13l-331 -572v-1h292c11 0 19 -9 19 -19v-57c0 -10 -8 -19 -19 -19h-420c-10 0 -19 9 -19 19zM212 774c-13 -6 -20 -4 -24 5l-14 28c-4 8 1 16 6 19l157 91c6 4 21 6 26 -3
l23 -44c6 -10 2 -20 -6 -24z" />
    <glyph glyph-name="Zcaron" unicode="&#x17d;" horiz-adv-x="535" 
d="M27 19v18l330 563v4h-282c-10 0 -19 9 -19 19v58c0 10 9 19 19 19h411c10 0 19 -9 19 -19v-13l-331 -572v-1h292c11 0 19 -9 19 -19v-57c0 -10 -8 -19 -19 -19h-420c-10 0 -19 9 -19 19zM264 768l-125 98c-6 4 -11 12 -6 19l20 27c6 8 11 10 23 3l100 -65l100 65
c12 8 17 5 23 -3l20 -27c5 -7 0 -15 -6 -19l-125 -98c-7 -5 -18 -5 -24 0z" />
    <glyph glyph-name="Zdotaccent" unicode="&#x17b;" horiz-adv-x="535" 
d="M27 19v18l330 563v4h-282c-10 0 -19 9 -19 19v58c0 10 9 19 19 19h411c10 0 19 -9 19 -19v-13l-331 -572v-1h292c11 0 19 -9 19 -19v-57c0 -10 -8 -19 -19 -19h-420c-10 0 -19 9 -19 19zM277 788c-35 0 -64 29 -64 65s29 64 64 64c36 0 65 -28 65 -64s-29 -65 -65 -65z
" />
    <glyph glyph-name="agrave" unicode="&#xe0;" horiz-adv-x="422" 
d="M36 124c0 73 58 129 160 129c42 0 79 -12 79 -12c1 63 -11 88 -62 88c-46 0 -91 -12 -112 -18c-12 -3 -19 5 -22 16l-8 37c-3 13 4 20 13 23c7 3 64 23 138 23c128 0 140 -78 140 -178v-213c0 -10 -9 -19 -19 -19h-28c-9 0 -13 4 -17 14l-10 27c-22 -21 -61 -51 -123 -51
c-75 0 -129 51 -129 134zM123 125c0 -36 24 -64 61 -64c40 0 78 30 90 50v64c-6 4 -34 16 -70 16c-48 0 -81 -25 -81 -66zM292 543l-168 72c-8 4 -11 14 -6 24l23 44c5 9 20 7 26 3l157 -91c6 -3 10 -11 6 -19l-14 -29c-4 -8 -10 -11 -24 -4z" />
    <glyph glyph-name="aacute" unicode="&#xe1;" horiz-adv-x="422" 
d="M36 124c0 73 58 129 160 129c42 0 79 -12 79 -12c1 63 -11 88 -62 88c-46 0 -91 -12 -112 -18c-12 -3 -19 5 -22 16l-8 37c-3 13 4 20 13 23c7 3 64 23 138 23c128 0 140 -78 140 -178v-213c0 -10 -9 -19 -19 -19h-28c-9 0 -13 4 -17 14l-10 27c-22 -21 -61 -51 -123 -51
c-75 0 -129 51 -129 134zM123 125c0 -36 24 -64 61 -64c40 0 78 30 90 50v64c-6 4 -34 16 -70 16c-48 0 -81 -25 -81 -66zM139 543c-14 -7 -20 -4 -24 4l-14 29c-4 8 0 16 6 19l157 91c6 4 21 6 26 -3l23 -44c5 -10 2 -20 -6 -24z" />
    <glyph glyph-name="acircumflex" unicode="&#xe2;" horiz-adv-x="422" 
d="M36 124c0 73 58 129 160 129c42 0 79 -12 79 -12c1 63 -11 88 -62 88c-46 0 -91 -12 -112 -18c-12 -3 -19 5 -22 16l-8 37c-3 13 4 20 13 23c7 3 64 23 138 23c128 0 140 -78 140 -178v-213c0 -10 -9 -19 -19 -19h-28c-9 0 -13 4 -17 14l-10 27c-22 -21 -61 -51 -123 -51
c-75 0 -129 51 -129 134zM123 125c0 -36 24 -64 61 -64c40 0 78 30 90 50v64c-6 4 -34 16 -70 16c-48 0 -81 -25 -81 -66zM90 542l-20 27c-5 7 0 15 6 19l125 98c6 5 17 5 24 0l125 -98c6 -4 11 -12 6 -19l-20 -27c-6 -8 -11 -11 -23 -3l-100 65l-100 -65
c-12 -7 -17 -5 -23 3z" />
    <glyph glyph-name="atilde" unicode="&#xe3;" horiz-adv-x="422" 
d="M36 124c0 73 58 129 160 129c42 0 79 -12 79 -12c1 63 -11 88 -62 88c-46 0 -91 -12 -112 -18c-12 -3 -19 5 -22 16l-8 37c-3 13 4 20 13 23c7 3 64 23 138 23c128 0 140 -78 140 -178v-213c0 -10 -9 -19 -19 -19h-28c-9 0 -13 4 -17 14l-10 27c-22 -21 -61 -51 -123 -51
c-75 0 -129 51 -129 134zM123 125c0 -36 24 -64 61 -64c40 0 78 30 90 50v64c-6 4 -34 16 -70 16c-48 0 -81 -25 -81 -66zM91 568l-23 15c-10 6 -9 16 -6 23c9 18 39 84 98 84c58 0 77 -64 109 -64c23 0 31 25 41 40c6 10 13 16 25 9c8 -6 20 -11 26 -19c5 -8 2 -16 -3 -27
c-10 -22 -39 -75 -94 -75c-51 0 -78 65 -107 65c-24 0 -37 -28 -43 -41c-5 -11 -10 -17 -23 -10z" />
    <glyph glyph-name="adieresis" unicode="&#xe4;" horiz-adv-x="422" 
d="M36 124c0 73 58 129 160 129c42 0 79 -12 79 -12c1 63 -11 88 -62 88c-46 0 -91 -12 -112 -18c-12 -3 -19 5 -22 16l-8 37c-3 13 4 20 13 23c7 3 64 23 138 23c128 0 140 -78 140 -178v-213c0 -10 -9 -19 -19 -19h-28c-9 0 -13 4 -17 14l-10 27c-22 -21 -61 -51 -123 -51
c-75 0 -129 51 -129 134zM123 125c0 -36 24 -64 61 -64c40 0 78 30 90 50v64c-6 4 -34 16 -70 16c-48 0 -81 -25 -81 -66zM317 567c-31 0 -56 25 -56 56c0 32 25 57 56 57c32 0 57 -25 57 -57c0 -31 -25 -56 -57 -56zM120 567c-31 0 -56 25 -56 56c0 32 25 57 56 57
c32 0 57 -25 57 -57c0 -31 -25 -56 -57 -56z" />
    <glyph glyph-name="amacron" unicode="&#x101;" horiz-adv-x="422" 
d="M36 124c0 73 58 129 160 129c42 0 79 -12 79 -12c1 63 -11 88 -62 88c-46 0 -91 -12 -112 -18c-12 -3 -19 5 -22 16l-8 37c-3 13 4 20 13 23c7 3 64 23 138 23c128 0 140 -78 140 -178v-213c0 -10 -9 -19 -19 -19h-28c-9 0 -13 4 -17 14l-10 27c-22 -21 -61 -51 -123 -51
c-75 0 -129 51 -129 134zM123 125c0 -36 24 -64 61 -64c40 0 78 30 90 50v64c-6 4 -34 16 -70 16c-48 0 -81 -25 -81 -66zM88 576c-11 0 -19 8 -19 18v28c0 11 8 19 19 19h256c11 0 19 -8 19 -19v-28c0 -10 -8 -18 -19 -18h-256z" />
    <glyph glyph-name="abreve" unicode="&#x103;" horiz-adv-x="422" 
d="M36 124c0 73 58 129 160 129c42 0 79 -12 79 -12c1 63 -11 88 -62 88c-46 0 -91 -12 -112 -18c-12 -3 -19 5 -22 16l-8 37c-3 13 4 20 13 23c7 3 64 23 138 23c128 0 140 -78 140 -178v-213c0 -10 -9 -19 -19 -19h-28c-9 0 -13 4 -17 14l-10 27c-22 -21 -61 -51 -123 -51
c-75 0 -129 51 -129 134zM123 125c0 -36 24 -64 61 -64c40 0 78 30 90 50v64c-6 4 -34 16 -70 16c-48 0 -81 -25 -81 -66zM213 529c-72 0 -128 50 -138 116c-2 12 4 21 16 21h29c10 0 16 -7 18 -15c11 -35 38 -59 75 -59c33 0 62 27 72 59c3 9 10 15 18 15h31
c12 0 18 -9 16 -21c-11 -66 -67 -116 -137 -116z" />
    <glyph glyph-name="aring" unicode="&#xe5;" horiz-adv-x="422" 
d="M36 124c0 73 58 129 160 129c42 0 79 -12 79 -12c1 63 -11 88 -62 88c-46 0 -91 -12 -112 -18c-12 -3 -19 5 -22 16l-8 37c-3 13 4 20 13 23c7 3 64 23 138 23c128 0 140 -78 140 -178v-213c0 -10 -9 -19 -19 -19h-28c-9 0 -13 4 -17 14l-10 27c-22 -21 -61 -51 -123 -51
c-75 0 -129 51 -129 134zM123 125c0 -36 24 -64 61 -64c40 0 78 30 90 50v64c-6 4 -34 16 -70 16c-48 0 -81 -25 -81 -66zM217 488c-62 0 -111 49 -111 111s49 111 111 111c61 0 111 -49 111 -111s-50 -111 -111 -111zM217 543c29 0 53 27 53 56s-24 53 -53 53
c-33 0 -56 -24 -56 -53s23 -56 56 -56z" />
    <glyph glyph-name="aringacute" unicode="&#x1fb;" horiz-adv-x="422" 
d="M36 124c0 73 58 129 160 129c42 0 79 -12 79 -12c1 63 -11 88 -62 88c-46 0 -91 -12 -112 -18c-12 -3 -19 5 -22 16l-8 37c-3 13 4 20 13 23c7 3 64 23 138 23c128 0 140 -78 140 -178v-213c0 -10 -9 -19 -19 -19h-28c-9 0 -13 4 -17 14l-10 27c-22 -21 -61 -51 -123 -51
c-75 0 -129 51 -129 134zM123 125c0 -36 24 -64 61 -64c40 0 78 30 90 50v64c-6 4 -34 16 -70 16c-48 0 -81 -25 -81 -66zM214 430c-62 0 -111 49 -111 111s49 111 111 111c61 0 111 -49 111 -111s-50 -111 -111 -111zM214 485c29 0 53 27 53 56s-24 53 -53 53
c-33 0 -56 -24 -56 -53s23 -56 56 -56zM145 660c-14 -7 -20 -4 -24 4l-14 29c-4 8 0 16 6 19l157 91c6 4 21 6 26 -3l23 -44c5 -10 2 -20 -6 -24z" />
    <glyph glyph-name="aogonek" unicode="&#x105;" horiz-adv-x="423" 
d="M36 124c0 73 58 129 160 129c42 0 79 -12 79 -12c1 63 -11 94 -62 94c-46 0 -91 -14 -112 -20c-12 -3 -19 5 -22 16l-8 33c-3 13 4 20 13 23c7 3 64 23 138 23c128 0 140 -78 140 -178v-213c0 -10 -9 -19 -19 -19c-18 -17 -48 -52 -48 -98c0 -34 25 -60 62 -60
c22 0 38 7 50 12c10 4 19 -3 19 -15v-28c0 -9 -7 -14 -14 -18c-7 -3 -36 -12 -68 -12c-62 0 -116 33 -116 106c0 78 70 125 70 125l-10 29c-22 -21 -61 -51 -123 -51c-75 0 -129 51 -129 134zM123 125c0 -36 24 -64 61 -64c40 0 78 30 90 50v64c-6 4 -34 16 -70 16
c-48 0 -81 -25 -81 -66z" />
    <glyph glyph-name="ae" unicode="&#xe6;" horiz-adv-x="677" 
d="M36 125c0 74 57 128 152 128c47 0 84 -6 84 -6c-1 63 -9 87 -56 87c-50 0 -97 -14 -118 -20c-10 -2 -20 5 -22 15l-7 40c-1 10 6 17 16 20c0 0 69 21 138 21c66 0 99 -17 117 -47c33 29 73 47 122 47c101 0 184 -75 184 -185c0 -19 -1 -44 -21 -44h-275
c3 -55 49 -108 118 -108c37 0 68 14 89 27c12 7 20 11 27 1c10 -12 19 -23 29 -35c6 -8 10 -16 -3 -26c-29 -25 -81 -50 -148 -50c-63 0 -112 23 -147 68c-22 -29 -75 -68 -144 -68c-80 0 -135 53 -135 135zM355 245h198c-2 50 -43 88 -93 88c-53 0 -99 -38 -105 -88z
M123 126c0 -42 33 -63 68 -63c43 0 73 34 82 46v72s-28 10 -73 10c-41 0 -77 -24 -77 -65z" />
    <glyph glyph-name="aeacute" unicode="&#x1fd;" horiz-adv-x="677" 
d="M36 125c0 74 57 128 152 128c47 0 84 -6 84 -6c-1 63 -9 87 -56 87c-50 0 -97 -14 -118 -20c-10 -2 -20 5 -22 15l-7 40c-1 10 6 17 16 20c0 0 69 21 138 21c66 0 99 -17 117 -47c33 29 73 47 122 47c101 0 184 -75 184 -185c0 -19 -1 -44 -21 -44h-275
c3 -55 49 -108 118 -108c37 0 68 14 89 27c12 7 20 11 27 1c10 -12 19 -23 29 -35c6 -8 10 -16 -3 -26c-29 -25 -81 -50 -148 -50c-63 0 -112 23 -147 68c-22 -29 -75 -68 -144 -68c-80 0 -135 53 -135 135zM355 245h198c-2 50 -43 88 -93 88c-53 0 -99 -38 -105 -88z
M123 126c0 -42 33 -63 68 -63c43 0 73 34 82 46v72s-28 10 -73 10c-41 0 -77 -24 -77 -65zM332 543c-14 -7 -20 -4 -24 4l-14 29c-4 8 0 16 6 19l157 91c6 4 21 6 26 -3l23 -44c5 -10 2 -20 -6 -24z" />
    <glyph glyph-name="cacute" unicode="&#x107;" horiz-adv-x="434" 
d="M35 199c0 118 99 211 210 211c61 0 108 -25 145 -71c7 -9 5 -21 -4 -28l-33 -30c-12 -11 -19 -3 -27 4c-18 20 -47 38 -80 38c-65 0 -116 -55 -116 -123c0 -69 50 -124 115 -124c51 0 72 26 93 46c9 9 18 9 27 2l27 -22c10 -8 14 -18 7 -28c-32 -51 -86 -84 -155 -84
c-112 0 -209 89 -209 209zM177 543c-14 -7 -20 -4 -24 4l-14 29c-4 8 0 16 6 19l157 91c6 4 21 6 26 -3l23 -44c5 -10 2 -20 -6 -24z" />
    <glyph glyph-name="ccircumflex" unicode="&#x109;" horiz-adv-x="434" 
d="M35 199c0 118 99 211 210 211c61 0 108 -25 145 -71c7 -9 5 -21 -4 -28l-33 -30c-12 -11 -19 -3 -27 4c-18 20 -47 38 -80 38c-65 0 -116 -55 -116 -123c0 -69 50 -124 115 -124c51 0 72 26 93 46c9 9 18 9 27 2l27 -22c10 -8 14 -18 7 -28c-32 -51 -86 -84 -155 -84
c-112 0 -209 89 -209 209zM122 542l-20 27c-5 7 0 15 6 19l125 98c6 5 17 5 24 0l125 -98c6 -4 11 -12 6 -19l-20 -27c-6 -8 -11 -11 -23 -3l-100 65l-100 -65c-12 -7 -17 -5 -23 3z" />
    <glyph glyph-name="ccaron" unicode="&#x10d;" horiz-adv-x="434" 
d="M35 199c0 118 99 211 210 211c61 0 108 -25 145 -71c7 -9 5 -21 -4 -28l-33 -30c-12 -11 -19 -3 -27 4c-18 20 -47 38 -80 38c-65 0 -116 -55 -116 -123c0 -69 50 -124 115 -124c51 0 72 26 93 46c9 9 18 9 27 2l27 -22c10 -8 14 -18 7 -28c-32 -51 -86 -84 -155 -84
c-112 0 -209 89 -209 209zM233 535l-125 98c-6 4 -11 12 -6 19l20 27c6 8 11 10 23 3l100 -65l100 65c12 8 17 5 23 -3l20 -27c5 -7 0 -15 -6 -19l-125 -98c-7 -5 -18 -5 -24 0z" />
    <glyph glyph-name="cdotaccent" unicode="&#x10b;" horiz-adv-x="434" 
d="M35 199c0 118 99 211 210 211c61 0 108 -25 145 -71c7 -9 5 -21 -4 -28l-33 -30c-12 -11 -19 -3 -27 4c-18 20 -47 38 -80 38c-65 0 -116 -55 -116 -123c0 -69 50 -124 115 -124c51 0 72 26 93 46c9 9 18 9 27 2l27 -22c10 -8 14 -18 7 -28c-32 -51 -86 -84 -155 -84
c-112 0 -209 89 -209 209zM245 551c-35 0 -64 29 -64 64c0 36 29 65 64 65c36 0 65 -29 65 -65c0 -35 -29 -64 -65 -64z" />
    <glyph glyph-name="ccedilla" unicode="&#xe7;" horiz-adv-x="434" 
d="M185 -1c-85 24 -150 102 -150 200c0 118 99 211 210 211c61 0 108 -25 145 -71c7 -9 5 -21 -4 -28l-33 -30c-12 -11 -19 -3 -27 4c-18 20 -47 38 -80 38c-65 0 -116 -55 -116 -123c0 -69 50 -124 115 -124c51 0 72 26 93 46c9 9 18 9 27 2l27 -22c10 -8 14 -18 7 -28
c-32 -51 -86 -83 -154 -84v-43c61 -8 101 -46 101 -103c0 -58 -46 -104 -105 -104c-30 0 -59 15 -76 35c-8 9 -7 20 1 27l17 14c7 5 17 5 22 -1c10 -11 25 -15 36 -15c23 0 39 19 39 42c0 35 -35 51 -78 56c-15 3 -17 14 -17 19v82z" />
    <glyph glyph-name="dcaron" unicode="&#x10f;" horiz-adv-x="520" 
d="M36 200c0 117 86 210 197 210c51 0 87 -19 96 -22v293c0 10 9 19 19 19h58c10 0 19 -9 19 -19v-662c0 -10 -9 -19 -19 -19h-30c-9 0 -15 7 -18 17l-8 29s-48 -56 -127 -56c-106 0 -187 95 -187 210zM129 200c0 -67 42 -124 106 -124c61 0 90 49 95 60v163s-35 24 -87 24
c-67 0 -114 -55 -114 -123zM551 428l-14 14c-6 6 -4 16 4 24c10 8 65 52 65 124c-2 -1 -11 -3 -21 -3c-34 0 -62 27 -62 61c0 35 28 62 64 62c34 0 75 -21 75 -98c0 -91 -58 -157 -87 -183c-9 -8 -17 -8 -24 -1z" />
    <glyph glyph-name="dcroat" unicode="&#x111;" 
d="M36 200c0 117 86 210 197 210c51 0 87 -19 96 -22v146h-135c-11 0 -19 8 -19 18v11c0 10 8 19 19 19h135v99c0 10 9 19 19 19h58c10 0 19 -9 19 -19v-99h33c10 0 18 -9 18 -19v-10c0 -10 -8 -19 -18 -19h-33v-515c0 -10 -9 -19 -19 -19h-30c-9 0 -15 7 -18 17l-8 29
s-48 -56 -127 -56c-106 0 -187 95 -187 210zM129 200c0 -67 42 -125 106 -125c61 0 90 50 95 61v162s-35 23 -87 23c-67 0 -114 -53 -114 -121z" />
    <glyph glyph-name="eth" unicode="&#xf0;" horiz-adv-x="535" 
d="M34 219c0 138 103 217 210 217c66 0 124 -32 133 -37c-17 62 -66 114 -117 152l-89 -51c-9 -5 -20 -2 -25 6l-5 10c-5 8 -3 20 6 25l69 40c-39 23 -67 35 -83 41c-15 6 -18 15 -13 27l18 43c4 10 13 14 24 10c30 -11 82 -34 138 -72l69 40c10 5 21 1 26 -8l6 -9
c5 -8 2 -20 -7 -25l-53 -31c80 -68 152 -173 152 -327s-76 -280 -235 -280c-122 0 -224 103 -224 229zM126 218c0 -75 59 -138 132 -138c109 0 147 114 138 198c-5 18 -57 76 -137 76c-74 0 -133 -61 -133 -136z" />
    <glyph glyph-name="egrave" unicode="&#xe8;" horiz-adv-x="451" 
d="M36 200c0 113 80 210 200 210c104 0 184 -78 184 -185c0 -7 -1 -20 -2 -27c-1 -10 -9 -17 -18 -17h-272c3 -54 50 -107 115 -107c36 0 69 16 89 29c12 7 19 11 27 1l28 -38c7 -8 10 -16 -2 -26c-29 -25 -81 -50 -148 -50c-121 0 -201 95 -201 210zM133 244h194
c-3 48 -43 89 -92 89c-54 0 -96 -39 -102 -89zM303 543l-168 72c-8 4 -11 14 -6 24l23 44c5 9 20 7 26 3l157 -91c6 -3 10 -11 6 -19l-14 -29c-4 -8 -10 -11 -24 -4z" />
    <glyph glyph-name="eacute" unicode="&#xe9;" horiz-adv-x="451" 
d="M36 200c0 113 80 210 200 210c104 0 184 -78 184 -185c0 -7 -1 -20 -2 -27c-1 -10 -9 -17 -18 -17h-272c3 -54 50 -107 115 -107c36 0 69 16 89 29c12 7 19 11 27 1l28 -38c7 -8 10 -16 -2 -26c-29 -25 -81 -50 -148 -50c-121 0 -201 95 -201 210zM133 244h194
c-3 48 -43 89 -92 89c-54 0 -96 -39 -102 -89zM165 543c-14 -7 -20 -4 -24 4l-14 29c-4 8 0 16 6 19l157 91c6 4 21 6 26 -3l23 -44c5 -10 2 -20 -6 -24z" />
    <glyph glyph-name="ecircumflex" unicode="&#xea;" horiz-adv-x="451" 
d="M36 200c0 113 80 210 200 210c104 0 184 -78 184 -185c0 -7 -1 -20 -2 -27c-1 -10 -9 -17 -18 -17h-272c3 -54 50 -107 115 -107c36 0 69 16 89 29c12 7 19 11 27 1l28 -38c7 -8 10 -16 -2 -26c-29 -25 -81 -50 -148 -50c-121 0 -201 95 -201 210zM133 244h194
c-3 48 -43 89 -92 89c-54 0 -96 -39 -102 -89zM113 542l-20 27c-5 7 0 15 6 19l125 98c6 5 17 5 24 0l125 -98c6 -4 11 -12 6 -19l-20 -27c-6 -8 -11 -11 -23 -3l-100 65l-100 -65c-12 -7 -17 -5 -23 3z" />
    <glyph glyph-name="ecaron" unicode="&#x11b;" horiz-adv-x="451" 
d="M36 200c0 113 80 210 200 210c104 0 184 -78 184 -185c0 -7 -1 -20 -2 -27c-1 -10 -9 -17 -18 -17h-272c3 -54 50 -107 115 -107c36 0 69 16 89 29c12 7 19 11 27 1l28 -38c7 -8 10 -16 -2 -26c-29 -25 -81 -50 -148 -50c-121 0 -201 95 -201 210zM133 244h194
c-3 48 -43 89 -92 89c-54 0 -96 -39 -102 -89zM223 535l-125 98c-6 4 -11 12 -6 19l20 27c6 8 11 10 23 3l100 -65l100 65c12 8 17 5 23 -3l20 -27c5 -7 0 -15 -6 -19l-125 -98c-7 -5 -18 -5 -24 0z" />
    <glyph glyph-name="edieresis" unicode="&#xeb;" horiz-adv-x="451" 
d="M36 200c0 113 80 210 200 210c104 0 184 -78 184 -185c0 -7 -1 -20 -2 -27c-1 -10 -9 -17 -18 -17h-272c3 -54 50 -107 115 -107c36 0 69 16 89 29c12 7 19 11 27 1l28 -38c7 -8 10 -16 -2 -26c-29 -25 -81 -50 -148 -50c-121 0 -201 95 -201 210zM133 244h194
c-3 48 -43 89 -92 89c-54 0 -96 -39 -102 -89zM331 567c-31 0 -56 25 -56 56c0 32 25 57 56 57c32 0 57 -25 57 -57c0 -31 -25 -56 -57 -56zM134 567c-31 0 -56 25 -56 56c0 32 25 57 56 57c32 0 57 -25 57 -57c0 -31 -25 -56 -57 -56z" />
    <glyph glyph-name="emacron" unicode="&#x113;" horiz-adv-x="451" 
d="M36 200c0 113 80 210 200 210c104 0 184 -78 184 -185c0 -7 -1 -20 -2 -27c-1 -10 -9 -17 -18 -17h-272c3 -54 50 -107 115 -107c36 0 69 16 89 29c12 7 19 11 27 1l28 -38c7 -8 10 -16 -2 -26c-29 -25 -81 -50 -148 -50c-121 0 -201 95 -201 210zM133 244h194
c-3 48 -43 89 -92 89c-54 0 -96 -39 -102 -89zM108 576c-11 0 -19 8 -19 18v28c0 11 8 19 19 19h256c11 0 19 -8 19 -19v-28c0 -10 -8 -18 -19 -18h-256z" />
    <glyph glyph-name="ebreve" unicode="&#x115;" horiz-adv-x="451" 
d="M36 200c0 113 80 210 200 210c104 0 184 -78 184 -185c0 -7 -1 -20 -2 -27c-1 -10 -9 -17 -18 -17h-272c3 -54 50 -107 115 -107c36 0 69 16 89 29c12 7 19 11 27 1l28 -38c7 -8 10 -16 -2 -26c-29 -25 -81 -50 -148 -50c-121 0 -201 95 -201 210zM133 244h194
c-3 48 -43 89 -92 89c-54 0 -96 -39 -102 -89zM237 529c-72 0 -128 50 -138 116c-2 12 4 21 16 21h29c10 0 16 -7 18 -15c11 -35 38 -59 75 -59c33 0 62 27 72 59c3 9 10 15 18 15h31c12 0 18 -9 16 -21c-11 -66 -67 -116 -137 -116z" />
    <glyph glyph-name="edotaccent" unicode="&#x117;" horiz-adv-x="451" 
d="M36 200c0 113 80 210 200 210c104 0 184 -78 184 -185c0 -7 -1 -20 -2 -27c-1 -10 -9 -17 -18 -17h-272c3 -54 50 -107 115 -107c36 0 69 16 89 29c12 7 19 11 27 1l28 -38c7 -8 10 -16 -2 -26c-29 -25 -81 -50 -148 -50c-121 0 -201 95 -201 210zM133 244h194
c-3 48 -43 89 -92 89c-54 0 -96 -39 -102 -89zM237 551c-35 0 -64 29 -64 64c0 36 29 65 64 65c36 0 65 -29 65 -65c0 -35 -29 -64 -65 -64z" />
    <glyph glyph-name="eogonek" unicode="&#x119;" horiz-adv-x="452" 
d="M157 -113c0 49 27 85 47 106c-102 15 -167 103 -167 207c0 113 80 210 200 210c104 0 184 -78 184 -185c0 -7 -1 -20 -2 -27c-1 -10 -9 -17 -18 -17h-272c3 -54 50 -109 115 -109c36 0 68 15 88 28c12 7 20 11 27 1c11 -12 18 -22 29 -35c7 -8 10 -16 -2 -26
c-26 -22 -68 -44 -123 -49c-18 -19 -39 -50 -39 -89c0 -34 25 -60 62 -60c22 0 38 7 50 12c10 4 19 -3 19 -15v-28c0 -9 -7 -14 -14 -18c-7 -3 -36 -12 -68 -12c-62 0 -116 33 -116 106zM134 244h194c-3 48 -43 89 -92 89c-54 0 -96 -39 -102 -89z" />
    <glyph glyph-name="gcircumflex" unicode="&#x11d;" horiz-adv-x="460" 
d="M25 24c0 77 71 114 71 114s-31 37 -31 97c0 93 70 175 172 175h175c11 0 19 -8 19 -19v-25c0 -7 -4 -16 -11 -17l-55 -15s43 -32 43 -107c0 -85 -66 -163 -170 -163c-51 0 -79 16 -87 16c-7 0 -41 -17 -41 -49c0 -23 18 -41 48 -41h136c87 0 157 -47 157 -134
c0 -88 -80 -166 -213 -166c-141 0 -198 72 -198 137c0 60 49 88 59 94v3c-21 6 -74 33 -74 100zM239 141c50 0 84 38 84 92s-34 92 -84 92c-51 0 -88 -38 -88 -92s37 -92 88 -92zM133 -157c0 -41 43 -71 104 -71s114 31 114 79c0 16 -10 57 -75 57c-29 0 -59 0 -88 -2
c-6 -2 -55 -18 -55 -63zM137 542l-20 27c-5 7 0 15 6 19l125 98c6 5 17 5 24 0l125 -98c6 -4 11 -12 6 -19l-20 -27c-6 -8 -11 -11 -23 -3l-100 65l-100 -65c-12 -7 -17 -5 -23 3z" />
    <glyph glyph-name="gbreve" unicode="&#x11f;" horiz-adv-x="460" 
d="M25 24c0 77 71 114 71 114s-31 37 -31 97c0 93 70 175 172 175h175c11 0 19 -8 19 -19v-25c0 -7 -4 -16 -11 -17l-55 -15s43 -32 43 -107c0 -85 -66 -163 -170 -163c-51 0 -79 16 -87 16c-7 0 -41 -17 -41 -49c0 -23 18 -41 48 -41h136c87 0 157 -47 157 -134
c0 -88 -80 -166 -213 -166c-141 0 -198 72 -198 137c0 60 49 88 59 94v3c-21 6 -74 33 -74 100zM239 141c50 0 84 38 84 92s-34 92 -84 92c-51 0 -88 -38 -88 -92s37 -92 88 -92zM133 -157c0 -41 43 -71 104 -71s114 31 114 79c0 16 -10 57 -75 57c-29 0 -59 0 -88 -2
c-6 -2 -55 -18 -55 -63zM260 529c-72 0 -128 50 -138 116c-2 12 4 21 16 21h29c10 0 16 -7 18 -15c11 -35 38 -59 75 -59c33 0 62 27 72 59c3 9 10 15 18 15h31c12 0 18 -9 16 -21c-11 -66 -67 -116 -137 -116z" />
    <glyph glyph-name="gdotaccent" unicode="&#x121;" horiz-adv-x="460" 
d="M25 24c0 77 71 114 71 114s-31 37 -31 97c0 93 70 175 172 175h175c11 0 19 -8 19 -19v-25c0 -7 -4 -16 -11 -17l-55 -15s43 -32 43 -107c0 -85 -66 -163 -170 -163c-51 0 -79 16 -87 16c-7 0 -41 -17 -41 -49c0 -23 18 -41 48 -41h136c87 0 157 -47 157 -134
c0 -88 -80 -166 -213 -166c-141 0 -198 72 -198 137c0 60 49 88 59 94v3c-21 6 -74 33 -74 100zM239 141c50 0 84 38 84 92s-34 92 -84 92c-51 0 -88 -38 -88 -92s37 -92 88 -92zM133 -157c0 -41 43 -71 104 -71s114 31 114 79c0 16 -10 57 -75 57c-29 0 -59 0 -88 -2
c-6 -2 -55 -18 -55 -63zM259 551c-35 0 -64 29 -64 64c0 36 29 65 64 65c36 0 65 -29 65 -65c0 -35 -29 -64 -65 -64z" />
    <glyph glyph-name="gcommaaccent" unicode="&#x123;" horiz-adv-x="460" 
d="M255 529c-34 0 -74 21 -74 98c0 91 58 157 87 183c9 8 17 8 23 1l15 -14c5 -6 4 -16 -5 -24c-10 -8 -64 -52 -65 -124c3 1 11 3 22 3c33 0 62 -27 62 -61c0 -35 -29 -62 -65 -62zM25 24c0 77 71 114 71 114s-31 37 -31 97c0 93 70 175 172 175h175c11 0 19 -8 19 -19v-25
c0 -7 -4 -16 -11 -17l-55 -15s43 -32 43 -107c0 -85 -66 -163 -170 -163c-51 0 -79 16 -87 16c-7 0 -41 -17 -41 -49c0 -23 18 -41 48 -41h136c87 0 157 -47 157 -134c0 -88 -80 -166 -213 -166c-141 0 -198 72 -198 137c0 60 49 88 59 94v3c-21 6 -74 33 -74 100zM239 141
c50 0 84 38 84 92s-34 92 -84 92c-51 0 -88 -38 -88 -92s37 -92 88 -92zM133 -157c0 -41 43 -71 104 -71s114 31 114 79c0 16 -10 57 -75 57c-29 0 -59 0 -88 -2c-6 -2 -55 -18 -55 -63z" />
    <glyph glyph-name="hcircumflex" unicode="&#x125;" horiz-adv-x="508" 
d="M65 19v662c0 10 9 19 19 19h58c10 0 19 -9 19 -19v-314c10 7 56 43 120 43c113 0 167 -81 167 -190v-201c0 -10 -9 -19 -19 -19h-56c-11 0 -19 9 -19 19v203c0 65 -33 101 -85 101c-61 0 -103 -46 -108 -63v-241c0 -11 -7 -19 -20 -19h-57c-10 0 -19 9 -19 19zM-11 759
l-20 27c-5 7 0 15 6 19l125 98c6 5 17 5 24 0l125 -98c6 -4 11 -12 6 -19l-20 -27c-6 -8 -11 -11 -23 -3l-100 65l-100 -65c-12 -7 -17 -5 -23 3z" />
    <glyph glyph-name="hbar" unicode="&#x127;" horiz-adv-x="508" 
d="M65 19v515h-32c-10 0 -18 9 -18 19v10c0 10 8 19 18 19h32v99c0 10 9 19 19 19h58c10 0 19 -9 19 -19v-99h136c11 0 19 -9 19 -19v-11c0 -10 -8 -18 -19 -18h-136v-168c10 5 56 43 120 43c127 0 167 -91 167 -211v-179c0 -10 -9 -19 -19 -19h-56c-11 0 -19 9 -19 19v201
c0 65 -33 101 -85 101c-61 0 -108 -43 -108 -60v-242c0 -16 -22 -19 -38 -19h-39c-10 0 -19 9 -19 19z" />
    <glyph glyph-name="dotlessi" unicode="&#x131;" horiz-adv-x="225" 
d="M65 19v362c0 10 9 19 19 19h57c10 0 19 -9 19 -19v-362c0 -10 -9 -19 -19 -19h-57c-10 0 -19 9 -19 19z" />
    <glyph glyph-name="igrave" unicode="&#xec;" horiz-adv-x="225" 
d="M179 543l-168 72c-8 4 -11 14 -6 24l23 44c5 9 20 7 26 3l157 -91c6 -3 10 -11 6 -19l-14 -29c-4 -8 -10 -11 -24 -4zM65 19v362c0 10 9 19 19 19h57c10 0 19 -9 19 -19v-362c0 -10 -9 -19 -19 -19h-57c-10 0 -19 9 -19 19z" />
    <glyph glyph-name="iacute" unicode="&#xed;" horiz-adv-x="225" 
d="M42 543c-14 -7 -20 -4 -24 4l-14 29c-4 8 0 16 6 19l157 91c6 4 21 6 26 -3l23 -44c5 -10 2 -20 -6 -24zM65 19v362c0 10 9 19 19 19h57c10 0 19 -9 19 -19v-362c0 -10 -9 -19 -19 -19h-57c-10 0 -19 9 -19 19z" />
    <glyph glyph-name="ibreve" unicode="&#x12d;" horiz-adv-x="225" 
d="M114 529c-72 0 -128 50 -138 116c-2 12 4 21 16 21h29c10 0 16 -7 18 -15c11 -35 38 -59 75 -59c33 0 62 27 72 59c3 9 10 15 18 15h31c12 0 18 -9 16 -21c-11 -66 -67 -116 -137 -116zM65 19v362c0 10 9 19 19 19h57c10 0 19 -9 19 -19v-362c0 -10 -9 -19 -19 -19h-57
c-10 0 -19 9 -19 19z" />
    <glyph glyph-name="icircumflex" unicode="&#xee;" horiz-adv-x="225" 
d="M65 19v362c0 10 9 19 19 19h57c10 0 19 -9 19 -19v-362c0 -10 -9 -19 -19 -19h-57c-10 0 -19 9 -19 19zM-11 542l-20 27c-5 7 0 15 6 19l125 98c6 5 17 5 24 0l125 -98c6 -4 11 -12 6 -19l-20 -27c-6 -8 -11 -11 -23 -3l-100 65l-100 -65c-12 -7 -17 -5 -23 3z" />
    <glyph glyph-name="itilde" unicode="&#x129;" horiz-adv-x="225" 
d="M-9 568l-23 15c-10 6 -9 16 -6 23c9 18 39 84 98 84c58 0 77 -64 109 -64c23 0 31 25 41 40c6 10 13 16 25 9c8 -6 20 -11 26 -19c5 -8 2 -16 -3 -27c-10 -22 -39 -75 -94 -75c-51 0 -78 65 -107 65c-24 0 -37 -28 -43 -41c-5 -11 -10 -17 -23 -10zM65 19v362
c0 10 9 19 19 19h57c10 0 19 -9 19 -19v-362c0 -10 -9 -19 -19 -19h-57c-10 0 -19 9 -19 19z" />
    <glyph glyph-name="idieresis" unicode="&#xef;" horiz-adv-x="225" 
d="M210 567c-31 0 -56 25 -56 56c0 32 25 57 56 57c32 0 57 -25 57 -57c0 -31 -25 -56 -57 -56zM13 567c-31 0 -56 25 -56 56c0 32 25 57 56 57c32 0 57 -25 57 -57c0 -31 -25 -56 -57 -56zM65 19v362c0 10 9 19 19 19h57c10 0 19 -9 19 -19v-362c0 -10 -9 -19 -19 -19h-57
c-10 0 -19 9 -19 19z" />
    <glyph glyph-name="imacron" unicode="&#x12b;" horiz-adv-x="225" 
d="M-14 576c-11 0 -19 8 -19 18v28c0 11 8 19 19 19h256c11 0 19 -8 19 -19v-28c0 -10 -8 -18 -19 -18h-256zM65 19v362c0 10 9 19 19 19h57c10 0 19 -9 19 -19v-362c0 -10 -9 -19 -19 -19h-57c-10 0 -19 9 -19 19z" />
    <glyph glyph-name="iogonek" unicode="&#x12f;" horiz-adv-x="225" 
d="M111 563c-32 0 -57 26 -57 58c0 33 25 59 57 59c33 0 59 -26 59 -59c0 -32 -26 -58 -59 -58zM65 19v362c0 10 9 19 19 19h57c10 0 19 -9 19 -19v-362c0 -10 -9 -19 -19 -19h-8c-17 -17 -47 -52 -47 -98c0 -34 25 -60 62 -60c22 0 38 7 50 12c10 4 19 -3 19 -15v-28
c0 -9 -7 -14 -14 -18c-7 -3 -36 -12 -68 -12c-62 0 -116 33 -116 106c0 57 37 98 57 115c-7 3 -11 10 -11 17z" />
    <glyph glyph-name="dotlessj" unicode="&#x237;" horiz-adv-x="226" 
d="M65 -124v505c0 11 9 19 19 19h58c10 0 19 -8 19 -19v-505c0 -124 -74 -186 -170 -186c-54 0 -96 23 -114 40c-7 5 -8 16 -4 23l25 45c5 9 15 9 25 3c13 -9 42 -25 66 -25c45 0 76 32 76 100z" />
    <glyph glyph-name="jcircumflex" unicode="&#x135;" horiz-adv-x="226" 
d="M65 -124v505c0 11 9 19 19 19h58c10 0 19 -8 19 -19v-505c0 -124 -74 -186 -170 -186c-54 0 -96 23 -114 40c-7 5 -8 16 -4 23l25 45c5 9 15 9 25 3c13 -9 42 -25 66 -25c45 0 76 32 76 100zM-11 542l-20 27c-5 7 0 15 6 19l125 98c6 5 17 5 24 0l125 -98
c6 -4 11 -12 6 -19l-20 -27c-6 -8 -11 -11 -23 -3l-100 65l-100 -65c-12 -7 -17 -5 -23 3z" />
    <glyph glyph-name="kcommaaccent" unicode="&#x137;" horiz-adv-x="467" 
d="M65 19v662c0 10 9 19 19 19h58c10 0 19 -9 19 -19v-433l156 140c7 6 15 12 25 12h70c17 0 20 -19 11 -27l-166 -151l196 -196c9 -9 6 -26 -11 -26h-82c-7 0 -15 4 -18 8l-181 186v-175c0 -10 -9 -19 -19 -19h-58c-10 0 -19 9 -19 19zM240 -92c34 0 74 -21 74 -98
c0 -91 -58 -157 -87 -183c-9 -8 -17 -8 -23 -1l-15 14c-5 6 -4 16 5 24c10 8 64 52 65 124c-3 -1 -11 -3 -22 -3c-33 0 -62 27 -62 61c0 35 29 62 65 62z" />
    <glyph glyph-name="kgreenlandic" unicode="&#x138;" horiz-adv-x="472" 
d="M65 19v362c0 10 9 19 19 19h58c10 0 19 -9 19 -19v-163l170 170c7 6 15 12 25 12h70c17 0 20 -19 11 -27l-180 -178l196 -169c9 -9 6 -26 -11 -26h-82c-7 0 -15 4 -18 8l-181 156v-145c0 -10 -9 -19 -19 -19h-58c-10 0 -19 9 -19 19z" />
    <glyph glyph-name="lacute" unicode="&#x13a;" horiz-adv-x="225" 
d="M65 19v662c0 10 9 19 19 19h57c10 0 19 -9 19 -19v-662c0 -10 -9 -19 -19 -19h-57c-10 0 -19 9 -19 19zM42 760c-14 -7 -20 -4 -24 4l-14 29c-4 8 0 16 6 19l157 91c6 4 21 6 26 -3l23 -44c5 -10 2 -20 -6 -24z" />
    <glyph glyph-name="lcaron" unicode="&#x13e;" horiz-adv-x="255" 
d="M65 19v662c0 10 9 19 19 19h57c10 0 19 -9 19 -19v-662c0 -10 -9 -19 -19 -19h-57c-10 0 -19 9 -19 19zM286 428l-14 14c-6 6 -4 16 4 24c10 8 65 52 65 124c-2 -1 -11 -3 -21 -3c-34 0 -62 27 -62 61c0 35 28 62 64 62c34 0 75 -21 75 -98c0 -91 -58 -157 -87 -183
c-9 -8 -17 -8 -24 -1z" />
    <glyph glyph-name="lcommaaccent" unicode="&#x13c;" horiz-adv-x="225" 
d="M65 19v662c0 10 9 19 19 19h57c10 0 19 -9 19 -19v-662c0 -10 -9 -19 -19 -19h-57c-10 0 -19 9 -19 19zM109 -92c34 0 74 -21 74 -98c0 -91 -58 -157 -87 -183c-9 -8 -17 -8 -23 -1l-15 14c-5 6 -4 16 5 24c10 8 64 52 65 124c-3 -1 -11 -3 -22 -3c-33 0 -62 27 -62 61
c0 35 29 62 65 62z" />
    <glyph glyph-name="lslash" unicode="&#x142;" horiz-adv-x="246" 
d="M80 19v297l-43 -24c-8 -5 -20 -2 -25 7l-5 9c-5 8 -3 20 6 26l67 37v310c0 10 9 19 19 19h57c10 0 19 -9 19 -19v-254l76 45c10 5 21 1 26 -7l5 -10c5 -8 2 -19 -7 -25l-100 -58v-353c0 -10 -9 -19 -19 -19h-57c-10 0 -19 9 -19 19z" />
    <glyph glyph-name="ldot" unicode="&#x140;" horiz-adv-x="365" 
d="M65 19v662c0 10 9 19 19 19h57c10 0 19 -9 19 -19v-662c0 -10 -9 -19 -19 -19h-57c-10 0 -19 9 -19 19zM296 295c-35 0 -64 29 -64 64c0 36 29 65 64 65c36 0 65 -29 65 -65c0 -35 -29 -64 -65 -64z" />
    <glyph glyph-name="nacute" unicode="&#x144;" horiz-adv-x="507" 
d="M65 19v362c0 10 9 19 19 19h29c8 0 14 -5 16 -12l12 -34c7 8 60 56 140 56c122 0 167 -86 167 -190v-201c0 -10 -9 -19 -19 -19h-57c-11 0 -19 9 -19 19v205c0 64 -31 99 -83 99c-63 0 -106 -46 -111 -60v-244c0 -13 -6 -19 -23 -19h-52c-10 0 -19 9 -19 19zM196 543
c-14 -7 -20 -4 -24 4l-14 29c-4 8 0 16 6 19l157 91c6 4 21 6 26 -3l23 -44c5 -10 2 -20 -6 -24z" />
    <glyph glyph-name="ncaron" unicode="&#x148;" horiz-adv-x="507" 
d="M65 19v362c0 10 9 19 19 19h29c8 0 14 -5 16 -12l12 -34c7 8 60 56 140 56c122 0 167 -86 167 -190v-201c0 -10 -9 -19 -19 -19h-57c-11 0 -19 9 -19 19v205c0 64 -31 99 -83 99c-63 0 -106 -46 -111 -60v-244c0 -13 -6 -19 -23 -19h-52c-10 0 -19 9 -19 19zM250 535
l-125 98c-6 4 -11 12 -6 19l20 27c6 8 11 10 23 3l100 -65l100 65c12 8 17 5 23 -3l20 -27c5 -7 0 -15 -6 -19l-125 -98c-7 -5 -18 -5 -24 0z" />
    <glyph glyph-name="ntilde" unicode="&#xf1;" horiz-adv-x="507" 
d="M65 19v362c0 10 9 19 19 19h29c8 0 14 -5 16 -12l12 -34c7 8 60 56 140 56c122 0 167 -86 167 -190v-201c0 -10 -9 -19 -19 -19h-57c-11 0 -19 9 -19 19v205c0 64 -31 99 -83 99c-63 0 -106 -46 -111 -60v-244c0 -13 -6 -19 -23 -19h-52c-10 0 -19 9 -19 19zM139 568
l-23 15c-10 6 -9 16 -6 23c9 18 39 84 98 84c58 0 77 -64 109 -64c23 0 31 25 41 40c6 10 13 16 25 9c8 -6 20 -11 26 -19c5 -8 2 -16 -3 -27c-10 -22 -39 -75 -94 -75c-51 0 -78 65 -107 65c-24 0 -37 -28 -43 -41c-5 -11 -10 -17 -23 -10z" />
    <glyph glyph-name="ncommaaccent" unicode="&#x146;" horiz-adv-x="508" 
d="M65 19v362c0 10 9 19 19 19h29c8 0 14 -5 16 -12l12 -34c7 8 60 56 140 56c122 0 167 -86 167 -190v-201c0 -10 -9 -19 -19 -19h-57c-11 0 -19 9 -19 19v205c0 64 -31 99 -83 99c-63 0 -106 -46 -111 -60v-244c0 -13 -6 -19 -23 -19h-52c-10 0 -19 9 -19 19zM257 -92
c34 0 74 -21 74 -98c0 -91 -58 -157 -87 -183c-9 -8 -17 -8 -23 -1l-15 14c-5 6 -4 16 5 24c10 8 64 52 65 124c-3 -1 -11 -3 -22 -3c-33 0 -62 27 -62 61c0 35 29 62 65 62z" />
    <glyph glyph-name="napostrophe" unicode="&#x149;" horiz-adv-x="507" 
d="M65 19v362c0 10 9 19 19 19h29c8 0 14 -5 16 -12l12 -34c7 8 60 56 140 56c122 0 167 -86 167 -190v-201c0 -10 -9 -19 -19 -19h-57c-11 0 -19 9 -19 19v205c0 64 -31 99 -83 99c-63 0 -106 -46 -111 -60v-244c0 -13 -6 -19 -23 -19h-52c-10 0 -19 9 -19 19zM-75 710
c34 0 74 -21 74 -98c0 -91 -58 -157 -87 -183c-9 -8 -17 -8 -23 -1l-15 14c-5 6 -4 16 5 24c10 8 64 52 65 124c-3 -1 -11 -3 -22 -3c-33 0 -62 27 -62 61c0 35 29 62 65 62z" />
    <glyph glyph-name="ograve" unicode="&#xf2;" horiz-adv-x="474" 
d="M35 201c0 113 90 209 202 209s202 -96 202 -209c0 -115 -90 -211 -202 -211s-202 96 -202 211zM124 201c0 -69 50 -125 113 -125s113 56 113 125c0 67 -50 122 -113 122s-113 -55 -113 -122zM306 543l-168 72c-8 4 -11 14 -6 24l23 44c5 9 20 7 26 3l157 -91
c6 -3 10 -11 6 -19l-14 -29c-4 -8 -10 -11 -24 -4z" />
    <glyph glyph-name="oacute" unicode="&#xf3;" horiz-adv-x="474" 
d="M35 201c0 113 90 209 202 209s202 -96 202 -209c0 -115 -90 -211 -202 -211s-202 96 -202 211zM124 201c0 -69 50 -125 113 -125s113 56 113 125c0 67 -50 122 -113 122s-113 -55 -113 -122zM168 543c-14 -7 -20 -4 -24 4l-14 29c-4 8 0 16 6 19l157 91c6 4 21 6 26 -3
l23 -44c5 -10 2 -20 -6 -24z" />
    <glyph glyph-name="ocircumflex" unicode="&#xf4;" horiz-adv-x="474" 
d="M35 201c0 113 90 209 202 209s202 -96 202 -209c0 -115 -90 -211 -202 -211s-202 96 -202 211zM124 201c0 -69 50 -125 113 -125s113 56 113 125c0 67 -50 122 -113 122s-113 -55 -113 -122zM113 542l-20 27c-5 7 0 15 6 19l125 98c6 5 17 5 24 0l125 -98
c6 -4 11 -12 6 -19l-20 -27c-6 -8 -11 -11 -23 -3l-100 65l-100 -65c-12 -7 -17 -5 -23 3z" />
    <glyph glyph-name="otilde" unicode="&#xf5;" horiz-adv-x="474" 
d="M35 201c0 113 90 209 202 209s202 -96 202 -209c0 -115 -90 -211 -202 -211s-202 96 -202 211zM124 201c0 -69 50 -125 113 -125s113 56 113 125c0 67 -50 122 -113 122s-113 -55 -113 -122zM115 568l-23 15c-10 6 -9 16 -6 23c9 18 39 84 98 84c58 0 77 -64 109 -64
c23 0 31 25 41 40c6 10 13 16 25 9c8 -6 20 -11 26 -19c5 -8 2 -16 -3 -27c-10 -22 -39 -75 -94 -75c-51 0 -78 65 -107 65c-24 0 -37 -28 -43 -41c-5 -11 -10 -17 -23 -10z" />
    <glyph glyph-name="odieresis" unicode="&#xf6;" horiz-adv-x="474" 
d="M35 201c0 113 90 209 202 209s202 -96 202 -209c0 -115 -90 -211 -202 -211s-202 96 -202 211zM124 201c0 -69 50 -125 113 -125s113 56 113 125c0 67 -50 122 -113 122s-113 -55 -113 -122zM334 567c-31 0 -56 25 -56 56c0 32 25 57 56 57c32 0 57 -25 57 -57
c0 -31 -25 -56 -57 -56zM137 567c-31 0 -56 25 -56 56c0 32 25 57 56 57c32 0 57 -25 57 -57c0 -31 -25 -56 -57 -56z" />
    <glyph glyph-name="omacron" unicode="&#x14d;" horiz-adv-x="474" 
d="M35 201c0 113 90 209 202 209s202 -96 202 -209c0 -115 -90 -211 -202 -211s-202 96 -202 211zM124 201c0 -69 50 -125 113 -125s113 56 113 125c0 67 -50 122 -113 122s-113 -55 -113 -122zM110 576c-11 0 -19 8 -19 18v28c0 11 8 19 19 19h256c11 0 19 -8 19 -19v-28
c0 -10 -8 -18 -19 -18h-256z" />
    <glyph glyph-name="obreve" unicode="&#x14f;" horiz-adv-x="474" 
d="M35 201c0 113 90 209 202 209s202 -96 202 -209c0 -115 -90 -211 -202 -211s-202 96 -202 211zM124 201c0 -69 50 -125 113 -125s113 56 113 125c0 67 -50 122 -113 122s-113 -55 -113 -122zM238 529c-72 0 -128 50 -138 116c-2 12 4 21 16 21h29c10 0 16 -7 18 -15
c11 -35 38 -59 75 -59c33 0 62 27 72 59c3 9 10 15 18 15h31c12 0 18 -9 16 -21c-11 -66 -67 -116 -137 -116z" />
    <glyph glyph-name="ohungarumlaut" unicode="&#x151;" horiz-adv-x="474" 
d="M35 201c0 113 90 209 202 209s202 -96 202 -209c0 -115 -90 -211 -202 -211s-202 96 -202 211zM124 201c0 -69 50 -125 113 -125s113 56 113 125c0 67 -50 122 -113 122s-113 -55 -113 -122zM313 521c-16 0 -22 9 -19 19l44 141c3 10 9 19 19 19h57c19 0 25 -13 18 -25
l-78 -139c-4 -8 -11 -15 -18 -15h-23zM147 521c-15 0 -22 9 -19 19l44 141c3 10 9 19 19 19h57c19 0 25 -12 18 -25l-78 -139c-4 -8 -11 -15 -18 -15h-23z" />
    <glyph glyph-name="oslash" unicode="&#xf8;" horiz-adv-x="473" 
d="M59 26c-8 7 -8 19 -1 26l19 19c-26 36 -41 83 -41 131c0 113 89 208 201 208c48 0 93 -19 127 -48l24 23c7 8 19 8 26 0l8 -7c8 -7 8 -19 0 -26l-25 -25c26 -35 41 -79 41 -125c0 -115 -89 -212 -201 -212c-48 0 -93 17 -127 46l-18 -18c-7 -7 -19 -6 -27 1zM140 136
l162 164c-18 15 -40 23 -65 23c-63 0 -112 -54 -112 -121c0 -25 5 -48 15 -66zM172 98c18 -14 40 -22 65 -22c63 0 112 57 112 126c0 22 -5 43 -15 61z" />
    <glyph glyph-name="oslashacute" unicode="&#x1ff;" horiz-adv-x="473" 
d="M166 543c-14 -7 -20 -4 -24 4l-14 29c-4 8 0 16 6 19l157 91c6 4 21 6 26 -3l23 -44c5 -10 2 -20 -6 -24zM59 26c-8 7 -8 19 -1 26l19 19c-26 36 -41 83 -41 131c0 113 89 208 201 208c48 0 93 -19 127 -48l24 23c7 8 19 8 26 0l8 -7c8 -7 8 -19 0 -26l-25 -25
c26 -35 41 -79 41 -125c0 -115 -89 -212 -201 -212c-48 0 -93 17 -127 46l-18 -18c-7 -7 -19 -6 -27 1zM140 136l162 164c-18 15 -40 23 -65 23c-63 0 -112 -54 -112 -121c0 -25 5 -48 15 -66zM172 98c18 -14 40 -22 65 -22c63 0 112 57 112 126c0 22 -5 43 -15 61z" />
    <glyph glyph-name="oe" unicode="&#x153;" horiz-adv-x="756" 
d="M35 202c0 113 90 208 202 208c61 0 115 -30 151 -75c35 46 88 75 153 75c100 0 184 -75 184 -185c0 -7 -1 -20 -2 -27c-1 -10 -10 -17 -19 -17h-270c7 -54 52 -108 113 -108c37 0 68 14 89 27c12 7 20 11 27 1c10 -12 19 -23 29 -35c6 -8 10 -16 -3 -26
c-28 -25 -81 -50 -148 -50c-64 0 -117 29 -153 74c-36 -45 -90 -74 -151 -74c-112 0 -202 97 -202 212zM439 244h193c-2 50 -43 87 -93 87c-53 0 -94 -37 -100 -87zM124 202c0 -69 49 -126 113 -126c63 0 112 57 112 126c0 67 -49 121 -112 121c-64 0 -113 -54 -113 -121z
" />
    <glyph glyph-name="racute" unicode="&#x155;" horiz-adv-x="336" 
d="M65 19v362c0 10 9 19 19 19h29c7 0 15 -6 17 -14l11 -34c7 10 44 58 117 58c38 0 84 -10 73 -37l-24 -49c-5 -11 -15 -13 -24 -9c-6 3 -21 7 -34 7c-58 0 -86 -42 -90 -49v-254c0 -17 -11 -19 -27 -19h-48c-10 0 -19 9 -19 19zM118 543c-14 -7 -20 -4 -24 4l-14 29
c-4 8 0 16 6 19l157 91c6 4 21 6 26 -3l23 -44c5 -10 2 -20 -6 -24z" />
    <glyph glyph-name="rcaron" unicode="&#x159;" horiz-adv-x="336" 
d="M65 19v362c0 10 9 19 19 19h29c7 0 15 -6 17 -14l11 -34c7 10 44 58 117 58c38 0 84 -10 73 -37l-24 -49c-5 -11 -15 -13 -24 -9c-6 3 -21 7 -34 7c-58 0 -86 -42 -90 -49v-254c0 -17 -11 -19 -27 -19h-48c-10 0 -19 9 -19 19zM158 535l-125 98c-6 4 -11 12 -6 19l20 27
c6 8 11 10 23 3l100 -65l100 65c12 8 17 5 23 -3l20 -27c5 -7 0 -15 -6 -19l-125 -98c-7 -5 -18 -5 -24 0z" />
    <glyph glyph-name="rcommaaccent" unicode="&#x157;" horiz-adv-x="336" 
d="M65 19v362c0 10 9 19 19 19h29c7 0 15 -6 17 -14l11 -34c7 10 44 58 117 58c38 0 84 -10 73 -37l-24 -49c-5 -11 -15 -13 -24 -9c-6 3 -21 7 -34 7c-58 0 -86 -42 -90 -49v-254c0 -17 -11 -19 -27 -19h-48c-10 0 -19 9 -19 19zM108 -92c34 0 74 -21 74 -98
c0 -91 -58 -157 -87 -183c-9 -8 -17 -8 -23 -1l-15 14c-5 6 -4 16 5 24c10 8 64 52 65 124c-3 -1 -11 -3 -22 -3c-33 0 -62 27 -62 61c0 35 29 62 65 62z" />
    <glyph glyph-name="sacute" unicode="&#x15b;" horiz-adv-x="358" 
d="M47 31c-6 4 -10 13 -6 21l21 39c4 8 15 11 25 5c0 0 44 -26 93 -26c30 0 49 12 49 34c0 27 -22 40 -77 65c-62 27 -114 65 -114 131c0 50 41 110 137 110c56 0 98 -18 118 -31c9 -6 14 -19 8 -29l-18 -34c-5 -9 -18 -12 -26 -8c0 0 -44 21 -82 21c-34 0 -45 -15 -45 -30
c0 -26 25 -37 64 -54c73 -32 133 -63 133 -138c0 -62 -59 -117 -148 -117c-67 0 -111 24 -132 41zM120 543c-14 -7 -20 -4 -24 4l-14 29c-4 8 0 16 6 19l157 91c6 4 21 6 26 -3l23 -44c5 -10 2 -20 -6 -24z" />
    <glyph glyph-name="scircumflex" unicode="&#x15d;" horiz-adv-x="358" 
d="M47 31c-6 4 -10 13 -6 21l21 39c4 8 15 11 25 5c0 0 44 -26 93 -26c30 0 49 12 49 34c0 27 -22 40 -77 65c-62 27 -114 65 -114 131c0 50 41 110 137 110c56 0 98 -18 118 -31c9 -6 14 -19 8 -29l-18 -34c-5 -9 -18 -12 -26 -8c0 0 -44 21 -82 21c-34 0 -45 -15 -45 -30
c0 -26 25 -37 64 -54c73 -32 133 -63 133 -138c0 -62 -59 -117 -148 -117c-67 0 -111 24 -132 41zM55 542l-20 27c-5 7 0 15 6 19l125 98c6 5 17 5 24 0l125 -98c6 -4 11 -12 6 -19l-20 -27c-6 -8 -11 -11 -23 -3l-100 65l-100 -65c-12 -7 -17 -5 -23 3z" />
    <glyph glyph-name="scaron" unicode="&#x161;" horiz-adv-x="358" 
d="M47 31c-6 4 -10 13 -6 21l21 39c4 8 15 11 25 5c0 0 44 -26 93 -26c30 0 49 12 49 34c0 27 -22 40 -77 65c-62 27 -114 65 -114 131c0 50 41 110 137 110c56 0 98 -18 118 -31c9 -6 14 -19 8 -29l-18 -34c-5 -9 -18 -12 -26 -8c0 0 -44 21 -82 21c-34 0 -45 -15 -45 -30
c0 -26 25 -37 64 -54c73 -32 133 -63 133 -138c0 -62 -59 -117 -148 -117c-67 0 -111 24 -132 41zM164 535l-125 98c-6 4 -11 12 -6 19l20 27c6 8 11 10 23 3l100 -65l100 65c12 8 17 5 23 -3l20 -27c5 -7 0 -15 -6 -19l-125 -98c-7 -5 -18 -5 -24 0z" />
    <glyph glyph-name="scedilla" unicode="&#x15f;" horiz-adv-x="360" 
d="M48 31c-6 4 -10 13 -6 21l21 39c4 8 15 11 25 5c0 0 44 -26 93 -26c30 0 49 12 49 34c0 27 -22 40 -77 65c-62 27 -114 65 -114 131c0 50 41 110 137 110c56 0 98 -18 118 -31c9 -6 14 -19 8 -29l-18 -34c-5 -9 -18 -12 -26 -8c0 0 -44 21 -82 21c-34 0 -45 -15 -45 -30
c0 -26 25 -37 64 -54c73 -32 133 -63 133 -138c0 -62 -58 -116 -145 -117v-42c61 -8 101 -46 101 -103c0 -58 -46 -104 -105 -104c-30 0 -59 15 -76 35c-8 9 -7 20 1 27l17 14c7 5 17 5 22 -1c10 -11 25 -15 36 -15c23 0 39 19 39 42c0 35 -35 51 -78 56
c-15 3 -17 14 -17 19v78c-36 8 -61 23 -75 35z" />
    <glyph glyph-name="scommaaccent" unicode="&#x219;" horiz-adv-x="358" 
d="M47 31c-6 4 -10 13 -6 21l21 39c4 8 15 11 25 5c0 0 44 -26 93 -26c30 0 49 12 49 34c0 27 -22 40 -77 65c-62 27 -114 65 -114 131c0 50 41 110 137 110c56 0 98 -18 118 -31c9 -6 14 -19 8 -29l-18 -34c-5 -9 -18 -12 -26 -8c0 0 -44 21 -82 21c-34 0 -45 -15 -45 -30
c0 -26 25 -37 64 -54c73 -32 133 -63 133 -138c0 -62 -59 -117 -148 -117c-67 0 -111 24 -132 41zM183 -92c34 0 74 -21 74 -98c0 -91 -58 -157 -87 -183c-9 -8 -17 -8 -23 -1l-15 14c-5 6 -4 16 5 24c10 8 64 52 65 124c-3 -1 -11 -3 -22 -3c-33 0 -62 27 -62 61
c0 35 29 62 65 62z" />
    <glyph glyph-name="germandbls" unicode="&#xdf;" horiz-adv-x="519" 
d="M65 19v392c0 199 84 299 223 299c84 0 168 -46 168 -154c0 -93 -84 -158 -84 -205c0 -32 113 -85 113 -197c0 -86 -61 -164 -172 -164c-20 0 -30 1 -44 3c-10 1 -15 8 -15 21v46c0 8 4 17 19 16c11 -1 22 -4 40 -4c45 0 74 32 74 81c0 81 -117 121 -117 187
c0 65 88 146 88 212c0 46 -37 73 -77 73c-69 0 -120 -63 -120 -215v-391c0 -10 -9 -19 -19 -19h-58c-10 0 -19 9 -19 19z" />
    <glyph glyph-name="tcaron" unicode="&#x165;" horiz-adv-x="346" 
d="M91 109v208h-42c-11 0 -19 9 -19 19v45c0 11 8 19 19 19h42v111c0 10 9 19 19 19l57 1c10 0 18 -9 18 -19v-112h102c11 0 19 -8 19 -19v-45c0 -10 -8 -19 -19 -19h-102v-198c0 -34 13 -40 32 -40c21 0 49 12 61 18c13 6 19 0 23 -9l18 -44c5 -11 1 -19 -9 -24
c-10 -6 -69 -30 -117 -30c-79 0 -102 48 -102 119zM386 428l-14 14c-6 6 -4 16 4 24c10 8 65 52 65 124c-2 -1 -11 -3 -21 -3c-34 0 -62 27 -62 61c0 35 28 62 64 62c34 0 75 -21 75 -98c0 -91 -58 -157 -87 -183c-9 -8 -17 -8 -24 -1z" />
    <glyph glyph-name="tcommaaccent" unicode="&#x163;" horiz-adv-x="345" 
d="M90 109v208h-42c-11 0 -19 9 -19 19v45c0 11 8 19 19 19h42v111c0 10 9 19 19 19l57 1c10 0 18 -9 18 -19v-112h102c11 0 19 -8 19 -19v-45c0 -10 -8 -19 -19 -19h-102v-198c0 -34 13 -40 32 -40c21 0 49 12 61 18c13 6 19 0 23 -9l18 -44c5 -11 1 -19 -9 -24
c-10 -6 -69 -30 -117 -30c-79 0 -102 48 -102 119zM190 -92c34 0 74 -21 74 -98c0 -91 -58 -157 -87 -183c-9 -8 -17 -8 -23 -1l-15 14c-5 6 -4 16 5 24c10 8 64 52 65 124c-3 -1 -11 -3 -22 -3c-33 0 -62 27 -62 61c0 35 29 62 65 62z" />
    <glyph glyph-name="uni021B" unicode="&#x21b;" horiz-adv-x="345" 
d="M90 109v208h-42c-11 0 -19 9 -19 19v45c0 11 8 19 19 19h42v111c0 10 9 19 19 19l57 1c10 0 18 -9 18 -19v-112h102c11 0 19 -8 19 -19v-45c0 -10 -8 -19 -19 -19h-102v-198c0 -34 13 -40 32 -40c21 0 49 12 61 18c13 6 19 0 23 -9l18 -44c5 -11 1 -19 -9 -24
c-10 -6 -69 -30 -117 -30c-79 0 -102 48 -102 119zM190 -92c34 0 74 -21 74 -98c0 -91 -58 -157 -87 -183c-9 -8 -17 -8 -23 -1l-15 14c-5 6 -4 16 5 24c10 8 64 52 65 124c-3 -1 -11 -3 -22 -3c-33 0 -62 27 -62 61c0 35 29 62 65 62z" />
    <glyph glyph-name="tbar" unicode="&#x167;" horiz-adv-x="346" 
d="M91 109v62h-36c-10 0 -18 9 -18 19v10c0 10 8 19 18 19h36v99h-42c-11 0 -19 9 -19 19v44c0 11 8 19 19 19h42v111c0 10 9 19 19 19l57 1c10 0 18 -9 18 -19v-112h102c11 0 19 -8 19 -19v-44c0 -10 -8 -19 -19 -19h-102v-99h88c11 0 19 -9 19 -19v-11
c0 -10 -8 -18 -19 -18h-88v-50c0 -34 13 -40 32 -40c21 0 49 10 61 16c13 6 19 0 23 -9l18 -44c5 -11 1 -19 -9 -24c-10 -6 -69 -30 -117 -30c-79 0 -102 48 -102 119z" />
    <glyph glyph-name="thorn" unicode="&#xfe;" horiz-adv-x="491" 
d="M162 17v-299c0 -10 -9 -19 -19 -19h-58c-10 0 -19 9 -19 19v963c0 10 9 19 19 19h58c10 0 19 -9 19 -19v-305c8 5 43 34 102 34c110 0 191 -96 191 -211c0 -118 -86 -209 -197 -209c-50 0 -88 23 -96 27zM162 107c5 -7 40 -29 86 -29c67 0 114 53 114 122
c0 66 -42 124 -110 124c-51 0 -85 -38 -90 -49v-168z" />
    <glyph glyph-name="ugrave" unicode="&#xf9;" horiz-adv-x="494" 
d="M60 179v202c0 10 9 19 19 19h57c10 0 19 -9 19 -19v-205c0 -65 31 -100 82 -100c59 0 96 48 99 66v239c0 16 8 19 22 19h52c10 0 19 -9 19 -19v-362c0 -10 -9 -19 -19 -19h-28c-10 0 -15 7 -18 16l-10 29c-9 -8 -51 -55 -132 -55c-120 0 -162 85 -162 189zM316 543
l-168 72c-8 4 -11 14 -6 24l23 44c5 9 20 7 26 3l157 -91c6 -3 10 -11 6 -19l-14 -29c-4 -8 -10 -11 -24 -4z" />
    <glyph glyph-name="uacute" unicode="&#xfa;" horiz-adv-x="494" 
d="M60 179v202c0 10 9 19 19 19h57c10 0 19 -9 19 -19v-205c0 -65 31 -100 82 -100c59 0 96 48 99 66v239c0 16 8 19 22 19h52c10 0 19 -9 19 -19v-362c0 -10 -9 -19 -19 -19h-28c-10 0 -15 7 -18 16l-10 29c-9 -8 -51 -55 -132 -55c-120 0 -162 85 -162 189zM181 543
c-14 -7 -20 -4 -24 4l-14 29c-4 8 0 16 6 19l157 91c6 4 21 6 26 -3l23 -44c5 -10 2 -20 -6 -24z" />
    <glyph glyph-name="ucircumflex" unicode="&#xfb;" horiz-adv-x="494" 
d="M60 179v202c0 10 9 19 19 19h57c10 0 19 -9 19 -19v-205c0 -65 31 -100 82 -100c59 0 96 48 99 66v239c0 16 8 19 22 19h52c10 0 19 -9 19 -19v-362c0 -10 -9 -19 -19 -19h-28c-10 0 -15 7 -18 16l-10 29c-9 -8 -51 -55 -132 -55c-120 0 -162 85 -162 189zM126 542
l-20 27c-5 7 0 15 6 19l125 98c6 5 17 5 24 0l125 -98c6 -4 11 -12 6 -19l-20 -27c-6 -8 -11 -11 -23 -3l-100 65l-100 -65c-12 -7 -17 -5 -23 3z" />
    <glyph glyph-name="utilde" unicode="&#x169;" horiz-adv-x="494" 
d="M60 179v202c0 10 9 19 19 19h57c10 0 19 -9 19 -19v-205c0 -65 31 -100 82 -100c59 0 96 48 99 66v239c0 16 8 19 22 19h52c10 0 19 -9 19 -19v-362c0 -10 -9 -19 -19 -19h-28c-10 0 -15 7 -18 16l-10 29c-9 -8 -51 -55 -132 -55c-120 0 -162 85 -162 189zM131 568
l-23 15c-10 6 -9 16 -6 23c9 18 39 84 98 84c58 0 77 -64 109 -64c23 0 31 25 41 40c6 10 13 16 25 9c8 -6 20 -11 26 -19c5 -8 2 -16 -3 -27c-10 -22 -39 -75 -94 -75c-51 0 -78 65 -107 65c-24 0 -37 -28 -43 -41c-5 -11 -10 -17 -23 -10z" />
    <glyph glyph-name="udieresis" unicode="&#xfc;" horiz-adv-x="494" 
d="M60 179v202c0 10 9 19 19 19h57c10 0 19 -9 19 -19v-205c0 -65 31 -100 82 -100c59 0 96 48 99 66v239c0 16 8 19 22 19h52c10 0 19 -9 19 -19v-362c0 -10 -9 -19 -19 -19h-28c-10 0 -15 7 -18 16l-10 29c-9 -8 -51 -55 -132 -55c-120 0 -162 85 -162 189zM349 567
c-31 0 -56 25 -56 56c0 32 25 57 56 57c32 0 57 -25 57 -57c0 -31 -25 -56 -57 -56zM152 567c-31 0 -56 25 -56 56c0 32 25 57 56 57c32 0 57 -25 57 -57c0 -31 -25 -56 -57 -56z" />
    <glyph glyph-name="umacron" unicode="&#x16b;" horiz-adv-x="494" 
d="M60 179v202c0 10 9 19 19 19h57c10 0 19 -9 19 -19v-205c0 -65 31 -100 82 -100c59 0 96 48 99 66v239c0 16 8 19 22 19h52c10 0 19 -9 19 -19v-362c0 -10 -9 -19 -19 -19h-28c-10 0 -15 7 -18 16l-10 29c-9 -8 -51 -55 -132 -55c-120 0 -162 85 -162 189zM123 576
c-11 0 -19 8 -19 18v28c0 11 8 19 19 19h256c11 0 19 -8 19 -19v-28c0 -10 -8 -18 -19 -18h-256z" />
    <glyph glyph-name="ubreve" unicode="&#x16d;" horiz-adv-x="494" 
d="M60 179v202c0 10 9 19 19 19h57c10 0 19 -9 19 -19v-205c0 -65 31 -100 82 -100c59 0 96 48 99 66v239c0 16 8 19 22 19h52c10 0 19 -9 19 -19v-362c0 -10 -9 -19 -19 -19h-28c-10 0 -15 7 -18 16l-10 29c-9 -8 -51 -55 -132 -55c-120 0 -162 85 -162 189zM251 529
c-72 0 -128 50 -138 116c-2 12 4 21 16 21h29c10 0 16 -7 18 -15c11 -35 38 -59 75 -59c33 0 62 27 72 59c3 9 10 15 18 15h31c12 0 18 -9 16 -21c-11 -66 -67 -116 -137 -116z" />
    <glyph glyph-name="uring" unicode="&#x16f;" horiz-adv-x="494" 
d="M60 179v202c0 10 9 19 19 19h57c10 0 19 -9 19 -19v-205c0 -65 31 -100 82 -100c59 0 96 48 99 66v239c0 16 8 19 22 19h52c10 0 19 -9 19 -19v-362c0 -10 -9 -19 -19 -19h-28c-10 0 -15 7 -18 16l-10 29c-9 -8 -51 -55 -132 -55c-120 0 -162 85 -162 189zM247 488
c-62 0 -111 49 -111 111s49 111 111 111c61 0 111 -49 111 -111s-50 -111 -111 -111zM247 543c29 0 53 27 53 56s-24 53 -53 53c-33 0 -56 -24 -56 -53s23 -56 56 -56z" />
    <glyph glyph-name="uhungarumlaut" unicode="&#x171;" horiz-adv-x="494" 
d="M60 179v202c0 10 9 19 19 19h57c10 0 19 -9 19 -19v-205c0 -65 31 -100 82 -100c59 0 96 48 99 66v239c0 16 8 19 22 19h52c10 0 19 -9 19 -19v-362c0 -10 -9 -19 -19 -19h-28c-10 0 -15 7 -18 16l-10 29c-9 -8 -51 -55 -132 -55c-120 0 -162 85 -162 189zM323 521
c-16 0 -22 9 -19 19l44 141c3 10 9 19 19 19h57c19 0 25 -13 18 -25l-78 -139c-4 -8 -11 -15 -18 -15h-23zM157 521c-15 0 -22 9 -19 19l44 141c3 10 9 19 19 19h57c19 0 25 -12 18 -25l-78 -139c-4 -8 -11 -15 -18 -15h-23z" />
    <glyph glyph-name="uogonek" unicode="&#x173;" horiz-adv-x="493" 
d="M59 179v202c0 10 9 19 19 19h57c10 0 19 -9 19 -19v-201c0 -65 31 -100 82 -100c59 0 96 48 99 66v235c0 16 8 19 22 19h52c10 0 19 -9 19 -19v-362c0 -10 -8 -18 -18 -19c-17 -17 -47 -52 -47 -98c0 -34 25 -60 62 -60c22 0 38 7 50 12c10 4 19 -3 19 -15v-28
c0 -9 -7 -14 -14 -18c-7 -3 -36 -12 -68 -12c-62 0 -116 33 -116 106c0 74 62 119 68 124l-11 34c-9 -8 -51 -55 -132 -55c-120 0 -162 85 -162 189z" />
    <glyph glyph-name="wacute" unicode="&#x1e83;" horiz-adv-x="613" 
d="M146 0l-119 377c-6 13 0 23 14 23h54c7 0 16 -5 18 -12l67 -221h1l107 233c2 5 9 10 17 10h6c9 0 15 -5 17 -10l106 -234h1l66 222c5 12 20 12 31 12h39c14 0 21 -10 15 -23l-117 -377c-2 -6 -9 -10 -18 -10h-4c-8 0 -15 4 -17 9l-123 267h-1l-122 -267
c-2 -5 -8 -9 -16 -9h-5c-8 0 -15 4 -17 10zM238 543c-14 -7 -20 -4 -24 4l-14 29c-4 8 0 16 6 19l157 91c6 4 21 6 26 -3l23 -44c5 -10 2 -20 -6 -24z" />
    <glyph glyph-name="wcircumflex" unicode="&#x175;" horiz-adv-x="613" 
d="M146 0l-119 377c-6 13 0 23 14 23h54c7 0 16 -5 18 -12l67 -221h1l107 233c2 5 9 10 17 10h6c9 0 15 -5 17 -10l106 -234h1l66 222c5 12 20 12 31 12h39c14 0 21 -10 15 -23l-117 -377c-2 -6 -9 -10 -18 -10h-4c-8 0 -15 4 -17 9l-123 267h-1l-122 -267
c-2 -5 -8 -9 -16 -9h-5c-8 0 -15 4 -17 10zM184 542l-20 27c-5 7 0 15 6 19l125 98c6 5 17 5 24 0l125 -98c6 -4 11 -12 6 -19l-20 -27c-6 -8 -11 -11 -23 -3l-100 65l-100 -65c-12 -7 -17 -5 -23 3z" />
    <glyph glyph-name="wdieresis" unicode="&#x1e85;" horiz-adv-x="613" 
d="M146 0l-119 377c-6 13 0 23 14 23h54c7 0 16 -5 18 -12l67 -221h1l107 233c2 5 9 10 17 10h6c9 0 15 -5 17 -10l106 -234h1l66 222c5 12 20 12 31 12h39c14 0 21 -10 15 -23l-117 -377c-2 -6 -9 -10 -18 -10h-4c-8 0 -15 4 -17 9l-123 267h-1l-122 -267
c-2 -5 -8 -9 -16 -9h-5c-8 0 -15 4 -17 10zM404 567c-31 0 -56 25 -56 56c0 32 25 57 56 57c32 0 57 -25 57 -57c0 -31 -25 -56 -57 -56zM207 567c-31 0 -56 25 -56 56c0 32 25 57 56 57c32 0 57 -25 57 -57c0 -31 -25 -56 -57 -56z" />
    <glyph glyph-name="wgrave" unicode="&#x1e81;" horiz-adv-x="613" 
d="M146 0l-119 377c-6 13 0 23 14 23h54c7 0 16 -5 18 -12l67 -221h1l107 233c2 5 9 10 17 10h6c9 0 15 -5 17 -10l106 -234h1l66 222c5 12 20 12 31 12h39c14 0 21 -10 15 -23l-117 -377c-2 -6 -9 -10 -18 -10h-4c-8 0 -15 4 -17 9l-123 267h-1l-122 -267
c-2 -5 -8 -9 -16 -9h-5c-8 0 -15 4 -17 10zM376 543l-168 72c-8 4 -11 14 -6 24l23 44c5 9 20 7 26 3l157 -91c6 -3 10 -11 6 -19l-14 -29c-4 -8 -10 -11 -24 -4z" />
    <glyph glyph-name="yacute" unicode="&#xfd;" horiz-adv-x="463" 
d="M185 14l-174 360c-6 13 2 26 17 26h66c6 0 14 -5 17 -11l124 -266h1l120 266c4 9 12 11 21 11h57c16 0 24 -13 17 -26l-306 -662c-3 -6 -9 -12 -17 -12h-60c-15 0 -24 13 -17 27zM167 543c-14 -7 -20 -4 -24 4l-14 29c-4 8 0 16 6 19l157 91c6 4 21 6 26 -3l23 -44
c5 -10 2 -20 -6 -24z" />
    <glyph glyph-name="ycircumflex" unicode="&#x177;" horiz-adv-x="463" 
d="M185 14l-174 360c-6 13 2 26 17 26h66c6 0 14 -5 17 -11l124 -266h1l120 266c4 9 12 11 21 11h57c16 0 24 -13 17 -26l-306 -662c-3 -6 -9 -12 -17 -12h-60c-15 0 -24 13 -17 27zM113 542l-20 27c-5 7 0 15 6 19l125 98c6 5 17 5 24 0l125 -98c6 -4 11 -12 6 -19l-20 -27
c-6 -8 -11 -11 -23 -3l-100 65l-100 -65c-12 -7 -17 -5 -23 3z" />
    <glyph glyph-name="ydieresis" unicode="&#xff;" horiz-adv-x="463" 
d="M185 14l-174 360c-6 13 2 26 17 26h66c6 0 14 -5 17 -11l124 -266h1l120 266c4 9 12 11 21 11h57c16 0 24 -13 17 -26l-306 -662c-3 -6 -9 -12 -17 -12h-60c-15 0 -24 13 -17 27zM334 567c-31 0 -56 25 -56 56c0 32 25 57 56 57c32 0 57 -25 57 -57
c0 -31 -25 -56 -57 -56zM137 567c-31 0 -56 25 -56 56c0 32 25 57 56 57c32 0 57 -25 57 -57c0 -31 -25 -56 -57 -56z" />
    <glyph glyph-name="ygrave" unicode="&#x1ef3;" horiz-adv-x="463" 
d="M185 14l-174 360c-6 13 2 26 17 26h66c6 0 14 -5 17 -11l124 -266h1l120 266c4 9 12 11 21 11h57c16 0 24 -13 17 -26l-306 -662c-3 -6 -9 -12 -17 -12h-60c-15 0 -24 13 -17 27zM303 543l-168 72c-8 4 -11 14 -6 24l23 44c5 9 20 7 26 3l157 -91c6 -3 10 -11 6 -19
l-14 -29c-4 -8 -10 -11 -24 -4z" />
    <glyph glyph-name="zacute" unicode="&#x17a;" horiz-adv-x="364" 
d="M32 19v10l170 285v1h-142c-10 0 -18 9 -18 19v47c0 11 8 19 18 19h258c15 0 25 -14 17 -27l-169 -288v-1h132c11 0 19 -8 19 -19v-46c0 -10 -8 -19 -19 -19h-247c-10 0 -19 9 -19 19zM122 543c-14 -7 -20 -4 -24 4l-14 29c-4 8 0 16 6 19l157 91c6 4 21 6 26 -3l23 -44
c5 -10 2 -20 -6 -24z" />
    <glyph glyph-name="zcaron" unicode="&#x17e;" horiz-adv-x="364" 
d="M32 19v10l170 285v1h-142c-10 0 -18 9 -18 19v47c0 11 8 19 18 19h258c15 0 25 -14 17 -27l-169 -288v-1h132c11 0 19 -8 19 -19v-46c0 -10 -8 -19 -19 -19h-247c-10 0 -19 9 -19 19zM183 535l-125 98c-6 4 -11 12 -6 19l20 27c6 8 11 10 23 3l100 -65l100 65
c12 8 17 5 23 -3l20 -27c5 -7 0 -15 -6 -19l-125 -98c-7 -5 -18 -5 -24 0z" />
    <glyph glyph-name="zdotaccent" unicode="&#x17c;" horiz-adv-x="364" 
d="M32 19v10l170 285v1h-142c-10 0 -18 9 -18 19v47c0 11 8 19 18 19h258c15 0 25 -14 17 -27l-169 -288v-1h132c11 0 19 -8 19 -19v-46c0 -10 -8 -19 -19 -19h-247c-10 0 -19 9 -19 19zM190 551c-35 0 -64 29 -64 64c0 36 29 65 64 65c36 0 65 -29 65 -65
c0 -35 -29 -64 -65 -64z" />
    <glyph glyph-name="IJ" unicode="&#x132;" horiz-adv-x="724" 
d="M97 19v662c0 10 9 19 19 19h66c10 0 19 -9 19 -19v-662c0 -10 -9 -19 -19 -19h-66c-10 0 -19 9 -19 19zM295 63c-5 8 -4 18 2 25l36 39c14 12 23 8 32 -2c15 -17 43 -43 82 -43c49 0 101 38 101 126v473c0 10 8 19 19 19h66c11 0 19 -9 19 -19v-472
c0 -139 -88 -219 -205 -219c-87 0 -135 52 -152 73z" />
    <glyph glyph-name="ij" unicode="&#x133;" horiz-adv-x="473" 
d="M111 563c-32 0 -57 26 -57 58c0 33 25 59 57 59c33 0 59 -26 59 -59c0 -32 -26 -58 -59 -58zM65 19v362c0 10 9 19 19 19h57c10 0 19 -9 19 -19v-362c0 -10 -9 -19 -19 -19h-57c-10 0 -19 9 -19 19zM359 563c-32 0 -57 26 -57 58c0 33 25 59 57 59c33 0 59 -26 59 -59
c0 -32 -26 -58 -59 -58zM312 -124v505c0 11 9 19 19 19h58c10 0 19 -8 19 -19v-505c0 -124 -74 -186 -170 -186c-54 0 -96 23 -114 40c-7 5 -8 16 -4 23l25 45c5 9 15 9 25 3c13 -9 42 -25 66 -25c45 0 76 32 76 100z" />
    <glyph glyph-name="grave.cap" horiz-adv-x="302" 
d="M225 774l-168 72c-8 4 -11 14 -6 24l23 44c5 9 20 7 26 3l157 -91c6 -3 10 -11 6 -19l-14 -28c-4 -9 -10 -11 -24 -5z" />
    <glyph glyph-name="acute" unicode="&#xb4;" horiz-adv-x="302" 
d="M97 543c-14 -7 -20 -4 -24 4l-14 29c-4 8 0 16 6 19l157 91c6 4 21 6 26 -3l23 -44c5 -10 2 -20 -6 -24z" />
    <glyph glyph-name="acute.cap" horiz-adv-x="302" 
d="M88 774c-13 -6 -20 -4 -24 5l-14 28c-4 8 1 16 6 19l157 91c6 4 21 6 26 -3l23 -44c6 -10 2 -20 -6 -24z" />
    <glyph glyph-name="circumflex" unicode="&#x2c6;" horiz-adv-x="373" 
d="M61 542l-20 27c-5 7 0 15 6 19l125 98c6 5 17 5 24 0l125 -98c6 -4 11 -12 6 -19l-20 -27c-6 -8 -11 -11 -23 -3l-100 65l-100 -65c-12 -7 -17 -5 -23 3z" />
    <glyph glyph-name="circumflex.cap" horiz-adv-x="373" 
d="M84 769c-12 -7 -17 -5 -23 3l-20 27c-5 7 0 15 6 19l125 98c6 5 17 5 24 0l125 -98c6 -4 11 -12 6 -19l-20 -27c-6 -8 -11 -11 -23 -3l-100 65z" />
    <glyph glyph-name="caron" unicode="&#x2c7;" horiz-adv-x="373" 
d="M172 535l-125 98c-6 4 -11 12 -6 19l20 27c6 8 11 10 23 3l100 -65l100 65c12 8 17 5 23 -3l20 -27c5 -7 0 -15 -6 -19l-125 -98c-7 -5 -18 -5 -24 0z" />
    <glyph glyph-name="caron.cap" horiz-adv-x="373" 
d="M172 768l-125 98c-6 4 -11 12 -6 19l20 27c6 8 11 10 23 3l100 -65l100 65c12 8 17 5 23 -3l20 -27c5 -7 0 -15 -6 -19l-125 -98c-7 -5 -18 -5 -24 0z" />
    <glyph glyph-name="caron.alt" horiz-adv-x="373" 
d="M184 710c34 0 74 -21 74 -98c0 -91 -58 -157 -87 -183c-9 -8 -17 -8 -23 -1l-15 14c-5 6 -4 16 5 24c10 8 64 52 65 124c-3 -1 -11 -3 -22 -3c-33 0 -62 27 -62 61c0 35 29 62 65 62z" />
    <glyph glyph-name="tilde" unicode="&#x2dc;" horiz-adv-x="380" 
d="M67 568l-23 15c-10 6 -9 16 -6 23c9 18 39 84 98 84c58 0 77 -64 109 -64c23 0 31 25 41 40c6 10 13 16 25 9c8 -6 20 -11 26 -19c5 -8 2 -16 -3 -27c-10 -22 -39 -75 -94 -75c-51 0 -78 65 -107 65c-24 0 -37 -28 -43 -41c-5 -11 -10 -17 -23 -10z" />
    <glyph glyph-name="tilde.cap" horiz-adv-x="380" 
d="M67 792l-23 15c-10 6 -9 16 -6 23c9 18 39 84 98 84c58 0 77 -64 109 -64c23 0 31 25 41 40c6 10 13 16 25 9c8 -6 20 -11 26 -19c5 -8 2 -16 -3 -27c-10 -22 -39 -75 -94 -75c-51 0 -78 65 -107 65c-24 0 -37 -28 -43 -41c-5 -11 -10 -17 -23 -10z" />
    <glyph glyph-name="dieresis" unicode="&#xa8;" horiz-adv-x="414" 
d="M316 567c-31 0 -56 25 -56 56c0 32 25 57 56 57c32 0 57 -25 57 -57c0 -31 -25 -56 -57 -56zM119 567c-31 0 -56 25 -56 56c0 32 25 57 56 57c32 0 57 -25 57 -57c0 -31 -25 -56 -57 -56z" />
    <glyph glyph-name="dieresis.cap" horiz-adv-x="474" 
d="M351 782c-31 0 -56 26 -56 57s25 56 56 56s57 -25 57 -56s-26 -57 -57 -57zM122 782c-31 0 -56 26 -56 57s25 56 56 56s57 -25 57 -56s-26 -57 -57 -57z" />
    <glyph glyph-name="macron" unicode="&#xaf;" horiz-adv-x="414" 
d="M79 576c-11 0 -19 8 -19 18v28c0 11 8 19 19 19h256c11 0 19 -8 19 -19v-28c0 -10 -8 -18 -19 -18h-256z" />
    <glyph glyph-name="macron.cap" horiz-adv-x="414" 
d="M79 814c-11 0 -19 8 -19 18v28c0 11 8 19 19 19h256c11 0 19 -8 19 -19v-28c0 -10 -8 -18 -19 -18h-256z" />
    <glyph glyph-name="uni02C9" unicode="&#x2c9;" horiz-adv-x="414" 
d="M79 576c-11 0 -19 8 -19 18v28c0 11 8 19 19 19h256c11 0 19 -8 19 -19v-28c0 -10 -8 -18 -19 -18h-256z" />
    <glyph glyph-name="breve" unicode="&#x2d8;" horiz-adv-x="346" 
d="M173 529c-72 0 -128 50 -138 116c-2 12 4 21 16 21h29c10 0 16 -7 18 -15c11 -35 38 -59 75 -59c33 0 62 27 72 59c3 9 10 15 18 15h31c12 0 18 -9 16 -21c-11 -66 -67 -116 -137 -116z" />
    <glyph glyph-name="breve.cap" horiz-adv-x="346" 
d="M173 768c-72 0 -128 50 -138 116c-2 11 4 21 16 21h29c10 0 16 -8 18 -16c11 -34 38 -58 75 -58c33 0 62 27 72 58c3 10 10 16 18 16h31c12 0 18 -10 16 -21c-11 -66 -67 -116 -137 -116z" />
    <glyph glyph-name="ring" unicode="&#x2da;" horiz-adv-x="290" 
d="M145 488c-62 0 -111 49 -111 111s49 111 111 111c61 0 111 -49 111 -111s-50 -111 -111 -111zM145 543c29 0 53 27 53 56s-24 53 -53 53c-33 0 -56 -24 -56 -53s23 -56 56 -56z" />
    <glyph glyph-name="ring.cap" horiz-adv-x="290" 
d="M145 756c-62 0 -111 49 -111 111s49 111 111 111c61 0 111 -49 111 -111s-50 -111 -111 -111zM145 811c29 0 53 27 53 56s-24 53 -53 53c-31 0 -56 -24 -56 -53s24 -56 56 -56z" />
    <glyph glyph-name="hungarumlaut" unicode="&#x2dd;" horiz-adv-x="392" 
d="M232 521c-16 0 -22 9 -19 19l44 141c3 10 9 19 19 19h57c19 0 25 -13 18 -25l-78 -139c-4 -8 -11 -15 -18 -15h-23zM66 521c-15 0 -22 9 -19 19l44 141c3 10 9 19 19 19h57c19 0 25 -12 18 -25l-78 -139c-4 -8 -11 -15 -18 -15h-23z" />
    <glyph glyph-name="hungarumlaut.cap" horiz-adv-x="392" 
d="M226 768c-16 0 -22 9 -19 19l43 141c3 10 9 19 19 19h57c19 0 26 -12 18 -25l-78 -139c-4 -7 -11 -15 -18 -15h-22zM60 768c-14 0 -22 9 -19 19l43 141c3 10 9 19 19 19h57c19 0 25 -12 18 -25l-78 -139c-4 -8 -11 -15 -18 -15h-22z" />
    <glyph glyph-name="dotaccent" unicode="&#x2d9;" horiz-adv-x="219" 
d="M108 551c-35 0 -64 29 -64 64c0 36 29 65 64 65c36 0 65 -29 65 -65c0 -35 -29 -64 -65 -64z" />
    <glyph glyph-name="dotaccent.cap" horiz-adv-x="219" 
d="M108 788c-35 0 -64 29 -64 65s29 64 64 64c36 0 65 -28 65 -64s-29 -65 -65 -65z" />
    <glyph glyph-name="cedilla" unicode="&#xb8;" horiz-adv-x="247" 
d="M54 0h60v-53c61 -8 101 -46 101 -103c0 -58 -46 -104 -105 -104c-30 0 -59 15 -76 35c-8 9 -7 20 1 27l17 14c7 5 17 5 22 -1c10 -11 25 -15 36 -15c23 0 39 19 39 42c0 35 -35 51 -78 56c-15 3 -17 14 -17 19v83z" />
    <glyph glyph-name="cedilla.cap" horiz-adv-x="247" 
d="M54 0h60v-53c61 -8 101 -46 101 -103c0 -58 -46 -104 -105 -104c-30 0 -59 15 -76 35c-8 9 -7 20 1 27l17 14c7 5 17 5 22 -1c10 -11 25 -15 36 -15c23 0 39 19 39 42c0 35 -35 51 -78 56c-15 3 -17 14 -17 19v83z" />
    <glyph glyph-name="ogonek" unicode="&#x2db;" horiz-adv-x="276" 
d="M109 12h58s-61 -46 -61 -110c0 -34 25 -60 62 -60c22 0 38 7 50 12c10 4 19 -3 19 -15v-28c0 -9 -7 -14 -14 -18c-7 -3 -36 -12 -68 -12c-62 0 -116 33 -116 106c0 78 70 125 70 125z" />
    <glyph glyph-name="ogonek.cap" horiz-adv-x="276" 
d="M109 12h58s-61 -46 -61 -110c0 -34 25 -60 62 -60c22 0 38 7 50 12c10 4 19 -3 19 -15v-28c0 -9 -7 -14 -14 -18c-7 -3 -36 -12 -68 -12c-62 0 -116 33 -116 106c0 78 70 125 70 125z" />
    <glyph glyph-name="commaaccent" horiz-adv-x="292" 
d="M142 -92c34 0 74 -21 74 -98c0 -91 -58 -157 -87 -183c-9 -8 -17 -8 -23 -1l-15 14c-5 6 -4 16 5 24c10 8 64 52 65 124c-3 -1 -11 -3 -22 -3c-33 0 -62 27 -62 61c0 35 29 62 65 62z" />
    <glyph glyph-name="commaaccent.alt" horiz-adv-x="292" 
d="M142 -92c34 0 74 -21 74 -98c0 -91 -58 -157 -87 -183c-9 -8 -17 -8 -23 -1l-15 14c-5 6 -4 16 5 24c10 8 64 52 65 124c-3 -1 -11 -3 -22 -3c-33 0 -62 27 -62 61c0 35 29 62 65 62z" />
    <glyph glyph-name="commaaccent.cap" horiz-adv-x="292" 
d="M142 -92c34 0 74 -21 74 -98c0 -91 -58 -157 -87 -183c-9 -8 -17 -8 -23 -1l-15 14c-5 6 -4 16 5 24c10 8 64 52 65 124c-3 -1 -11 -3 -22 -3c-33 0 -62 27 -62 61c0 35 29 62 65 62z" />
    <glyph glyph-name="ellipsis" unicode="&#x2026;" horiz-adv-x="646" 
d="M463 54c0 36 29 65 65 65s64 -29 64 -65c0 -35 -28 -64 -64 -64s-65 29 -65 64zM258 54c0 36 29 65 64 65c36 0 65 -29 65 -65c0 -35 -29 -64 -65 -64c-35 0 -64 29 -64 64zM53 54c0 36 29 65 64 65c36 0 65 -29 65 -65c0 -35 -29 -64 -65 -64c-35 0 -64 29 -64 64z" />
    <glyph glyph-name="uni00AD" unicode="&#xad;" horiz-adv-x="347" 
d="M65 206c-11 0 -19 8 -19 18v43c0 11 8 19 19 19h216c11 0 19 -8 19 -19v-43c0 -10 -8 -18 -19 -18h-216z" />
    <glyph glyph-name="exclamdown" unicode="&#xa1;" horiz-adv-x="229" 
d="M115 271c-39 0 -70 31 -70 70c0 38 31 69 70 69c37 0 69 -31 69 -69c0 -39 -32 -70 -69 -70zM84 112c1 8 10 16 19 16h22c9 0 18 -8 19 -16l29 -279v-114c0 -10 -9 -19 -19 -19h-80c-10 0 -19 9 -19 19v112z" />
    <glyph glyph-name="questiondown" unicode="&#xbf;" horiz-adv-x="251" 
d="M134 271c-39 0 -70 31 -70 70c0 38 31 69 70 69c38 0 69 -31 69 -69c0 -39 -31 -70 -69 -70zM85 71v37c0 13 9 20 21 20h54c10 0 19 -8 19 -19v-42c0 -109 -145 -122 -145 -214c0 -41 32 -77 90 -77c71 0 103 43 123 60c8 7 16 7 24 0l33 -32c8 -7 6 -18 0 -26
c0 0 -63 -88 -190 -88c-104 0 -184 66 -184 161c0 126 155 149 155 220z" />
    <glyph glyph-name="quoteleft" unicode="&#x2018;" horiz-adv-x="201" 
d="M105 420c-34 0 -74 22 -74 99c0 90 58 157 87 183c9 8 17 8 23 1l15 -15c5 -6 4 -15 -5 -23c-10 -9 -64 -53 -65 -124c3 1 11 3 22 3c33 0 62 -28 62 -62s-29 -62 -65 -62z" />
    <glyph glyph-name="quoteright" unicode="&#x2019;" horiz-adv-x="198" 
d="M60 428l-14 14c-6 6 -4 16 4 24c10 8 65 52 65 124c-2 -1 -11 -3 -21 -3c-34 0 -62 27 -62 61c0 35 28 62 64 62c34 0 75 -21 75 -98c0 -91 -58 -157 -87 -183c-9 -8 -17 -8 -24 -1z" />
    <glyph glyph-name="quotedblleft" unicode="&#x201c;" horiz-adv-x="387" 
d="M292 422c-34 0 -75 22 -75 99c0 90 58 156 87 183c9 7 17 7 24 0l14 -14c6 -6 4 -16 -4 -23c-11 -9 -65 -53 -65 -124c2 0 11 3 21 3c34 0 62 -28 62 -62s-28 -62 -64 -62zM105 422c-34 0 -74 22 -74 99c0 90 58 156 87 183c9 7 17 7 23 0l15 -14c5 -6 4 -16 -5 -23
c-10 -9 -64 -53 -65 -124c3 0 11 3 22 3c33 0 62 -28 62 -62s-29 -62 -65 -62z" />
    <glyph glyph-name="quotedblright" unicode="&#x201d;" horiz-adv-x="384" 
d="M247 428l-15 14c-5 6 -4 16 5 24c10 8 64 52 65 124c-3 -1 -11 -3 -22 -3c-33 0 -62 27 -62 61c0 35 29 62 65 62c34 0 74 -21 74 -98c0 -91 -58 -157 -87 -183c-9 -8 -17 -8 -23 -1zM60 428l-14 14c-6 6 -4 16 4 24c10 8 65 52 65 124c-2 -1 -11 -3 -21 -3
c-34 0 -62 27 -62 61c0 35 28 62 64 62c34 0 75 -21 75 -98c0 -91 -58 -157 -87 -183c-9 -8 -17 -8 -24 -1z" />
    <glyph glyph-name="quotesinglbase" unicode="&#x201a;" horiz-adv-x="230" 
d="M46 52c0 34 29 62 65 62c34 0 74 -22 74 -99c0 -90 -58 -156 -87 -183c-9 -7 -17 -7 -23 0l-15 14c-5 6 -4 16 5 23c10 8 64 53 65 124c-3 0 -11 -3 -22 -3c-33 0 -62 28 -62 62z" />
    <glyph glyph-name="quotedblbase" unicode="&#x201e;" horiz-adv-x="416" 
d="M232 52c0 34 29 62 65 62c34 0 74 -22 74 -99c0 -90 -58 -156 -87 -183c-9 -7 -17 -7 -23 0l-15 14c-5 6 -4 16 5 23c10 8 64 53 65 124c-3 0 -11 -3 -22 -3c-33 0 -62 28 -62 62zM46 52c0 34 28 62 64 62c34 0 75 -22 75 -99c0 -90 -58 -156 -87 -183
c-9 -7 -17 -7 -24 0l-14 14c-6 6 -4 16 4 23c10 8 65 53 65 124c-2 0 -11 -3 -21 -3c-34 0 -62 28 -62 62z" />
    <glyph glyph-name="guilsinglleft" unicode="&#x2039;" horiz-adv-x="262" 
d="M139 39l-104 155c-6 8 -4 18 0 24l109 148c3 5 10 12 18 12h35c17 0 23 -15 15 -31l-71 -139l68 -147c7 -16 2 -30 -15 -30h-40c-8 0 -12 4 -15 8z" />
    <glyph glyph-name="guilsinglright" unicode="&#x203a;" horiz-adv-x="262" 
d="M67 31c-17 0 -22 14 -15 30l68 147l-71 139c-8 16 -2 31 15 31h35c8 0 15 -7 18 -12l109 -148c4 -6 6 -16 0 -24l-104 -155c-3 -4 -7 -8 -15 -8h-40z" />
    <glyph glyph-name="guillemotleft" unicode="&#xab;" horiz-adv-x="443" 
d="M216 194c-6 8 -4 18 0 24l109 148c3 5 10 12 18 12h35c17 0 23 -15 15 -31l-71 -139l68 -147c7 -16 2 -30 -15 -30h-40c-8 0 -12 4 -15 8zM139 39l-104 155c-6 8 -4 18 0 24l109 148c3 5 10 12 18 12h35c17 0 23 -15 15 -31l-71 -139l68 -147c7 -16 2 -30 -15 -30h-40
c-8 0 -12 4 -15 8z" />
    <glyph glyph-name="guillemotright" unicode="&#xbb;" horiz-adv-x="443" 
d="M233 61l68 147l-71 139c-8 16 -2 31 15 31h35c8 0 15 -7 18 -12l109 -148c4 -6 6 -16 0 -24l-104 -155c-3 -4 -7 -8 -15 -8h-40c-17 0 -22 14 -15 30zM67 31c-17 0 -22 14 -15 30l68 147l-71 139c-8 16 -2 31 15 31h35c8 0 15 -7 18 -12l109 -148c4 -6 6 -16 0 -24
l-104 -155c-3 -4 -7 -8 -15 -8h-40z" />
    <glyph glyph-name="endash" unicode="&#x2013;" horiz-adv-x="552" 
d="M85 276c-11 0 -19 8 -19 18v24c0 11 8 19 19 19h382c11 0 19 -8 19 -19v-24c0 -10 -8 -18 -19 -18h-382z" />
    <glyph glyph-name="emdash" unicode="&#x2014;" horiz-adv-x="772" 
d="M85 276c-11 0 -19 8 -19 18v24c0 11 8 19 19 19h602c11 0 19 -8 19 -19v-24c0 -10 -8 -18 -19 -18h-602z" />
    <glyph glyph-name="bullet" unicode="&#x2022;" horiz-adv-x="371" 
d="M183 167c-63 0 -117 53 -117 117c0 66 54 121 117 121c67 0 121 -55 121 -121c0 -64 -54 -117 -121 -117z" />
    <glyph glyph-name="periodcentered" unicode="&#xb7;" horiz-adv-x="237" 
d="M118 245c-40 0 -73 34 -73 73c0 42 33 75 73 75c41 0 74 -33 74 -75c0 -39 -33 -73 -74 -73z" />
    <glyph glyph-name="uni2219" unicode="&#x2219;" horiz-adv-x="371" 
d="M185 245c-40 0 -73 34 -73 73c0 42 33 75 73 75c41 0 74 -33 74 -75c0 -39 -33 -73 -74 -73z" />
    <glyph glyph-name="dagger" unicode="&#x2020;" horiz-adv-x="618" 
d="M69 310c-10 0 -19 9 -19 19v52c0 10 9 19 19 19h182v281c0 10 9 19 19 19h73c10 0 19 -9 19 -19v-281h188c10 0 18 -9 18 -19v-52c0 -10 -8 -19 -18 -19h-192l-25 -594c0 -8 -10 -16 -19 -16h-15c-9 0 -19 8 -19 16l-24 594h-187z" />
    <glyph glyph-name="daggerdbl" unicode="&#x2021;" horiz-adv-x="618" 
d="M80 19v52c0 10 9 19 19 19h164l-12 308v1h-182c-10 0 -19 9 -19 19v52c0 10 9 19 19 19h182v192c0 10 9 19 19 19h73c10 0 19 -9 19 -19v-192h188c10 0 18 -9 18 -19v-52c0 -10 -8 -19 -18 -19h-188l-12 -309h170c10 0 18 -9 18 -19v-52c0 -10 -8 -19 -18 -19h-175
l-12 -284c0 -8 -10 -16 -19 -16h-15c-9 0 -19 8 -19 16l-12 284h-169c-10 0 -19 9 -19 19z" />
    <glyph glyph-name="section" unicode="&#xa7;" horiz-adv-x="518" 
d="M68 -99c8 11 20 16 33 5c6 -4 80 -67 156 -67c51 0 105 26 109 78c4 61 -47 102 -147 144c-98 41 -178 101 -178 199c0 75 61 119 76 132c-13 12 -76 61 -76 143c0 77 63 175 214 175c98 0 172 -51 181 -58c7 -4 16 -17 7 -32l-28 -41c-8 -12 -18 -15 -33 -5
c-10 6 -73 48 -130 48c-79 0 -112 -46 -112 -82c0 -50 44 -86 124 -118c115 -47 212 -98 212 -206c0 -74 -65 -126 -79 -139c13 -11 79 -63 79 -149c0 -101 -96 -178 -218 -178c-120 0 -195 64 -210 78c-9 8 -18 17 -5 34zM138 266c0 -71 73 -92 180 -144c0 0 52 27 52 89
c0 56 -55 85 -155 127c-9 4 -20 8 -29 11c-3 -3 -48 -27 -48 -83z" />
    <glyph glyph-name="paragraph" unicode="&#xb6;" horiz-adv-x="699" 
d="M229 281c-113 0 -208 92 -208 210c0 114 85 209 194 209l449 -1c10 0 19 -9 19 -19v-33c0 -11 -9 -19 -19 -19h-94v-909c0 -10 -8 -19 -19 -19h-38c-10 0 -19 9 -19 19v909h-146v-909c0 -10 -9 -19 -19 -19h-37c-10 0 -19 9 -19 19v562h-44z" />
    <glyph glyph-name="brokenbar.case" horiz-adv-x="333" 
d="M162 512c-10 0 -19 8 -19 18v331c0 11 9 19 19 19h10c10 0 18 -8 18 -19v-331c0 -10 -9 -18 -19 -18h-9zM143 169c0 11 9 19 19 19h10c10 0 18 -8 18 -19v-331c0 -10 -9 -18 -19 -18h-9c-10 0 -19 8 -19 18v331z" />
    <glyph glyph-name="copyright" unicode="&#xa9;" horiz-adv-x="812" 
d="M47 350c0 198 161 360 359 360s360 -162 360 -360s-162 -359 -360 -359s-359 161 -359 359zM116 350c0 -160 130 -290 290 -290c161 0 290 130 290 290c0 161 -129 290 -290 290c-160 0 -290 -129 -290 -290zM228 348c0 105 84 188 187 188c40 0 82 -12 115 -38
c9 -8 10 -20 2 -29l-26 -28c-7 -10 -18 -7 -26 -2c-20 14 -42 20 -64 20c-61 0 -105 -50 -105 -108c0 -61 44 -108 105 -108c22 0 43 6 62 19c10 6 20 7 27 -2l28 -29c7 -8 7 -20 -1 -28c-35 -30 -74 -42 -117 -42c-103 0 -187 84 -187 187z" />
    <glyph glyph-name="registered" unicode="&#xae;" horiz-adv-x="814" 
d="M47 350c0 198 161 360 359 360s360 -162 360 -360s-162 -359 -360 -359s-359 161 -359 359zM116 350c0 -160 130 -290 290 -290c161 0 290 130 290 290c0 161 -129 290 -290 290c-160 0 -290 -129 -290 -290zM277 187v328c0 10 8 19 19 19h148c62 0 123 -42 123 -118
c0 -71 -46 -99 -76 -110c18 -37 36 -75 53 -111c7 -13 -3 -27 -17 -27h-45c-8 0 -15 7 -18 14l-50 118h-62v-113c0 -10 -8 -19 -19 -19h-37c-11 0 -19 9 -19 19zM350 366h89c30 0 50 22 50 49c0 29 -20 49 -50 49h-89v-98z" />
    <glyph glyph-name="trademark" unicode="&#x2122;" horiz-adv-x="721" 
d="M334 391c-13 0 -21 11 -19 23l52 276c2 8 10 15 19 15h4c6 0 15 -6 17 -11l84 -199l86 199c2 5 11 11 17 11h4c8 0 17 -7 19 -15l53 -277c2 -12 -7 -22 -19 -22h-26c-9 0 -17 8 -19 17l-28 145l-68 -156c-2 -5 -10 -9 -16 -9h-6c-5 0 -14 4 -17 10l-65 155l-30 -146
c-1 -8 -11 -16 -19 -16h-23zM151 391c-11 0 -19 9 -19 19v228h-67c-10 0 -19 8 -19 19v24c0 10 9 19 19 19h198c11 0 19 -9 19 -19v-24c0 -11 -8 -19 -19 -19h-67v-228c0 -10 -9 -19 -19 -19h-26z" />
    <glyph glyph-name="currency" unicode="&#xa4;" horiz-adv-x="464" 
d="M98 168l-30 30c-7 7 -7 20 0 27l45 44c-21 40 -21 86 0 125l-44 45c-7 7 -7 20 0 27l30 29c7 7 20 7 27 0l44 -44c38 21 86 22 125 0l44 45c7 7 19 6 27 -1l29 -30c7 -7 8 -19 1 -26l-44 -44c21 -39 21 -87 0 -127l44 -44c7 -7 7 -19 0 -26l-30 -30c-7 -7 -19 -8 -26 -1
l-45 45c-39 -21 -87 -21 -126 1l-44 -45c-7 -7 -20 -7 -27 0zM233 269c35 0 63 28 63 63s-28 63 -63 63s-63 -28 -63 -63s28 -63 63 -63z" />
    <glyph glyph-name="Euro" unicode="&#x20ac;" horiz-adv-x="724" 
d="M38 251c-10 0 -18 9 -18 19v10c0 10 8 19 18 19h39c-2 16 -3 32 -3 50c0 7 0 15 1 22h-37c-10 0 -18 9 -18 19v10c0 10 8 19 18 19h43c32 166 178 291 354 291c101 0 174 -34 242 -93c9 -8 9 -20 1 -28l-42 -43c-8 -9 -20 -9 -30 0c-46 43 -108 65 -170 65
c-119 0 -214 -83 -242 -192h257c11 0 19 -9 19 -19v-11c0 -10 -8 -18 -19 -18h-265c-1 -7 -1 -13 -1 -20c0 -18 1 -35 5 -52h221c11 0 19 -9 19 -19v-11c0 -10 -8 -18 -19 -18h-206c36 -92 124 -159 232 -159c72 0 124 29 172 66c9 7 18 6 24 1l46 -45c8 -7 6 -20 -1 -27
c-68 -66 -154 -97 -243 -97c-166 0 -305 109 -347 261h-50z" />
    <glyph glyph-name="cent" unicode="&#xa2;" horiz-adv-x="419" 
d="M152 6c-75 30 -129 103 -129 193c0 118 99 211 210 211c9 0 19 -1 28 -2l11 41c3 10 13 16 23 13l10 -3c10 -2 16 -12 13 -23l-11 -41c27 -12 50 -31 71 -56c7 -9 5 -21 -4 -28l-33 -30c-12 -11 -19 -3 -27 4c-8 9 -19 17 -31 23l-62 -231h12c51 0 72 25 93 45
c9 9 18 9 27 2l27 -22c10 -8 14 -18 7 -28c-32 -51 -86 -84 -155 -84c-12 0 -23 1 -34 3l-26 -97c-2 -10 -13 -15 -23 -13l-9 3c-10 2 -16 12 -14 22zM176 92l61 229h-3c-65 0 -116 -53 -116 -121c0 -47 23 -87 58 -108z" />
    <glyph glyph-name="sterling" unicode="&#xa3;" horiz-adv-x="494" 
d="M74 19v18c50 94 52 180 38 255h-44c-10 0 -18 9 -18 19v10c0 10 8 19 18 19h32c-8 35 -31 95 -31 161c0 130 93 209 210 209c86 0 144 -49 169 -71c8 -6 9 -18 2 -26l-35 -43c-9 -12 -20 -10 -28 -2c0 0 -54 52 -109 52c-62 0 -112 -46 -112 -117c0 -63 29 -126 36 -163
h140c11 0 19 -9 19 -19v-11c0 -10 -8 -18 -19 -18h-130c8 -50 7 -140 -18 -205h223c10 0 18 -8 18 -19v-49c0 -10 -8 -19 -18 -19h-324c-10 0 -19 9 -19 19z" />
    <glyph glyph-name="florin" unicode="&#x192;" horiz-adv-x="346" 
d="M106 -124v442h-68c-11 0 -19 9 -19 19v44c0 11 8 19 19 19h68v124c0 123 77 186 173 186c56 0 93 -25 111 -40c6 -6 8 -17 4 -24l-27 -44c-6 -9 -16 -9 -25 -3c-9 7 -40 23 -63 23c-41 0 -76 -29 -76 -98v-124h108c11 0 19 -8 19 -19v-44c0 -10 -8 -19 -19 -19h-108v-443
c0 -123 -77 -185 -173 -185c-56 0 -93 24 -111 40c-6 6 -8 16 -4 23l27 44c6 9 16 10 25 3s40 -23 63 -23c41 0 76 29 76 99z" />
    <glyph glyph-name="yen" unicode="&#xa5;" horiz-adv-x="624" 
d="M138 121c-10 0 -18 9 -18 19v10c0 10 8 19 18 19h121v72h-121c-10 0 -18 9 -18 19v10c0 10 8 19 18 19h121v48l-235 334c-8 13 0 29 16 29h75c7 0 13 -5 16 -9l181 -255l181 255c3 4 8 9 16 9h75c16 0 24 -16 16 -29l-238 -333v-49h119c11 0 19 -9 19 -19v-11
c0 -10 -8 -18 -19 -18h-119v-72h119c11 0 19 -9 19 -19v-11c0 -10 -8 -18 -19 -18h-119v-102c0 -10 -9 -19 -19 -19h-65c-11 0 -19 9 -19 19v102h-121z" />
    <glyph glyph-name="ordfeminine" unicode="&#xaa;" horiz-adv-x="311" 
d="M122 401c-54 0 -94 39 -94 99c0 54 42 95 117 95c31 0 57 -9 57 -9c0 46 -6 66 -44 66c-34 0 -66 -11 -82 -15c-8 -2 -14 3 -16 13l-5 25c-2 9 1 14 8 17c5 3 48 18 102 18c91 0 102 -56 102 -131v-156c0 -8 -7 -14 -14 -14h-22c-7 0 -10 3 -13 10c-2 7 -5 14 -7 21
c-17 -16 -42 -39 -89 -39zM135 456c29 0 56 20 65 37v44c-8 6 -30 12 -53 12c-31 0 -56 -20 -56 -48c0 -25 18 -45 44 -45z" />
    <glyph glyph-name="ordmasculine" unicode="&#xba;" horiz-adv-x="314" 
d="M157 395c-81 0 -126 59 -126 157c0 99 45 158 126 158s126 -59 126 -158c0 -98 -45 -157 -126 -157zM157 456c35 0 56 34 56 96s-21 97 -56 97s-55 -35 -55 -97s20 -96 55 -96z" />
    <glyph glyph-name="onesuperior" unicode="&#xb9;" horiz-adv-x="193" 
d="M86 504c-6 0 -10 4 -10 9v201l-45 -7c-5 -1 -9 1 -9 6l-4 24c0 5 1 7 5 11l72 52h40c5 0 9 -4 9 -9v-278c0 -5 -4 -9 -9 -9h-49z" />
    <glyph glyph-name="twosuperior" unicode="&#xb2;" horiz-adv-x="292" 
d="M46 504c-6 0 -10 2 -10 9v15l118 130c19 20 29 37 29 53c0 20 -16 41 -49 41c-20 0 -41 -13 -53 -25c-5 -5 -10 -3 -14 1l-21 26c-4 6 -6 11 2 16c3 3 40 40 95 40c68 0 107 -39 107 -91c0 -31 -17 -59 -43 -88l-67 -73h100c6 0 9 -4 9 -10v-35c0 -5 -2 -9 -9 -9h-194z
" />
    <glyph glyph-name="threesuperior" unicode="&#xb3;" horiz-adv-x="279" 
d="M132 494c-60 0 -89 27 -99 37c-5 4 -5 9 0 14l21 25c5 5 10 4 15 0c2 -1 27 -21 57 -21c28 0 51 15 51 38c0 22 -19 41 -60 41h-30c-8 0 -13 3 -13 11v28c0 8 5 12 13 12h30c35 0 53 16 53 37c0 23 -21 38 -46 38c-22 0 -38 -11 -48 -20c-4 -3 -8 -5 -14 1l-22 24
c-4 4 -5 11 1 15c0 0 35 36 91 36c61 0 106 -32 106 -83c0 -35 -28 -61 -51 -70v-2c23 -9 60 -34 60 -75c0 -52 -49 -86 -115 -86z" />
    <glyph glyph-name="fraction" unicode="&#x2044;" horiz-adv-x="136" 
d="M-62 10c-2 -4 -12 -10 -17 -10h-31c-15 0 -24 14 -17 27l343 663c4 6 12 10 17 10h33c15 0 24 -14 17 -27z" />
    <glyph glyph-name="uni2215" unicode="&#x2215;" horiz-adv-x="136" 
d="M-62 10c-2 -4 -12 -10 -17 -10h-31c-15 0 -24 14 -17 27l343 663c4 6 12 10 17 10h33c15 0 24 -14 17 -27z" />
    <glyph glyph-name="onehalf" unicode="&#xbd;" horiz-adv-x="643" 
d="M88 27l343 663c4 6 12 10 17 10h33c15 0 24 -14 17 -27l-345 -663c-2 -4 -12 -10 -17 -10h-31c-15 0 -24 14 -17 27zM96 404c-6 0 -10 4 -10 9v201l-45 -7c-5 -1 -9 1 -9 6l-4 24c0 5 1 7 5 11l72 52h40c5 0 9 -4 9 -9v-278c0 -5 -4 -9 -9 -9h-49zM368 9v15l118 130
c19 20 29 37 29 53c0 20 -16 41 -49 41c-20 0 -41 -13 -53 -25c-5 -5 -10 -3 -14 1l-21 26c-4 6 -6 11 2 16c3 3 40 40 95 40c68 0 107 -39 107 -91c0 -31 -17 -59 -43 -88l-67 -73h100c6 0 9 -4 9 -10v-35c0 -5 -2 -9 -9 -9h-194c-6 0 -10 2 -10 9z" />
    <glyph glyph-name="onethird" unicode="&#x2153;" horiz-adv-x="654" 
d="M110 27l343 663c4 6 12 10 17 10h33c15 0 24 -14 17 -27l-345 -663c-2 -4 -12 -10 -17 -10h-31c-15 0 -24 14 -17 27zM118 404c-6 0 -10 4 -10 9v201l-45 -7c-5 -1 -9 1 -9 6l-4 24c0 5 1 7 5 11l72 52h40c5 0 9 -4 9 -9v-278c0 -5 -4 -9 -9 -9h-49zM396 27
c-5 4 -5 9 0 14l21 25c5 5 10 4 15 0c2 -1 27 -21 57 -21c28 0 51 15 51 38c0 22 -19 41 -60 41h-30c-8 0 -13 3 -13 11v28c0 8 5 12 13 12h30c35 0 53 16 53 37c0 23 -21 38 -46 38c-22 0 -38 -11 -48 -20c-4 -3 -8 -5 -14 1l-22 24c-4 4 -5 11 1 15c0 0 35 36 91 36
c61 0 106 -32 106 -83c0 -35 -28 -61 -51 -70v-2c23 -9 60 -34 60 -75c0 -52 -49 -86 -115 -86c-60 0 -89 27 -99 37z" />
    <glyph glyph-name="onequarter" unicode="&#xbc;" horiz-adv-x="648" 
d="M88 27l343 663c4 6 12 10 17 10h33c15 0 24 -14 17 -27l-345 -663c-2 -4 -12 -10 -17 -10h-31c-15 0 -24 14 -17 27zM96 404c-6 0 -10 4 -10 9v201l-45 -7c-5 -1 -9 1 -9 6l-4 24c0 5 1 7 5 11l72 52h40c5 0 9 -4 9 -9v-278c0 -5 -4 -9 -9 -9h-49zM333 66v40l167 187
c2 2 6 3 8 3h31c5 0 10 -4 10 -9v-178h40c5 0 9 -4 9 -8v-34c0 -5 -4 -9 -9 -9h-40v-49c0 -5 -5 -9 -10 -9h-44c-5 0 -10 4 -10 9v49h-143c-5 0 -9 4 -9 8zM397 109h90v101z" />
    <glyph glyph-name="oneeighth" unicode="&#x215b;" horiz-adv-x="670" 
d="M110 27l343 663c4 6 12 10 17 10h33c15 0 24 -14 17 -27l-345 -663c-2 -4 -12 -10 -17 -10h-31c-15 0 -24 14 -17 27zM118 404c-6 0 -10 4 -10 9v201l-45 -7c-5 -1 -9 1 -9 6l-4 24c0 5 1 7 5 11l72 52h40c5 0 9 -4 9 -9v-278c0 -5 -4 -9 -9 -9h-49zM401 76
c0 43 46 71 58 76v1c-20 9 -50 33 -50 70c0 50 47 83 107 83s108 -33 108 -83c0 -36 -31 -61 -51 -70v-1c23 -9 59 -34 59 -76c0 -49 -45 -86 -117 -86c-69 0 -114 37 -114 86zM477 217c0 -19 13 -33 39 -37c26 4 40 19 40 37c0 19 -18 35 -41 35c-21 0 -38 -16 -38 -35z
M471 80c0 -22 22 -36 45 -36c25 0 46 14 46 36c0 19 -16 38 -46 42c-28 -4 -45 -23 -45 -42z" />
    <glyph glyph-name="twothirds" unicode="&#x2154;" horiz-adv-x="654" 
d="M14 404c-6 0 -10 2 -10 9v15l118 130c19 20 29 37 29 53c0 20 -16 41 -49 41c-20 0 -41 -13 -53 -25c-5 -5 -10 -3 -14 1l-21 26c-4 6 -6 11 2 16c3 3 40 40 95 40c68 0 107 -39 107 -91c0 -31 -17 -59 -43 -88l-67 -73h100c6 0 9 -4 9 -10v-35c0 -5 -2 -9 -9 -9h-194z
M110 27l343 663c4 6 12 10 17 10h33c15 0 24 -14 17 -27l-345 -663c-2 -4 -12 -10 -17 -10h-31c-15 0 -24 14 -17 27zM396 27c-5 4 -5 9 0 14l21 25c5 5 10 4 15 0c2 -1 27 -21 57 -21c28 0 51 15 51 38c0 22 -19 41 -60 41h-30c-8 0 -13 3 -13 11v28c0 8 5 12 13 12h30
c35 0 53 16 53 37c0 23 -21 38 -46 38c-22 0 -38 -11 -48 -20c-4 -3 -8 -5 -14 1l-22 24c-4 4 -5 11 1 15c0 0 35 36 91 36c61 0 106 -32 106 -83c0 -35 -28 -61 -51 -70v-2c23 -9 60 -34 60 -75c0 -52 -49 -86 -115 -86c-60 0 -89 27 -99 37z" />
    <glyph glyph-name="threequarters" unicode="&#xbe;" horiz-adv-x="689" 
d="M137 394c-60 0 -89 27 -99 37c-5 4 -5 9 0 14l21 25c5 5 10 4 15 0c2 -1 27 -21 57 -21c28 0 51 15 51 38c0 22 -19 41 -60 41h-30c-8 0 -13 3 -13 11v28c0 8 5 12 13 12h30c35 0 53 16 53 37c0 23 -21 38 -46 38c-22 0 -38 -11 -48 -20c-4 -3 -8 -5 -14 1l-22 24
c-4 4 -5 11 1 15c0 0 35 36 91 36c61 0 106 -32 106 -83c0 -35 -28 -61 -51 -70v-2c23 -9 60 -34 60 -75c0 -52 -49 -86 -115 -86zM129 27l343 663c4 6 12 10 17 10h33c15 0 24 -14 17 -27l-345 -663c-2 -4 -12 -10 -17 -10h-31c-15 0 -24 14 -17 27zM374 66v40l167 187
c2 2 6 3 8 3h31c5 0 10 -4 10 -9v-178h40c5 0 9 -4 9 -8v-34c0 -5 -4 -9 -9 -9h-40v-49c0 -5 -5 -9 -10 -9h-44c-5 0 -10 4 -10 9v49h-143c-5 0 -9 4 -9 8zM438 109h90v101z" />
    <glyph glyph-name="threeeighths" unicode="&#x215c;" horiz-adv-x="705" 
d="M153 394c-60 0 -89 27 -99 37c-5 4 -5 9 0 14l21 25c5 5 10 4 15 0c2 -1 27 -21 57 -21c28 0 51 15 51 38c0 22 -19 41 -60 41h-30c-8 0 -13 3 -13 11v28c0 8 5 12 13 12h30c35 0 53 16 53 37c0 23 -21 38 -46 38c-22 0 -38 -11 -48 -20c-4 -3 -8 -5 -14 1l-22 24
c-4 4 -5 11 1 15c0 0 35 36 91 36c61 0 106 -32 106 -83c0 -35 -28 -61 -51 -70v-2c23 -9 60 -34 60 -75c0 -52 -49 -86 -115 -86zM145 27l343 663c4 6 12 10 17 10h33c15 0 24 -14 17 -27l-345 -663c-2 -4 -12 -10 -17 -10h-31c-15 0 -24 14 -17 27zM436 76
c0 43 46 71 58 76v1c-20 9 -50 33 -50 70c0 50 47 83 107 83s108 -33 108 -83c0 -36 -31 -61 -51 -70v-1c23 -9 59 -34 59 -76c0 -49 -45 -86 -117 -86c-69 0 -114 37 -114 86zM512 217c0 -19 13 -33 39 -37c26 4 40 19 40 37c0 19 -18 35 -41 35c-21 0 -38 -16 -38 -35z
M506 80c0 -22 22 -36 45 -36c25 0 46 14 46 36c0 19 -16 38 -46 42c-28 -4 -45 -23 -45 -42z" />
    <glyph glyph-name="fiveeighths" unicode="&#x215d;" horiz-adv-x="705" 
d="M146 27l343 663c4 6 12 10 17 10h33c15 0 24 -14 17 -27l-345 -663c-2 -4 -12 -10 -17 -10h-31c-15 0 -24 14 -17 27zM153 394c-52 0 -84 24 -97 38c-5 6 -6 9 -1 15l24 26c5 5 9 6 14 1c2 -2 27 -24 62 -24c31 0 55 22 55 48s-20 45 -57 45h-76c-10 0 -15 8 -15 16v132
c0 5 4 9 9 9h158c5 0 9 -4 9 -9v-36c0 -4 -4 -8 -9 -8h-110v-50h42c72 0 114 -38 114 -98c0 -59 -50 -105 -122 -105zM437 76c0 43 46 71 58 76v1c-20 9 -50 33 -50 70c0 50 47 83 107 83s108 -33 108 -83c0 -36 -31 -61 -51 -70v-1c23 -9 59 -34 59 -76
c0 -49 -45 -86 -117 -86c-69 0 -114 37 -114 86zM513 217c0 -19 13 -33 39 -37c26 4 40 19 40 37c0 19 -18 35 -41 35c-21 0 -38 -16 -38 -35zM507 80c0 -22 22 -36 45 -36c25 0 46 14 46 36c0 19 -16 38 -46 42c-28 -4 -45 -23 -45 -42z" />
    <glyph glyph-name="seveneighths" unicode="&#x215e;" horiz-adv-x="705" 
d="M145 27l343 663c4 6 12 10 17 10h33c15 0 24 -14 17 -27l-345 -663c-2 -4 -12 -10 -17 -10h-31c-15 0 -24 14 -17 27zM105 404c-6 0 -10 1 -10 7v7l124 227h-126c-5 0 -9 4 -9 9v37c0 5 4 9 9 9h200c5 0 9 -4 9 -9v-13l-137 -265c-4 -7 -8 -9 -14 -9h-46zM436 76
c0 43 46 71 58 76v1c-20 9 -50 33 -50 70c0 50 47 83 107 83s108 -33 108 -83c0 -36 -31 -61 -51 -70v-1c23 -9 59 -34 59 -76c0 -49 -45 -86 -117 -86c-69 0 -114 37 -114 86zM512 217c0 -19 13 -33 39 -37c26 4 40 19 40 37c0 19 -18 35 -41 35c-21 0 -38 -16 -38 -35z
M506 80c0 -22 22 -36 45 -36c25 0 46 14 46 36c0 19 -16 38 -46 42c-28 -4 -45 -23 -45 -42z" />
    <glyph glyph-name="perthousand" unicode="&#x2030;" horiz-adv-x="986" 
d="M181 441c-75 0 -135 60 -135 135s60 135 135 135c74 0 135 -60 135 -135s-61 -135 -135 -135zM134 27l343 663c4 6 12 10 17 10h33c15 0 24 -14 17 -27l-345 -663c-2 -4 -12 -10 -17 -10h-31c-15 0 -24 14 -17 27zM181 512c34 0 62 28 62 64c0 33 -28 62 -62 62
c-35 0 -63 -29 -63 -62c0 -36 28 -64 63 -64zM675 124c0 75 61 135 135 135c75 0 136 -60 136 -135s-61 -135 -136 -135c-74 0 -135 60 -135 135zM369 124c0 75 60 135 135 135c74 0 135 -60 135 -135s-61 -135 -135 -135c-75 0 -135 60 -135 135zM747 124
c0 -35 28 -63 63 -63c34 0 63 28 63 63c0 34 -29 62 -63 62c-35 0 -63 -28 -63 -62zM440 124c0 -35 28 -63 64 -63c33 0 62 28 62 63c0 34 -29 62 -62 62c-36 0 -64 -28 -64 -62z" />
    <glyph glyph-name="minus" unicode="&#x2212;" horiz-adv-x="525" 
d="M69 307c-10 0 -19 9 -19 19v42c0 10 9 19 19 19h387c10 0 18 -9 18 -19v-42c0 -10 -8 -19 -18 -19h-387z" />
    <glyph glyph-name="plusminus" unicode="&#xb1;" horiz-adv-x="574" 
d="M247 263v110h-153c-10 0 -19 9 -19 19v42c0 10 9 19 19 19h153v148c0 10 9 18 19 18h42c10 0 19 -8 19 -18v-148h154c10 0 18 -9 18 -19v-42c0 -10 -8 -19 -18 -19h-154v-110c0 -10 -9 -18 -19 -18h-42c-10 0 -19 8 -19 18zM75 71v42c0 10 9 19 19 19h387
c10 0 18 -9 18 -19v-42c0 -10 -8 -19 -18 -19h-387c-10 0 -19 9 -19 19z" />
    <glyph glyph-name="multiply" unicode="&#xd7;" horiz-adv-x="471" 
d="M101 182l-30 30c-7 7 -7 19 0 26l108 109l-108 108c-7 7 -7 20 0 27l29 30c7 7 20 7 27 0l108 -108l109 109c7 7 19 6 26 -1l30 -30c7 -7 8 -19 1 -26l-109 -109l109 -109c7 -8 6 -20 -1 -27l-30 -29c-7 -7 -19 -8 -26 -1l-109 110l-108 -109c-7 -7 -19 -7 -26 0z" />
    <glyph glyph-name="divide" unicode="&#xf7;" horiz-adv-x="518" 
d="M256 471c-34 0 -63 29 -63 63c0 35 29 63 63 63c35 0 63 -28 63 -63c0 -34 -28 -63 -63 -63zM66 306c-10 0 -19 9 -19 19v42c0 10 9 19 19 19h387c10 0 18 -9 18 -19v-42c0 -10 -8 -19 -18 -19h-387zM193 165c0 35 28 63 63 63s63 -28 63 -63c0 -34 -28 -63 -63 -63
s-63 29 -63 63z" />
    <glyph glyph-name="notequal" unicode="&#x2260;" horiz-adv-x="450" 
d="M122 54c-9 4 -14 15 -10 24l26 55h-69c-11 0 -19 9 -19 19v44c0 10 8 19 19 19h107l60 129h-167c-11 0 -19 9 -19 19v43c0 10 8 19 19 19h205l35 76c4 10 16 13 25 9l9 -5c10 -4 15 -15 9 -24l-26 -56h55c11 0 19 -9 19 -19v-43c0 -10 -8 -19 -19 -19h-93l-59 -129h152
c11 0 19 -9 19 -19v-44c0 -10 -8 -19 -19 -19h-190l-35 -75c-4 -10 -16 -13 -25 -9z" />
    <glyph glyph-name="approxequal" unicode="&#x2248;" horiz-adv-x="450" 
d="M64 321l-29 24c-7 6 -8 14 -3 21c-2 -3 46 83 119 83c37 0 62 -20 79 -33c16 -11 34 -30 57 -30c50 0 53 72 83 50l29 -25c5 -5 6 -13 1 -21c1 3 -42 -79 -114 -79c-63 0 -87 62 -135 62c-53 0 -62 -74 -87 -52zM72 130l-29 24c-7 7 -8 15 -3 22c-2 -4 45 82 119 82
c37 0 61 -20 79 -33c15 -11 34 -29 57 -29c50 0 53 71 82 49l30 -24c5 -5 6 -14 1 -21c1 2 -42 -80 -114 -80c-63 0 -87 62 -135 62c-53 0 -63 -74 -87 -52z" />
    <glyph glyph-name="lessequal" unicode="&#x2264;" horiz-adv-x="453" 
d="M25 383c-7 3 -10 7 -10 17v8c0 7 3 12 10 16l393 190c11 6 21 0 21 -13v-58c0 -6 -3 -12 -8 -15l-276 -123l276 -121c5 -3 8 -9 8 -15v-58c0 -14 -11 -19 -21 -13zM34 52c-10 0 -19 9 -19 19v42c0 10 9 19 19 19h387c10 0 18 -9 18 -19v-42c0 -10 -8 -19 -18 -19h-387z
" />
    <glyph glyph-name="greaterequal" unicode="&#x2265;" horiz-adv-x="453" 
d="M36 198c-10 -6 -21 -1 -21 13v58c0 6 3 12 8 15l276 121l-276 123c-5 3 -8 9 -8 15v58c0 13 10 19 21 13l393 -190c7 -4 10 -9 10 -16v-8c0 -10 -3 -14 -10 -17zM33 52c-10 0 -18 9 -18 19v42c0 10 8 19 18 19h387c10 0 19 -9 19 -19v-42c0 -10 -9 -19 -19 -19h-387z" />
    <glyph glyph-name="logicalnot" unicode="&#xac;" horiz-adv-x="511" 
d="M49 307c-10 0 -19 9 -19 19v42c0 10 9 19 19 19h386c11 0 19 -10 19 -19v-215c0 -10 -9 -18 -19 -18h-42c-10 0 -19 8 -19 18v154h-325z" />
    <glyph glyph-name="Delta" unicode="&#x2206;" horiz-adv-x="694" 
d="M28 41l301 662c3 5 9 9 15 9h6c6 0 12 -3 15 -9l300 -664c8 -18 7 -39 -19 -39h-596c-26 0 -34 15 -22 41zM162 95l369 1l-184 419h-2z" />
    <glyph glyph-name="uni0394" unicode="&#x394;" horiz-adv-x="694" 
d="M28 41l301 662c3 5 9 9 15 9h6c6 0 12 -3 15 -9l300 -664c8 -18 7 -39 -19 -39h-596c-26 0 -34 15 -22 41zM162 95l369 1l-184 419h-2z" />
    <glyph glyph-name="Omega" unicode="&#x2126;" horiz-adv-x="781" 
d="M41 16v64c0 9 7 16 16 16h102c-78 49 -129 154 -129 258c0 200 160 356 360 356s360 -156 360 -356c0 -104 -52 -209 -130 -258h102c9 0 16 -7 16 -16v-64c0 -8 -7 -16 -16 -16h-259c-9 0 -16 8 -16 16v41c0 20 7 24 20 30c110 43 181 150 181 262
c0 141 -117 261 -258 261c-142 0 -260 -120 -260 -261c0 -112 72 -219 182 -262c13 -6 20 -10 20 -30v-41c0 -8 -7 -16 -16 -16h-259c-9 0 -16 8 -16 16z" />
    <glyph glyph-name="uni03A9" unicode="&#x3a9;" horiz-adv-x="781" 
d="M41 16v64c0 9 7 16 16 16h102c-78 49 -129 154 -129 258c0 200 160 356 360 356s360 -156 360 -356c0 -104 -52 -209 -130 -258h102c9 0 16 -7 16 -16v-64c0 -8 -7 -16 -16 -16h-259c-9 0 -16 8 -16 16v41c0 20 7 24 20 30c110 43 181 150 181 262
c0 141 -117 261 -258 261c-142 0 -260 -120 -260 -261c0 -112 72 -219 182 -262c13 -6 20 -10 20 -30v-41c0 -8 -7 -16 -16 -16h-259c-9 0 -16 8 -16 16z" />
    <glyph glyph-name="mu" unicode="&#xb5;" horiz-adv-x="513" 
d="M161 1v-282c0 -10 -9 -19 -19 -19h-56c-10 0 -19 9 -19 19v662c0 10 9 19 19 19h57c10 0 19 -9 19 -19v-201c0 -65 31 -100 82 -100c59 0 96 48 99 66v235c0 16 8 19 22 19h52c10 0 19 -9 19 -19v-362c0 -10 -9 -19 -19 -19h-28c-10 0 -15 7 -18 16l-10 29
c-9 -8 -51 -55 -132 -55c-26 0 -49 4 -68 11z" />
    <glyph glyph-name="uni03BC" unicode="&#x3bc;" horiz-adv-x="513" 
d="M161 1v-282c0 -10 -9 -19 -19 -19h-56c-10 0 -19 9 -19 19v662c0 10 9 19 19 19h57c10 0 19 -9 19 -19v-201c0 -65 31 -100 82 -100c59 0 96 48 99 66v235c0 16 8 19 22 19h52c10 0 19 -9 19 -19v-362c0 -10 -9 -19 -19 -19h-28c-10 0 -15 7 -18 16l-10 29
c-9 -8 -51 -55 -132 -55c-26 0 -49 4 -68 11z" />
    <glyph glyph-name="pi" unicode="&#x3c0;" horiz-adv-x="655" 
d="M129 16v301h-91c-10 0 -16 8 -16 16v51c0 9 7 16 16 16h567c10 0 16 -7 16 -16v-51c0 -9 -6 -16 -16 -16h-94v-301c0 -9 -8 -16 -17 -16h-64c-9 0 -16 8 -16 16v301h-188v-301c0 -9 -8 -16 -17 -16h-64c-8 0 -16 8 -16 16z" />
    <glyph glyph-name="degree" unicode="&#xb0;" horiz-adv-x="320" 
d="M160 440c-75 0 -135 60 -135 135s60 135 135 135c74 0 135 -60 135 -135s-61 -135 -135 -135zM160 508c33 0 64 32 64 67c0 33 -31 64 -64 64c-35 0 -67 -31 -67 -64c0 -35 32 -67 67 -67z" />
    <glyph glyph-name="afii61289" unicode="&#x2113;" horiz-adv-x="505" 
d="M101 151c0 22 2 43 5 64c-16 -5 -37 -10 -48 -12c-10 -1 -14 2 -16 10l-4 29c-1 10 -1 18 14 20c22 4 46 9 67 16c5 30 10 59 16 90c42 218 103 342 205 342c70 0 112 -52 112 -134c0 -175 -138 -285 -284 -340c-6 -26 -10 -54 -10 -83c0 -53 20 -104 81 -104
c72 0 124 27 152 44c13 8 19 6 24 -3l11 -19c7 -12 9 -15 -2 -24c-9 -7 -83 -57 -185 -57s-138 78 -138 161zM180 296c117 51 214 144 214 280c0 47 -20 76 -54 76c-68 0 -113 -112 -148 -294z" />
    <glyph glyph-name="estimated" unicode="&#x212e;" horiz-adv-x="823" 
d="M147 162c52 -73 149 -116 246 -116c72 0 147 31 207 84c8 7 16 11 26 1l16 -18c8 -8 5 -15 -5 -25c-69 -65 -155 -98 -244 -98c-203 0 -363 157 -363 359c0 203 160 361 363 361c201 0 361 -159 363 -362c0 -20 -6 -27 -22 -27h-587v-159zM147 375h492v160
c-55 73 -145 118 -246 118c-103 0 -191 -42 -246 -116v-162z" />
    <glyph glyph-name="eng" unicode="&#x14b;" horiz-adv-x="508" 
d="M65 19v362c0 10 9 19 19 19h29c8 0 14 -5 16 -12l12 -34c7 8 60 56 140 56c122 0 167 -86 167 -190v-344c0 -124 -74 -186 -170 -186c-54 0 -96 23 -114 40c-7 5 -8 16 -4 23l25 45c5 9 15 9 25 3c13 -9 42 -25 66 -25c45 0 77 32 77 100v344c0 64 -31 99 -83 99
c-63 0 -106 -46 -111 -60v-240c0 -13 -6 -19 -23 -19h-52c-10 0 -19 9 -19 19z" />
    <glyph glyph-name="Eng" unicode="&#x14a;" horiz-adv-x="775" 
d="M97 19v673c0 10 9 18 19 18h25l434 -502h1v473c0 10 8 19 19 19h64c10 0 19 -9 19 -19v-805c0 -124 -74 -186 -170 -186c-54 0 -96 23 -114 40c-7 5 -8 16 -4 23l25 45c5 9 15 9 25 3c13 -9 42 -25 66 -25c45 0 74 32 74 100v180l-381 450h-1v-487c0 -10 -8 -19 -19 -19
h-63c-10 0 -19 9 -19 19z" />
    <glyph glyph-name="infinity" unicode="&#x221e;" horiz-adv-x="600" 
d="M189 157c-77 0 -139 62 -139 139c0 78 62 140 139 140c45 0 86 -27 110 -62c25 35 66 62 112 62c76 0 139 -62 139 -140c0 -77 -63 -139 -139 -139c-46 0 -87 26 -112 61c-24 -35 -65 -61 -110 -61zM340 296c0 -38 30 -68 68 -68s68 30 68 68s-30 68 -68 68
s-68 -30 -68 -68zM192 228c37 0 68 30 68 68s-31 68 -68 68c-38 0 -69 -30 -69 -68s31 -68 69 -68z" />
    <glyph glyph-name="partialdiff" unicode="&#x2202;" horiz-adv-x="570" 
d="M55 219c0 138 103 217 209 217c67 0 125 -32 133 -37c-33 123 -192 206 -238 221c-19 6 -23 17 -18 29l17 41c4 11 13 16 25 12c92 -35 331 -153 331 -432c0 -154 -76 -280 -236 -280c-121 0 -223 103 -223 229zM147 218c0 -75 58 -138 132 -138c109 0 146 114 138 198
c-6 18 -58 76 -137 76c-74 0 -133 -61 -133 -136z" />
    <glyph glyph-name="integral" unicode="&#x222b;" horiz-adv-x="393" 
d="M130 -124v648c0 123 77 186 173 186c56 0 93 -25 111 -40c6 -6 8 -17 4 -24l-27 -44c-6 -9 -16 -9 -25 -3c-9 7 -40 23 -63 23c-41 0 -76 -29 -76 -98v-649c0 -123 -77 -185 -173 -185c-56 0 -93 24 -111 40c-6 6 -8 16 -4 23l27 44c6 9 16 10 25 3s40 -23 63 -23
c41 0 76 29 76 99z" />
    <glyph glyph-name="radical" unicode="&#x221a;" horiz-adv-x="677" 
d="M221 0l-171 380c-5 11 0 20 12 20h72c7 0 13 -5 14 -9l90 -209h4l227 508c2 5 7 10 15 10h168c10 0 16 -7 16 -16v-54c0 -8 -6 -16 -16 -16h-114l-281 -614c-2 -5 -7 -10 -14 -10h-8c-7 0 -12 5 -14 10z" />
    <glyph glyph-name="summation" unicode="&#x2211;" horiz-adv-x="538" 
d="M49 16v30l295 309l-295 303v26c0 8 7 16 16 16h408c9 0 16 -8 16 -16v-65c0 -9 -7 -16 -16 -16h-254l205 -195c6 -6 16 -16 16 -31v-41c0 -13 -10 -23 -16 -29l-205 -210h254c9 0 16 -8 16 -17v-64c0 -8 -7 -16 -16 -16h-408c-9 0 -16 8 -16 16z" />
    <glyph glyph-name="product" unicode="&#x220f;" horiz-adv-x="671" 
d="M49 16v668c0 8 8 16 16 16h541c9 0 16 -8 16 -16v-668c0 -8 -7 -16 -16 -16h-72c-10 0 -17 8 -17 16v587h-364v-587c0 -8 -6 -16 -16 -16h-72c-8 0 -16 8 -16 16z" />
    <glyph glyph-name="lozenge" unicode="&#x25ca;" horiz-adv-x="694" 
d="M99 309c-17 22 -17 35 -17 48c0 16 6 30 20 48l228 298c4 5 9 9 15 9h6c6 0 11 -4 15 -9l228 -297c16 -22 20 -33 20 -50c0 -23 -7 -32 -20 -51l-228 -296c-4 -5 -9 -9 -15 -9h-6c-6 0 -11 4 -15 9zM347 129h2l166 227l-166 227h-2l-167 -227z" />
    <glyph glyph-name="uniF8FF" unicode="&#xf8ff;" horiz-adv-x="599" 
d="M50 30v640c0 21 9 30 30 30h439c21 0 30 -9 30 -30v-640c0 -21 -9 -30 -30 -30h-439c-21 0 -30 9 -30 30zM262 314c0 -7 7 -12 14 -12h36c9 0 15 4 15 13v26c0 48 105 63 105 150c0 65 -54 111 -125 111c-87 0 -130 -61 -130 -61c-4 -6 -6 -13 0 -18l22 -22
c6 -4 11 -4 17 0c13 12 36 41 84 41c40 0 61 -25 61 -52c0 -63 -99 -72 -99 -147v-29zM245 156c0 -26 22 -48 48 -48c27 0 49 22 49 48s-22 48 -49 48c-26 0 -48 -22 -48 -48z" />
    <glyph glyph-name="zero.tf" horiz-adv-x="604" 
d="M302 -10c-158 0 -248 131 -248 350s90 350 248 350c157 0 247 -131 247 -350s-90 -350 -247 -350zM302 81c93 0 146 93 146 259c0 164 -53 258 -146 258c-94 0 -147 -94 -147 -258c0 -166 53 -259 147 -259z" />
    <glyph glyph-name="one.tf" horiz-adv-x="604" 
d="M129 0c-11 0 -19 8 -19 18v43c0 11 8 19 19 19h140v447l-87 -44c-9 -4 -19 -2 -22 7l-12 35c-3 8 -1 16 3 20l149 135h49c10 0 18 -9 18 -19v-581h110c11 0 19 -8 19 -19v-43c0 -10 -8 -18 -19 -18h-348z" />
    <glyph glyph-name="two.tf" horiz-adv-x="604" 
d="M78 19v26c74 84 178 211 252 299c50 56 76 106 76 146c0 51 -35 109 -123 109c-55 0 -100 -38 -127 -67c-8 -8 -19 -8 -27 0l-34 34c-6 6 -8 18 -1 26c0 0 75 98 194 98c143 0 219 -91 219 -196c0 -77 -42 -130 -96 -195c-53 -64 -123 -146 -182 -213h255
c10 0 19 -9 19 -19v-48c0 -10 -9 -19 -19 -19h-387c-11 0 -19 9 -19 19z" />
    <glyph glyph-name="three.tf" horiz-adv-x="604" 
d="M79 79c-6 7 -6 18 1 24l39 36c10 8 19 7 27 -2c6 -8 62 -62 136 -62c65 0 125 41 125 108c0 60 -51 117 -158 117h-56c-11 0 -19 7 -19 21v43c0 15 6 21 20 21h56c94 0 141 48 141 107c0 67 -55 109 -114 109c-60 0 -96 -34 -116 -56c-6 -8 -17 -10 -26 -2l-37 33
c-8 7 -7 19 0 26c0 0 76 88 185 88c116 0 209 -71 209 -183c0 -77 -58 -136 -103 -157v-3c47 -20 121 -80 121 -166c0 -109 -88 -191 -226 -191c-124 0 -183 63 -205 89z" />
    <glyph glyph-name="four.tf" horiz-adv-x="604" 
d="M46 149c-11 0 -19 9 -19 19v60l370 457c3 3 11 6 15 6h37c10 0 19 -8 19 -19v-442h81c11 0 19 -8 19 -18v-42c0 -10 -8 -19 -19 -19h-81l1 -132c0 -10 -9 -19 -19 -19h-59c-10 0 -19 9 -19 19v130h-326zM135 232h241v294z" />
    <glyph glyph-name="five.tf" horiz-adv-x="604" 
d="M98 73c-13 15 -14 22 -2 34c13 11 24 24 37 35c8 7 16 9 24 0c7 -9 63 -65 139 -65c82 0 136 70 136 141c0 70 -46 128 -139 128h-153c-20 0 -31 19 -31 35v280c0 10 8 19 19 19h309c11 0 19 -9 19 -19v-49c0 -10 -8 -19 -19 -19h-238v-158h101c147 0 230 -85 230 -216
c0 -125 -100 -229 -237 -229c-109 0 -170 53 -195 83z" />
    <glyph glyph-name="six.tf" horiz-adv-x="604" 
d="M77 270c0 279 239 397 331 432c12 4 21 -1 25 -12l17 -41c5 -12 1 -23 -18 -29c-46 -15 -205 -98 -238 -221c8 5 66 37 133 37c106 0 209 -79 209 -217c0 -126 -102 -229 -223 -229c-160 0 -236 126 -236 280zM312 80c74 0 132 63 132 138s-59 136 -133 136
c-79 0 -131 -58 -137 -76c-8 -84 29 -198 138 -198z" />
    <glyph glyph-name="seven.tf" horiz-adv-x="604" 
d="M133 19v11l270 562h-296c-10 0 -19 9 -19 19v50c0 10 9 19 19 19h409c10 0 19 -9 19 -19v-7l-294 -627c-9 -20 -14 -27 -39 -27h-46c-13 0 -23 9 -23 19z" />
    <glyph glyph-name="eight.tf" horiz-adv-x="604" 
d="M71 182c0 87 84 150 121 167v3c-43 22 -103 77 -103 155c0 110 92 183 212 183c123 0 214 -73 214 -183c0 -77 -60 -132 -103 -154v-4c46 -21 121 -81 121 -167c0 -109 -88 -192 -233 -192c-140 0 -229 83 -229 192zM302 396c77 11 112 54 112 107c0 61 -49 105 -115 105
c-60 0 -109 -44 -109 -105c0 -54 34 -95 112 -107zM175 180c0 -66 60 -109 126 -109c71 0 128 42 128 109c0 53 -46 108 -127 120c-81 -12 -127 -67 -127 -120z" />
    <glyph glyph-name="nine.tf" horiz-adv-x="604" 
d="M154 37c-5 12 -1 23 18 29c46 15 206 98 239 220c-9 -5 -67 -36 -133 -36c-107 0 -210 79 -210 217c0 126 102 229 224 229c159 0 235 -126 235 -281c0 -279 -239 -396 -331 -432c-12 -4 -21 1 -25 12zM293 331c80 0 132 58 137 76c9 84 -29 199 -138 199
c-73 0 -132 -64 -132 -138c0 -76 59 -137 133 -137z" />
    <glyph glyph-name="zerosuperior" unicode="&#x2070;" horiz-adv-x="352" 
d="M176 495c-81 0 -126 59 -126 157c0 99 45 158 126 158s126 -59 126 -158c0 -98 -45 -157 -126 -157zM176 556c35 0 56 34 56 96s-21 97 -56 97s-55 -35 -55 -97s20 -96 55 -96z" />
    <glyph glyph-name="foursuperior" unicode="&#x2074;" horiz-adv-x="365" 
d="M212 504c-5 0 -10 4 -10 9v49h-143c-5 0 -9 4 -9 8v40l167 187c2 2 6 3 8 3h31c5 0 10 -4 10 -9v-178h40c5 0 9 -4 9 -8v-34c0 -5 -4 -9 -9 -9h-40v-49c0 -5 -5 -9 -10 -9h-44zM114 613h90v101z" />
    <glyph glyph-name="fivesuperior" unicode="&#x2075;" horiz-adv-x="324" 
d="M153 494c-52 0 -84 24 -97 38c-5 6 -6 9 -1 15l24 26c5 5 9 6 14 1c2 -2 27 -24 62 -24c31 0 55 22 55 48s-20 45 -57 45h-76c-10 0 -15 8 -15 16v132c0 5 4 9 9 9h158c5 0 9 -4 9 -9v-36c0 -4 -4 -8 -9 -8h-110v-50h42c72 0 114 -38 114 -98c0 -59 -50 -105 -122 -105z
" />
    <glyph glyph-name="sixsuperior" unicode="&#x2076;" horiz-adv-x="329" 
d="M167 494c-76 0 -117 58 -117 129c0 126 126 180 163 191c7 3 13 -1 15 -7l12 -28c2 -6 0 -12 -9 -15c-24 -7 -94 -37 -110 -84c3 2 28 15 59 15c49 0 99 -32 99 -97c0 -57 -51 -104 -112 -104zM167 552c28 0 50 21 50 47c0 27 -23 48 -51 48c-27 0 -49 -20 -55 -32
c1 -28 21 -63 56 -63z" />
    <glyph glyph-name="sevensuperior" unicode="&#x2077;" horiz-adv-x="320" 
d="M73 504c-6 0 -10 1 -10 7v7l124 227h-126c-5 0 -9 4 -9 9v37c0 5 4 9 9 9h200c5 0 9 -4 9 -9v-13l-137 -265c-4 -7 -8 -9 -14 -9h-46z" />
    <glyph glyph-name="eightsuperior" unicode="&#x2078;" horiz-adv-x="331" 
d="M164 494c-69 0 -114 37 -114 86c0 43 46 71 58 76v1c-20 9 -50 33 -50 70c0 50 47 83 107 83s108 -33 108 -83c0 -36 -31 -61 -51 -70v-1c23 -9 59 -34 59 -76c0 -49 -45 -86 -117 -86zM165 684c26 4 40 19 40 37c0 19 -18 35 -41 35c-21 0 -38 -16 -38 -35
s13 -33 39 -37zM165 548c25 0 46 14 46 36c0 19 -16 38 -46 42c-28 -4 -45 -23 -45 -42c0 -22 22 -36 45 -36z" />
    <glyph glyph-name="ninesuperior" unicode="&#x2079;" horiz-adv-x="329" 
d="M115 487c-7 -2 -12 1 -15 7l-11 29c-3 6 -1 12 9 14c23 7 93 38 110 84c-4 -2 -29 -15 -60 -15c-49 0 -98 33 -98 98c0 57 51 104 112 104c76 0 117 -58 117 -129c0 -126 -127 -180 -164 -192zM162 655c28 0 49 20 56 32c-1 28 -21 63 -57 63c-28 0 -50 -22 -50 -48
s23 -47 51 -47z" />
    <glyph glyph-name="zeroinferior" unicode="&#x2080;" horiz-adv-x="352" 
d="M50 -3c0 99 45 159 126 159s126 -60 126 -159c0 -98 -45 -157 -126 -157s-126 59 -126 157zM121 -3c0 -62 20 -96 55 -96s56 34 56 96s-21 98 -56 98s-55 -36 -55 -98z" />
    <glyph glyph-name="oneinferior" unicode="&#x2081;" horiz-adv-x="226" 
d="M54 59l-4 24c0 5 1 7 5 11l72 52h40c5 0 9 -4 9 -9v-278c0 -5 -4 -9 -9 -9h-49c-6 0 -10 4 -10 9v201l-45 -7c-5 -1 -9 1 -9 6z" />
    <glyph glyph-name="twoinferior" unicode="&#x2082;" horiz-adv-x="314" 
d="M81 74l-21 26c-4 6 -6 11 2 16c3 3 40 40 95 40c68 0 107 -39 107 -91c0 -31 -17 -59 -43 -88l-67 -73h100c6 0 9 -4 9 -10v-35c0 -5 -2 -9 -9 -9h-194c-6 0 -10 2 -10 9v15l118 130c19 20 29 37 29 53c0 20 -16 41 -49 41c-20 0 -41 -13 -53 -25c-5 -5 -10 -3 -14 1z
" />
    <glyph glyph-name="threeinferior" unicode="&#x2083;" horiz-adv-x="318" 
d="M95 13c0 8 5 12 13 12h30c35 0 53 16 53 37c0 23 -21 38 -46 38c-22 0 -38 -11 -48 -20c-4 -3 -8 -5 -14 1l-22 24c-4 4 -5 11 1 15c0 0 35 36 91 36c61 0 106 -32 106 -83c0 -35 -28 -61 -51 -70v-2c23 -9 60 -34 60 -75c0 -52 -49 -86 -115 -86c-60 0 -89 27 -99 37
c-5 4 -5 9 0 14l21 25c5 5 10 4 15 0c2 -1 27 -21 57 -21c28 0 51 15 51 38c0 22 -19 41 -60 41h-30c-8 0 -13 3 -13 11v28z" />
    <glyph glyph-name="fourinferior" unicode="&#x2084;" horiz-adv-x="365" 
d="M50 -44l167 187c2 2 6 3 8 3h31c5 0 10 -4 10 -9v-178h40c5 0 9 -4 9 -8v-34c0 -5 -4 -9 -9 -9h-40v-49c0 -5 -5 -9 -10 -9h-44c-5 0 -10 4 -10 9v49h-143c-5 0 -9 4 -9 8v40zM114 -41h90v101z" />
    <glyph glyph-name="fiveinferior" unicode="&#x2085;" horiz-adv-x="324" 
d="M62 5v132c0 5 4 9 9 9h158c5 0 9 -4 9 -9v-36c0 -4 -4 -8 -9 -8h-110v-50h42c72 0 114 -38 114 -98c0 -59 -50 -105 -122 -105c-52 0 -84 24 -97 38c-5 6 -6 9 -1 15l24 26c5 5 9 6 14 1c2 -2 27 -24 62 -24c31 0 55 22 55 48s-20 45 -57 45h-76c-10 0 -15 8 -15 16z" />
    <glyph glyph-name="sixinferior" unicode="&#x2086;" horiz-adv-x="329" 
d="M50 -31c0 126 126 180 163 191c7 3 13 -1 15 -7l12 -28c2 -6 0 -12 -9 -15c-24 -7 -94 -37 -110 -84c3 2 28 15 59 15c49 0 99 -32 99 -97c0 -57 -51 -104 -112 -104c-76 0 -117 58 -117 129zM111 -39c1 -28 21 -63 56 -63c28 0 50 21 50 47c0 27 -23 48 -51 48
c-27 0 -49 -20 -55 -32z" />
    <glyph glyph-name="seveninferior" unicode="&#x2087;" horiz-adv-x="320" 
d="M61 91c-5 0 -9 4 -9 9v37c0 5 4 9 9 9h200c5 0 9 -4 9 -9v-13l-137 -265c-4 -7 -8 -9 -14 -9h-46c-6 0 -10 1 -10 7v7l124 227h-126z" />
    <glyph glyph-name="eightinferior" unicode="&#x2088;" horiz-adv-x="331" 
d="M50 -74c0 43 46 71 58 76v1c-20 9 -50 33 -50 70c0 50 47 83 107 83s108 -33 108 -83c0 -36 -31 -61 -51 -70v-1c23 -9 59 -34 59 -76c0 -49 -45 -86 -117 -86c-69 0 -114 37 -114 86zM126 67c0 -19 13 -33 39 -37c26 4 40 19 40 37c0 19 -18 35 -41 35
c-21 0 -38 -16 -38 -35zM120 -70c0 -22 22 -36 45 -36c25 0 46 14 46 36c0 19 -16 38 -46 42c-28 -4 -45 -23 -45 -42z" />
    <glyph glyph-name="nineinferior" unicode="&#x2089;" horiz-adv-x="329" 
d="M50 50c0 57 51 104 112 104c76 0 117 -58 117 -129c0 -126 -127 -180 -164 -192c-7 -2 -12 1 -15 7l-11 29c-3 6 -1 12 9 14c23 7 93 38 110 84c-4 -2 -29 -15 -60 -15c-49 0 -98 33 -98 98zM111 48c0 -26 23 -47 51 -47s49 20 56 32c-1 28 -21 63 -57 63
c-28 0 -50 -22 -50 -48z" />
    <glyph glyph-name="zero.denom" horiz-adv-x="352" 
d="M50 147c0 99 45 159 126 159s126 -60 126 -159c0 -98 -45 -157 -126 -157s-126 59 -126 157zM176 51c35 0 56 34 56 96s-21 98 -56 98s-55 -36 -55 -98s20 -96 55 -96z" />
    <glyph glyph-name="one.denom" horiz-adv-x="226" 
d="M108 9v201l-45 -7c-5 -1 -9 1 -9 6l-4 24c0 5 1 7 5 11l72 52h40c5 0 9 -4 9 -9v-278c0 -5 -4 -9 -9 -9h-49c-6 0 -10 4 -10 9z" />
    <glyph glyph-name="two.denom" horiz-adv-x="314" 
d="M50 9v15l118 130c19 20 29 37 29 53c0 20 -16 41 -49 41c-20 0 -41 -13 -53 -25c-5 -5 -10 -3 -14 1l-21 26c-4 6 -6 11 2 16c3 3 40 40 95 40c68 0 107 -39 107 -91c0 -31 -17 -59 -43 -88l-67 -73h100c6 0 9 -4 9 -10v-35c0 -5 -2 -9 -9 -9h-194c-6 0 -10 2 -10 9z" />
    <glyph glyph-name="three.denom" horiz-adv-x="318" 
d="M54 27c-5 4 -5 9 0 14l21 25c5 5 10 4 15 0c2 -1 27 -21 57 -21c28 0 51 15 51 38c0 22 -19 41 -60 41h-30c-8 0 -13 3 -13 11v28c0 8 5 12 13 12h30c35 0 53 16 53 37c0 23 -21 38 -46 38c-22 0 -38 -11 -48 -20c-4 -3 -8 -5 -14 1l-22 24c-4 4 -5 11 1 15
c0 0 35 36 91 36c61 0 106 -32 106 -83c0 -35 -28 -61 -51 -70v-2c23 -9 60 -34 60 -75c0 -52 -49 -86 -115 -86c-60 0 -89 27 -99 37z" />
    <glyph glyph-name="four.denom" horiz-adv-x="365" 
d="M59 58c-5 0 -9 4 -9 8v40l167 187c2 2 6 3 8 3h31c5 0 10 -4 10 -9v-178h40c5 0 9 -4 9 -8v-34c0 -5 -4 -9 -9 -9h-40v-49c0 -5 -5 -9 -10 -9h-44c-5 0 -10 4 -10 9v49h-143zM114 109h90v101z" />
    <glyph glyph-name="five.denom" horiz-adv-x="324" 
d="M56 28c-5 6 -6 9 -1 15l24 26c5 5 9 6 14 1c2 -2 27 -24 62 -24c31 0 55 22 55 48s-20 45 -57 45h-76c-10 0 -15 8 -15 16v132c0 5 4 9 9 9h158c5 0 9 -4 9 -9v-36c0 -4 -4 -8 -9 -8h-110v-50h42c72 0 114 -38 114 -98c0 -59 -50 -105 -122 -105c-52 0 -84 24 -97 38z
" />
    <glyph glyph-name="six.denom" horiz-adv-x="329" 
d="M50 119c0 126 126 180 163 191c7 3 13 -1 15 -7l12 -28c2 -6 0 -12 -9 -15c-24 -7 -94 -37 -110 -84c3 2 28 15 59 15c49 0 99 -32 99 -97c0 -57 -51 -104 -112 -104c-76 0 -117 58 -117 129zM111 111c1 -28 21 -63 56 -63c28 0 50 21 50 47c0 27 -23 48 -51 48
c-27 0 -49 -20 -55 -32z" />
    <glyph glyph-name="seven.denom" horiz-adv-x="320" 
d="M63 7v7l124 227h-126c-5 0 -9 4 -9 9v37c0 5 4 9 9 9h200c5 0 9 -4 9 -9v-13l-137 -265c-4 -7 -8 -9 -14 -9h-46c-6 0 -10 1 -10 7z" />
    <glyph glyph-name="eight.denom" horiz-adv-x="331" 
d="M50 76c0 43 46 71 58 76v1c-20 9 -50 33 -50 70c0 50 47 83 107 83s108 -33 108 -83c0 -36 -31 -61 -51 -70v-1c23 -9 59 -34 59 -76c0 -49 -45 -86 -117 -86c-69 0 -114 37 -114 86zM165 180c26 4 40 19 40 37c0 19 -18 35 -41 35c-21 0 -38 -16 -38 -35s13 -33 39 -37z
M120 80c0 -22 22 -36 45 -36c25 0 46 14 46 36c0 19 -16 38 -46 42c-28 -4 -45 -23 -45 -42z" />
    <glyph glyph-name="nine.denom" horiz-adv-x="329" 
d="M89 19c-3 6 -1 12 9 14c23 7 93 38 110 84c-4 -2 -29 -15 -60 -15c-49 0 -98 33 -98 98c0 57 51 104 112 104c76 0 117 -58 117 -129c0 -126 -127 -180 -164 -192c-7 -2 -12 1 -15 7zM162 151c28 0 49 20 56 32c-1 28 -21 63 -57 63c-28 0 -50 -22 -50 -48s23 -47 51 -47
z" />
    <glyph glyph-name="zero.num" horiz-adv-x="352" 
d="M176 395c-81 0 -126 59 -126 157c0 99 45 158 126 158s126 -59 126 -158c0 -98 -45 -157 -126 -157zM176 456c35 0 56 34 56 96s-21 97 -56 97s-55 -35 -55 -97s20 -96 55 -96z" />
    <glyph glyph-name="one.num" horiz-adv-x="226" 
d="M118 404c-6 0 -10 4 -10 9v201l-45 -7c-5 -1 -9 1 -9 6l-4 24c0 5 1 7 5 11l72 52h40c5 0 9 -4 9 -9v-278c0 -5 -4 -9 -9 -9h-49z" />
    <glyph glyph-name="two.num" horiz-adv-x="314" 
d="M60 404c-6 0 -10 2 -10 9v15l118 130c19 20 29 37 29 53c0 20 -16 41 -49 41c-20 0 -41 -13 -53 -25c-5 -5 -10 -3 -14 1l-21 26c-4 6 -6 11 2 16c3 3 40 40 95 40c68 0 107 -39 107 -91c0 -31 -17 -59 -43 -88l-67 -73h100c6 0 9 -4 9 -10v-35c0 -5 -2 -9 -9 -9h-194z
" />
    <glyph glyph-name="three.num" horiz-adv-x="318" 
d="M153 394c-60 0 -89 27 -99 37c-5 4 -5 9 0 14l21 25c5 5 10 4 15 0c2 -1 27 -21 57 -21c28 0 51 15 51 38c0 22 -19 41 -60 41h-30c-8 0 -13 3 -13 11v28c0 8 5 12 13 12h30c35 0 53 16 53 37c0 23 -21 38 -46 38c-22 0 -38 -11 -48 -20c-4 -3 -8 -5 -14 1l-22 24
c-4 4 -5 11 1 15c0 0 35 36 91 36c61 0 106 -32 106 -83c0 -35 -28 -61 -51 -70v-2c23 -9 60 -34 60 -75c0 -52 -49 -86 -115 -86z" />
    <glyph glyph-name="four.num" horiz-adv-x="365" 
d="M212 404c-5 0 -10 4 -10 9v49h-143c-5 0 -9 4 -9 8v40l167 187c2 2 6 3 8 3h31c5 0 10 -4 10 -9v-178h40c5 0 9 -4 9 -8v-34c0 -5 -4 -9 -9 -9h-40v-49c0 -5 -5 -9 -10 -9h-44zM114 513h90v101z" />
    <glyph glyph-name="five.num" horiz-adv-x="324" 
d="M153 394c-52 0 -84 24 -97 38c-5 6 -6 9 -1 15l24 26c5 5 9 6 14 1c2 -2 27 -24 62 -24c31 0 55 22 55 48s-20 45 -57 45h-76c-10 0 -15 8 -15 16v132c0 5 4 9 9 9h158c5 0 9 -4 9 -9v-36c0 -4 -4 -8 -9 -8h-110v-50h42c72 0 114 -38 114 -98c0 -59 -50 -105 -122 -105z
" />
    <glyph glyph-name="six.num" horiz-adv-x="329" 
d="M167 394c-76 0 -117 58 -117 129c0 126 126 180 163 191c7 3 13 -1 15 -7l12 -28c2 -6 0 -12 -9 -15c-24 -7 -94 -37 -110 -84c3 2 28 15 59 15c49 0 99 -32 99 -97c0 -57 -51 -104 -112 -104zM167 452c28 0 50 21 50 47c0 27 -23 48 -51 48c-27 0 -49 -20 -55 -32
c1 -28 21 -63 56 -63z" />
    <glyph glyph-name="seven.num" horiz-adv-x="320" 
d="M73 404c-6 0 -10 1 -10 7v7l124 227h-126c-5 0 -9 4 -9 9v37c0 5 4 9 9 9h200c5 0 9 -4 9 -9v-13l-137 -265c-4 -7 -8 -9 -14 -9h-46z" />
    <glyph glyph-name="eight.num" horiz-adv-x="331" 
d="M164 394c-69 0 -114 37 -114 86c0 43 46 71 58 76v1c-20 9 -50 33 -50 70c0 50 47 83 107 83s108 -33 108 -83c0 -36 -31 -61 -51 -70v-1c23 -9 59 -34 59 -76c0 -49 -45 -86 -117 -86zM165 584c26 4 40 19 40 37c0 19 -18 35 -41 35c-21 0 -38 -16 -38 -35
s13 -33 39 -37zM165 448c25 0 46 14 46 36c0 19 -16 38 -46 42c-28 -4 -45 -23 -45 -42c0 -22 22 -36 45 -36z" />
    <glyph glyph-name="nine.num" horiz-adv-x="329" 
d="M115 387c-7 -2 -12 1 -15 7l-11 29c-3 6 -1 12 9 14c23 7 93 38 110 84c-4 -2 -29 -15 -60 -15c-49 0 -98 33 -98 98c0 57 51 104 112 104c76 0 117 -58 117 -129c0 -126 -127 -180 -164 -192zM162 555c28 0 49 20 56 32c-1 28 -21 63 -57 63c-28 0 -50 -22 -50 -48
s23 -47 51 -47z" />
    <glyph glyph-name="a.alt" 
d="M425 381v-362c0 -10 -9 -19 -19 -19h-30c-9 0 -15 7 -18 17l-8 29s-48 -56 -127 -56c-106 0 -187 95 -187 210s81 210 191 210c74 0 115 -42 122 -49l10 25c3 8 10 14 19 14h28c10 0 19 -9 19 -19zM330 136v125c-4 12 -34 62 -92 62c-68 0 -110 -57 -110 -124
s43 -123 107 -123c61 0 90 49 95 60z" />
    <glyph glyph-name="agrave.alt" 
d="M425 381v-362c0 -10 -9 -19 -19 -19h-30c-9 0 -15 7 -18 17l-8 29s-48 -56 -127 -56c-106 0 -187 95 -187 210s81 210 191 210c74 0 115 -42 122 -49l10 25c3 8 10 14 19 14h28c10 0 19 -9 19 -19zM330 136v125c-4 12 -34 62 -92 62c-68 0 -110 -57 -110 -124
s43 -123 107 -123c61 0 90 49 95 60zM325 543l-168 72c-8 4 -11 14 -6 24l23 44c5 9 20 7 26 3l157 -91c6 -3 10 -11 6 -19l-14 -29c-4 -8 -10 -11 -24 -4z" />
    <glyph glyph-name="aacute.alt" 
d="M425 381v-362c0 -10 -9 -19 -19 -19h-30c-9 0 -15 7 -18 17l-8 29s-48 -56 -127 -56c-106 0 -187 95 -187 210s81 210 191 210c74 0 115 -42 122 -49l10 25c3 8 10 14 19 14h28c10 0 19 -9 19 -19zM330 136v125c-4 12 -34 62 -92 62c-68 0 -110 -57 -110 -124
s43 -123 107 -123c61 0 90 49 95 60zM172 543c-14 -7 -20 -4 -24 4l-14 29c-4 8 0 16 6 19l157 91c6 4 21 6 26 -3l23 -44c5 -10 2 -20 -6 -24z" />
    <glyph glyph-name="acircumflex.alt" 
d="M425 381v-362c0 -10 -9 -19 -19 -19h-30c-9 0 -15 7 -18 17l-8 29s-48 -56 -127 -56c-106 0 -187 95 -187 210s81 210 191 210c74 0 115 -42 122 -49l10 25c3 8 10 14 19 14h28c10 0 19 -9 19 -19zM330 136v125c-4 12 -34 62 -92 62c-68 0 -110 -57 -110 -124
s43 -123 107 -123c61 0 90 49 95 60zM120 542l-20 27c-5 7 0 15 6 19l125 98c6 5 17 5 24 0l125 -98c6 -4 11 -12 6 -19l-20 -27c-6 -8 -11 -11 -23 -3l-100 65l-100 -65c-12 -7 -17 -5 -23 3z" />
    <glyph glyph-name="atilde.alt" 
d="M425 381v-362c0 -10 -9 -19 -19 -19h-30c-9 0 -15 7 -18 17l-8 29s-48 -56 -127 -56c-106 0 -187 95 -187 210s81 210 191 210c74 0 115 -42 122 -49l10 25c3 8 10 14 19 14h28c10 0 19 -9 19 -19zM330 136v125c-4 12 -34 62 -92 62c-68 0 -110 -57 -110 -124
s43 -123 107 -123c61 0 90 49 95 60zM122 568l-23 15c-10 6 -9 16 -6 23c9 18 39 84 98 84c58 0 77 -64 109 -64c23 0 31 25 41 40c6 10 13 16 25 9c8 -6 20 -11 26 -19c5 -8 2 -16 -3 -27c-10 -22 -39 -75 -94 -75c-51 0 -78 65 -107 65c-24 0 -37 -28 -43 -41
c-5 -11 -10 -17 -23 -10z" />
    <glyph glyph-name="adieresis.alt" 
d="M425 381v-362c0 -10 -9 -19 -19 -19h-30c-9 0 -15 7 -18 17l-8 29s-48 -56 -127 -56c-106 0 -187 95 -187 210s81 210 191 210c74 0 115 -42 122 -49l10 25c3 8 10 14 19 14h28c10 0 19 -9 19 -19zM330 136v125c-4 12 -34 62 -92 62c-68 0 -110 -57 -110 -124
s43 -123 107 -123c61 0 90 49 95 60zM346 567c-31 0 -56 25 -56 56c0 32 25 57 56 57c32 0 57 -25 57 -57c0 -31 -25 -56 -57 -56zM149 567c-31 0 -56 25 -56 56c0 32 25 57 56 57c32 0 57 -25 57 -57c0 -31 -25 -56 -57 -56z" />
    <glyph glyph-name="amacron.alt" 
d="M425 381v-362c0 -10 -9 -19 -19 -19h-30c-9 0 -15 7 -18 17l-8 29s-48 -56 -127 -56c-106 0 -187 95 -187 210s81 210 191 210c74 0 115 -42 122 -49l10 25c3 8 10 14 19 14h28c10 0 19 -9 19 -19zM330 136v125c-4 12 -34 62 -92 62c-68 0 -110 -57 -110 -124
s43 -123 107 -123c61 0 90 49 95 60zM120 576c-11 0 -19 8 -19 18v28c0 11 8 19 19 19h256c11 0 19 -8 19 -19v-28c0 -10 -8 -18 -19 -18h-256z" />
    <glyph glyph-name="abreve.alt" 
d="M425 381v-362c0 -10 -9 -19 -19 -19h-30c-9 0 -15 7 -18 17l-8 29s-48 -56 -127 -56c-106 0 -187 95 -187 210s81 210 191 210c74 0 115 -42 122 -49l10 25c3 8 10 14 19 14h28c10 0 19 -9 19 -19zM330 136v125c-4 12 -34 62 -92 62c-68 0 -110 -57 -110 -124
s43 -123 107 -123c61 0 90 49 95 60zM247 529c-72 0 -128 50 -138 116c-2 12 4 21 16 21h29c10 0 16 -7 18 -15c11 -35 38 -59 75 -59c33 0 62 27 72 59c3 9 10 15 18 15h31c12 0 18 -9 16 -21c-11 -66 -67 -116 -137 -116z" />
    <glyph glyph-name="aring.alt" 
d="M425 381v-362c0 -10 -9 -19 -19 -19h-30c-9 0 -15 7 -18 17l-8 29s-48 -56 -127 -56c-106 0 -187 95 -187 210s81 210 191 210c74 0 115 -42 122 -49l10 25c3 8 10 14 19 14h28c10 0 19 -9 19 -19zM330 136v125c-4 12 -34 62 -92 62c-68 0 -110 -57 -110 -124
s43 -123 107 -123c61 0 90 49 95 60zM244 488c-62 0 -111 49 -111 111s49 111 111 111c61 0 111 -49 111 -111s-50 -111 -111 -111zM244 543c29 0 53 27 53 56s-24 53 -53 53c-33 0 -56 -24 -56 -53s23 -56 56 -56z" />
    <glyph glyph-name="aringacute.alt" 
d="M425 381v-362c0 -10 -9 -19 -19 -19h-30c-9 0 -15 7 -18 17l-8 29s-48 -56 -127 -56c-106 0 -187 95 -187 210s81 210 191 210c74 0 115 -42 122 -49l10 25c3 8 10 14 19 14h28c10 0 19 -9 19 -19zM330 136v125c-4 12 -34 62 -92 62c-68 0 -110 -57 -110 -124
s43 -123 107 -123c61 0 90 49 95 60zM244 435c-62 0 -111 49 -111 111s49 111 111 111c61 0 111 -49 111 -111s-50 -111 -111 -111zM244 490c29 0 53 27 53 56s-24 53 -53 53c-33 0 -56 -24 -56 -53s23 -56 56 -56zM175 660c-14 -7 -20 -4 -24 4l-14 29c-4 8 0 16 6 19
l157 91c6 4 21 6 26 -3l23 -44c5 -10 2 -20 -6 -24z" />
    <glyph glyph-name="aogonek.alt" 
d="M425 381v-362c0 -10 -9 -19 -19 -19h-1c-17 -17 -47 -52 -47 -98c0 -34 25 -60 62 -60c22 0 38 7 50 12c10 4 19 -3 19 -15v-28c0 -9 -7 -14 -14 -18c-7 -3 -36 -12 -68 -12c-62 0 -116 33 -116 106c0 76 65 121 69 124l-10 35s-48 -56 -127 -56c-106 0 -187 95 -187 210
s81 210 191 210c74 0 115 -42 122 -49l10 25c3 8 10 14 19 14h28c10 0 19 -9 19 -19zM330 136v125c-4 12 -34 62 -92 62c-68 0 -110 -57 -110 -124s43 -123 107 -123c61 0 90 49 95 60z" />
    <glyph glyph-name="parenleft.case" horiz-adv-x="341" 
d="M302 28c7 -2 13 -9 11 -18l-2 -46c-1 -9 -8 -13 -19 -13c-114 7 -242 90 -242 394s128 387 242 393c11 1 18 -4 19 -13l2 -46c2 -9 -4 -17 -11 -18c-112 -25 -155 -135 -155 -316c0 -182 43 -291 155 -317z" />
    <glyph glyph-name="parenright.case" horiz-adv-x="341" 
d="M28 11c-1 8 4 16 11 17c112 26 156 135 156 317c0 181 -44 291 -156 316c-7 1 -12 9 -11 18l3 46c0 9 7 14 18 13c114 -6 242 -89 242 -393s-128 -387 -242 -394c-11 0 -18 4 -18 13z" />
    <glyph glyph-name="hyphen.case" horiz-adv-x="390" 
d="M87 296c-11 0 -19 8 -19 18v43c0 11 8 19 19 19h216c11 0 19 -8 19 -19v-43c0 -10 -8 -18 -19 -18h-216z" />
    <glyph glyph-name="bracketleft.case" horiz-adv-x="337" 
d="M163 -99h134c10 0 19 -8 19 -18v-44c0 -10 -9 -19 -19 -19h-206c-10 0 -19 9 -19 19v962c0 10 9 19 19 19h206c10 0 19 -9 19 -19v-44c0 -11 -9 -19 -19 -19h-134v-837z" />
    <glyph glyph-name="bracketright.case" horiz-adv-x="337" 
d="M40 -99h133v837h-133c-10 0 -19 8 -19 19v44c0 10 9 19 19 19h206c10 0 19 -9 19 -19v-962c0 -10 -9 -19 -19 -19h-206c-10 0 -19 9 -19 19v44c0 10 9 18 19 18z" />
    <glyph glyph-name="braceleft.case" horiz-adv-x="394" 
d="M105 66v142c0 45 -45 69 -69 73c-8 1 -15 10 -15 18v40c0 8 7 14 14 16c16 2 70 29 70 73v144c0 201 143 255 246 257c11 1 20 -5 20 -17l2 -41c1 -8 -6 -17 -13 -18c-87 -15 -159 -76 -159 -181v-119c0 -93 -62 -125 -81 -133v-3c28 -12 81 -40 81 -131v-120
c0 -105 72 -165 159 -180c7 -1 14 -8 13 -18l-2 -41c0 -10 -10 -18 -20 -17c-103 2 -246 55 -246 256z" />
    <glyph glyph-name="bar.case" horiz-adv-x="189" 
d="M71 -162v1023c0 11 9 19 19 19h10c10 0 18 -8 18 -19v-1023c0 -10 -9 -18 -19 -18h-9c-10 0 -19 8 -19 18z" />
    <glyph glyph-name="braceright.case" horiz-adv-x="394" 
d="M193 66v120c0 91 53 119 81 131v3c-19 8 -81 40 -81 133v119c0 105 -72 166 -159 181c-7 1 -14 10 -13 18l2 41c0 12 9 18 20 17c103 -2 246 -56 246 -257v-144c0 -44 54 -71 70 -73c7 -2 14 -8 14 -16v-40c0 -8 -7 -17 -15 -18c-24 -4 -69 -28 -69 -73v-142
c0 -201 -143 -254 -246 -256c-10 -1 -20 7 -20 17l-2 41c-1 10 6 17 13 18c87 15 159 75 159 180z" />
    <glyph glyph-name="guilsinglleft.case" horiz-adv-x="262" 
d="M139 159l-104 155c-6 8 -4 18 0 24l109 148c3 5 10 12 18 12h35c17 0 23 -15 15 -31l-71 -139l68 -147c7 -16 2 -30 -15 -30h-40c-8 0 -12 4 -15 8z" />
    <glyph glyph-name="guilsinglright.case" horiz-adv-x="262" 
d="M67 151c-17 0 -22 14 -15 30l68 147l-71 139c-8 16 -2 31 15 31h35c8 0 15 -7 18 -12l109 -148c4 -6 6 -16 0 -24l-104 -155c-3 -4 -7 -8 -15 -8h-40z" />
    <glyph glyph-name="guillemotleft.case" horiz-adv-x="443" 
d="M216 314c-6 8 -4 18 0 24l109 148c3 5 10 12 18 12h35c17 0 23 -15 15 -31l-71 -139l68 -147c7 -16 2 -30 -15 -30h-40c-8 0 -12 4 -15 8zM139 159l-104 155c-6 8 -4 18 0 24l109 148c3 5 10 12 18 12h35c17 0 23 -15 15 -31l-71 -139l68 -147c7 -16 2 -30 -15 -30h-40
c-8 0 -12 4 -15 8z" />
    <glyph glyph-name="guillemotright.case" horiz-adv-x="443" 
d="M233 181l68 147l-71 139c-8 16 -2 31 15 31h35c8 0 15 -7 18 -12l109 -148c4 -6 6 -16 0 -24l-104 -155c-3 -4 -7 -8 -15 -8h-40c-17 0 -22 14 -15 30zM67 151c-17 0 -22 14 -15 30l68 147l-71 139c-8 16 -2 31 15 31h35c8 0 15 -7 18 -12l109 -148c4 -6 6 -16 0 -24
l-104 -155c-3 -4 -7 -8 -15 -8h-40z" />
    <glyph glyph-name="endash.case" horiz-adv-x="552" 
d="M85 306c-11 0 -19 8 -19 18v24c0 11 8 19 19 19h382c11 0 19 -8 19 -19v-24c0 -10 -8 -18 -19 -18h-382z" />
    <glyph glyph-name="emdash.case" horiz-adv-x="772" 
d="M85 306c-11 0 -19 8 -19 18v24c0 11 8 19 19 19h602c11 0 19 -8 19 -19v-24c0 -10 -8 -18 -19 -18h-602z" />
    <glyph glyph-name="bullet.case" horiz-adv-x="371" 
d="M183 197c-63 0 -117 53 -117 117c0 66 54 121 117 121c67 0 121 -55 121 -121c0 -64 -54 -117 -121 -117z" />
    <glyph glyph-name="periodcentered.case" horiz-adv-x="237" 
d="M118 275c-40 0 -73 34 -73 73c0 42 33 75 73 75c41 0 74 -33 74 -75c0 -39 -33 -73 -74 -73z" />
    <glyph glyph-name="brokenbar" unicode="&#xa6;" horiz-adv-x="333" 
d="M162 392c-10 0 -19 8 -19 18v331c0 11 9 19 19 19h10c10 0 18 -8 18 -19v-331c0 -10 -9 -18 -19 -18h-9zM143 49c0 11 9 19 19 19h10c10 0 18 -8 18 -19v-331c0 -10 -9 -18 -19 -18h-9c-10 0 -19 8 -19 18v331z" />
    </font>
</defs>
</svg>
