<?xml version="1.0" standalone="no"?>
<!DOCTYPE svg PUBLIC "-//W3C//DTD SVG 1.1//EN" "http://www.w3.org/Graphics/SVG/1.1/DTD/svg11.dtd" >
<svg xmlns="http://www.w3.org/2000/svg" xmlns:xlink="http://www.w3.org/1999/xlink" version="1.1">
<metadata>
Created by FontForge 20190801 at Thu Jun 10 13:22:20 2021
 By root
Copyright 2018 IBM Corp. All rights reserved.
</metadata>
<defs>
<font id="IBMPlexSans-SemiBold" horiz-adv-x="600" >
  <font-face 
    font-family="IBM Plex Sans SemiBold"
    font-weight="600"
    font-stretch="normal"
    units-per-em="1000"
    panose-1="2 11 7 3 5 2 3 0 2 3"
    ascent="780"
    descent="-220"
    x-height="522"
    cap-height="698"
    bbox="-293 -266 1305 1141"
    underline-thickness="88"
    underline-position="-119"
    unicode-range="U+000D-FB02"
  />
<missing-glyph horiz-adv-x="472" 
d="M32 0v780h408v-780h-408zM120 88h232v604h-232v-604z" />
    <glyph glyph-name="fi" unicode="fi" horiz-adv-x="624" 
d="M100 421h-77v101h77v75q0 69 36.5 106t107.5 37h91v-102h-107v-116h322v-522h-128v421h-194v-421h-128v421zM486 598q-40 0 -57.5 18t-17.5 46v20q0 28 17.5 46t57.5 18q39 0 57 -18t18 -46v-20q0 -28 -18 -46t-57 -18z" />
    <glyph glyph-name=".notdef" horiz-adv-x="472" 
d="M32 0v780h408v-780h-408zM120 88h232v604h-232v-604z" />
    <glyph glyph-name=".null" horiz-adv-x="0" 
 />
    <glyph glyph-name=".null" horiz-adv-x="0" 
 />
    <glyph glyph-name="uni000D" unicode="&#xd;" horiz-adv-x="236" 
 />
    <glyph glyph-name="space" unicode=" " horiz-adv-x="236" 
 />
    <glyph glyph-name="a" unicode="a" horiz-adv-x="559" 
d="M458 0q-42 0 -66.5 24.5t-30.5 65.5h-6q-13 -51 -53 -76.5t-99 -25.5q-80 0 -123 42t-43 112q0 81 58 120.5t165 39.5h89v38q0 44 -23 68t-74 24q-45 0 -72.5 -19.5t-46.5 -46.5l-76 68q29 45 77 72.5t127 27.5q106 0 161 -48t55 -138v-246h52v-102h-71zM246 81
q43 0 73 19t30 56v69h-82q-100 0 -100 -64v-17q0 -32 20.5 -47.5t58.5 -15.5z" />
    <glyph glyph-name="a.alt01" 
d="M398 87h-5q-14 -45 -53 -72t-91 -27q-99 0 -151.5 71t-52.5 203q0 131 52.5 201.5t151.5 70.5q52 0 91 -26.5t53 -71.5h5v86h128v-522h-128v87zM290 94q46 0 77 22t31 63v166q0 38 -31 61t-77 23q-50 0 -80.5 -33.5t-30.5 -89.5v-90q0 -56 30.5 -89t80.5 -33z" />
    <glyph glyph-name="b" unicode="b" 
d="M74 740h128v-304h4q14 45 53 71.5t91 26.5q100 0 152.5 -70.5t52.5 -201.5q0 -132 -52.5 -203t-152.5 -71q-52 0 -90.5 27t-53.5 72h-4v-87h-128v740zM309 94q50 0 81 33t31 89v90q0 56 -31 89.5t-81 33.5q-46 0 -76.5 -23t-30.5 -61v-166q0 -41 30.5 -63t76.5 -22z" />
    <glyph glyph-name="c" unicode="c" horiz-adv-x="513" 
d="M280 -12q-58 0 -103 19t-75.5 55t-46.5 86.5t-16 113.5t16 113t46.5 85.5t75.5 54.5t103 19q79 0 130.5 -35t74.5 -97l-105 -47q-9 33 -33.5 54.5t-66.5 21.5q-54 0 -80.5 -34t-26.5 -89v-95q0 -55 26.5 -88.5t80.5 -33.5q46 0 71 23.5t39 58.5l98 -47
q-26 -69 -79 -103.5t-129 -34.5z" />
    <glyph glyph-name="d" unicode="d" 
d="M398 87h-5q-14 -45 -53 -72t-91 -27q-99 0 -151.5 71t-52.5 203q0 131 52.5 201.5t151.5 70.5q52 0 91 -26.5t53 -71.5h5v304h128v-740h-128v87zM290 94q46 0 77 22t31 63v166q0 38 -31 61t-77 23q-50 0 -80.5 -33.5t-30.5 -89.5v-90q0 -56 30.5 -89t80.5 -33z" />
    <glyph glyph-name="e" unicode="e" horiz-adv-x="558" 
d="M285 -12q-58 0 -103.5 19.5t-77 55t-48.5 86t-17 113.5q0 62 16.5 112t47.5 85.5t76 55t102 19.5q61 0 106 -21t74 -57t43.5 -83.5t14.5 -101.5v-42h-347v-13q0 -57 32 -91.5t95 -34.5q48 0 78.5 20t54.5 51l69 -77q-32 -45 -87.5 -70.5t-128.5 -25.5zM283 438
q-51 0 -81 -34t-30 -88v-8h214v9q0 54 -26.5 87.5t-76.5 33.5z" />
    <glyph glyph-name="f" unicode="f" horiz-adv-x="350" 
d="M100 421h-77v101h77v75q0 69 36.5 106t107.5 37h91v-102h-107v-116h107v-101h-107v-421h-128v421z" />
    <glyph glyph-name="g" unicode="g" horiz-adv-x="545" 
d="M545 -44q0 -41 -14.5 -72.5t-47.5 -52.5t-85 -32t-127 -11q-66 0 -112 8.5t-75.5 24t-42.5 38.5t-13 52q0 44 24.5 68.5t68.5 31.5v11q-32 8 -49.5 31.5t-17.5 55.5q0 20 8 35.5t21.5 26.5t30.5 18.5t36 11.5v4q-48 22 -71.5 61t-23.5 91q0 80 55 128.5t161 48.5
q24 0 47.5 -3t43.5 -10v17q0 76 74 76h81v-98h-111v-14q41 -23 61 -60t20 -85q0 -79 -54.5 -127t-161.5 -48q-46 0 -80 9q-15 -7 -26 -18.5t-11 -28.5q0 -39 68 -39h140q96 0 139.5 -39.5t43.5 -109.5zM425 -59q0 25 -20 39t-69 14h-178q-27 -20 -27 -54q0 -30 25 -47
t85 -17h64q63 0 91.5 16t28.5 49zM271 269q94 0 94 80v17q0 80 -94 80t-94 -80v-17q0 -80 94 -80z" />
    <glyph glyph-name="g.alt01" 
d="M526 28q0 -114 -62.5 -177t-186.5 -63q-72 0 -121 21t-79 53l70 82q51 -54 128 -54q62 0 92.5 33t30.5 93v81h-5q-14 -45 -52.5 -72t-91.5 -27q-99 0 -151.5 70t-52.5 198t52.5 198t151.5 70q52 0 91 -27t53 -72h5v87h128v-494zM291 104q46 0 76.5 22t30.5 63v156
q0 38 -30.5 61t-76.5 23q-50 0 -81 -34t-31 -89v-79q0 -55 31 -89t81 -34z" />
    <glyph glyph-name="g.alt02" horiz-adv-x="553" 
d="M545 -44q0 -41 -14.5 -72.5t-47.5 -52.5t-85 -32t-127 -11q-66 0 -112 8.5t-75.5 24t-42.5 38.5t-13 52q0 44 24.5 68.5t68.5 31.5v11q-32 8 -49.5 31.5t-17.5 55.5q0 20 8 35.5t21.5 26.5t30.5 18.5t36 11.5v4q-48 22 -71.5 61t-23.5 91q0 80 55 128.5t161 48.5
q23 0 47.5 -2.5t44.5 -9.5h171v-88h-69q22 -33 22 -77q0 -79 -54.5 -127t-161.5 -48q-46 0 -80 9q-15 -7 -26 -18.5t-11 -28.5q0 -39 68 -39h140q96 0 139.5 -39.5t43.5 -109.5zM271 269q94 0 94 80v17q0 80 -94 80t-94 -80v-17q0 -80 94 -80zM425 -59q0 25 -20 39t-69 14
h-178q-27 -20 -27 -54q0 -30 25 -47t85 -17h64q63 0 91.5 16t28.5 49z" />
    <glyph glyph-name="h" unicode="h" horiz-adv-x="588" 
d="M74 740h128v-305h5q16 42 50.5 70.5t95.5 28.5q81 0 124 -53t43 -151v-330h-128v317q0 56 -20 84t-66 28q-20 0 -38.5 -5.5t-33 -16t-23.5 -26t-9 -36.5v-345h-128v740z" />
    <glyph glyph-name="i" unicode="i" horiz-adv-x="276" 
d="M138 598q-40 0 -57.5 18t-17.5 46v20q0 28 17.5 46t57.5 18q39 0 57 -18t18 -46v-20q0 -28 -18 -46t-57 -18zM74 522h128v-522h-128v522z" />
    <glyph glyph-name="j" unicode="j" horiz-adv-x="276" 
d="M74 522h128v-585q0 -66 -33 -101.5t-105 -35.5h-70v102h80v620zM138 598q-40 0 -57.5 18t-17.5 46v20q0 28 17.5 46t57.5 18q39 0 57 -18t18 -46v-20q0 -28 -18 -46t-57 -18z" />
    <glyph glyph-name="k" unicode="k" horiz-adv-x="562" 
d="M74 740h128v-446h5l69 94l117 134h145l-180 -202l199 -320h-152l-134 234l-69 -75v-159h-128v740z" />
    <glyph glyph-name="l" unicode="l" horiz-adv-x="294" 
d="M202 0q-66 0 -97 33t-31 93v614h128v-638h69v-102h-69z" />
    <glyph glyph-name="m" unicode="m" horiz-adv-x="888" 
d="M74 0v522h128v-87h5q15 41 48 70t92 29q54 0 93 -26t58 -79h2q14 44 55.5 74.5t104.5 30.5q77 0 118.5 -53t41.5 -151v-330h-128v317q0 112 -84 112q-19 0 -36.5 -5.5t-31 -16t-21.5 -26t-8 -36.5v-345h-128v317q0 112 -84 112q-18 0 -35.5 -5.5t-31 -16t-22 -26
t-8.5 -36.5v-345h-128z" />
    <glyph glyph-name="n" unicode="n" horiz-adv-x="588" 
d="M74 0v522h128v-87h5q16 42 50.5 70.5t95.5 28.5q81 0 124 -53t43 -151v-330h-128v317q0 56 -20 84t-66 28q-20 0 -38.5 -5.5t-33 -16t-23.5 -26t-9 -36.5v-345h-128z" />
    <glyph glyph-name="o" unicode="o" horiz-adv-x="563" 
d="M281 -12q-56 0 -100.5 19t-76 55t-48.5 86.5t-17 113.5t17 113t48.5 85.5t76 54.5t100.5 19t101 -19t76.5 -54.5t48.5 -85.5t17 -113t-17 -113.5t-48.5 -86.5t-76.5 -55t-101 -19zM281 91q51 0 80 31t29 91v97q0 59 -29 90t-80 31q-50 0 -79 -31t-29 -90v-97
q0 -60 29 -91t79 -31z" />
    <glyph glyph-name="p" unicode="p" 
d="M74 522h128v-86h4q14 45 53 71.5t91 26.5q100 0 152.5 -70.5t52.5 -201.5q0 -132 -52.5 -203t-152.5 -71q-52 0 -90.5 27t-53.5 72h-4v-287h-128v722zM309 94q50 0 81 33t31 89v90q0 56 -31 89.5t-81 33.5q-46 0 -76.5 -23t-30.5 -61v-166q0 -41 30.5 -63t76.5 -22z" />
    <glyph glyph-name="q" unicode="q" 
d="M398 87h-5q-14 -45 -53 -72t-91 -27q-99 0 -151.5 71t-52.5 203q0 131 52.5 201.5t151.5 70.5q52 0 91 -26.5t53 -71.5h5v86h128v-722h-128v287zM290 94q46 0 77 22t31 63v166q0 38 -31 61t-77 23q-50 0 -80.5 -33.5t-30.5 -89.5v-90q0 -56 30.5 -89t80.5 -33z" />
    <glyph glyph-name="r" unicode="r" horiz-adv-x="393" 
d="M74 0v522h128v-108h5q5 21 15.5 40.5t27.5 34.5t40.5 24t54.5 9h28v-121h-40q-65 0 -98 -19t-33 -62v-320h-128z" />
    <glyph glyph-name="s" unicode="s" horiz-adv-x="499" 
d="M245 -12q-75 0 -126 25.5t-90 70.5l78 76q29 -33 63.5 -52t79.5 -19q46 0 66.5 16t20.5 44q0 23 -14.5 36.5t-49.5 18.5l-52 7q-85 11 -129.5 48.5t-44.5 109.5q0 38 14 68.5t40 52t62.5 33t81.5 11.5q38 0 67.5 -5.5t53.5 -16t44 -26t39 -34.5l-75 -75q-23 24 -55 40
t-70 16q-42 0 -60.5 -15t-18.5 -39q0 -26 15.5 -39.5t52.5 -19.5l53 -7q169 -24 169 -154q0 -38 -15.5 -69.5t-43.5 -54t-67.5 -35t-88.5 -12.5z" />
    <glyph glyph-name="t" unicode="t" horiz-adv-x="374" 
d="M237 0q-66 0 -100.5 34.5t-34.5 98.5v287h-77v102h40q29 0 39.5 13.5t10.5 40.5v89h115v-143h107v-102h-107v-318h99v-102h-92z" />
    <glyph glyph-name="u" unicode="u" horiz-adv-x="588" 
d="M386 87h-5q-7 -20 -18.5 -37.5t-29 -31.5t-42 -22t-56.5 -8q-81 0 -124 53t-43 151v330h128v-317q0 -54 21 -82.5t67 -28.5q19 0 37.5 5t32.5 15.5t23 26t9 36.5v345h128v-522h-128v87z" />
    <glyph glyph-name="v" unicode="v" horiz-adv-x="524" 
d="M186 0l-174 522h126l73 -225l51 -186h7l51 186l71 225h122l-175 -522h-152z" />
    <glyph glyph-name="w" unicode="w" horiz-adv-x="819" 
d="M23 522h123l53 -215l41 -179h4l48 179l61 215h116l63 -215l49 -179h4l41 179l52 215h119l-143 -522h-138l-67 230l-39 142h-3l-38 -142l-66 -230h-136z" />
    <glyph glyph-name="x" unicode="x" horiz-adv-x="544" 
d="M19 0l178 265l-174 257h146l108 -173h4l107 173h136l-177 -259l178 -263h-146l-110 180h-4l-110 -180h-136z" />
    <glyph glyph-name="y" unicode="y" horiz-adv-x="524" 
d="M394 522h120l-210 -615q-10 -28 -22.5 -48.5t-29.5 -33.5t-41 -19t-56 -6h-77v102h94l24 73l-187 547h127l91 -276l34 -132h6l36 132z" />
    <glyph glyph-name="z" unicode="z" horiz-adv-x="502" 
d="M37 0v102l271 319h-262v101h412v-99l-273 -321h280v-102h-428z" />
    <glyph glyph-name="A" unicode="A" horiz-adv-x="672" 
d="M514 0l-56 178h-248l-55 -178h-134l234 698h164l232 -698h-137zM336 578h-5l-89 -287h184z" />
    <glyph glyph-name="B" unicode="B" horiz-adv-x="663" 
d="M82 698h323q43 0 77.5 -13t58.5 -36t36.5 -56.5t12.5 -73.5t-10.5 -67.5t-28 -45.5t-40 -27t-46.5 -10v-6q23 0 49.5 -9t49 -28.5t37.5 -50t15 -75.5q0 -42 -13.5 -78.5t-37.5 -63.5t-57 -42.5t-72 -15.5h-354v698zM214 112h184q38 0 59 19.5t21 56.5v34q0 37 -21 57
t-59 20h-184v-187zM214 407h163q36 0 56 19.5t20 54.5v31q0 35 -20 54.5t-56 19.5h-163v-179z" />
    <glyph glyph-name="C" unicode="C" horiz-adv-x="642" 
d="M353 -12q-69 0 -124.5 22.5t-95 67.5t-60.5 111.5t-21 154.5t21 156.5t60.5 115t95 70.5t124.5 24q94 0 156 -40t99 -121l-113 -60q-15 47 -49 75.5t-93 28.5q-74 0 -117.5 -50t-43.5 -140v-110q0 -91 43.5 -139.5t117.5 -48.5q59 0 96.5 32t54.5 79l107 -63
q-38 -78 -101 -121.5t-157 -43.5z" />
    <glyph glyph-name="D" unicode="D" horiz-adv-x="689" 
d="M82 698h254q68 0 123.5 -22t95 -65.5t61 -109t21.5 -152.5t-21.5 -152.5t-61 -109t-95 -65.5t-123.5 -22h-254v698zM336 117q74 0 117.5 43.5t43.5 133.5v110q0 90 -43.5 133.5t-117.5 43.5h-122v-464h122z" />
    <glyph glyph-name="E" unicode="E" 
d="M82 0v698h460v-117h-328v-169h290v-117h-290v-178h328v-117h-460z" />
    <glyph glyph-name="F" unicode="F" horiz-adv-x="577" 
d="M82 0v698h449v-117h-317v-169h276v-117h-276v-295h-132z" />
    <glyph glyph-name="G" unicode="G" horiz-adv-x="712" 
d="M527 108h-4q-9 -51 -56.5 -85.5t-126.5 -34.5q-62 0 -114.5 23t-91 68.5t-60.5 112.5t-22 155t22.5 155.5t63.5 113.5t98 70t127 24q94 0 160 -41t104 -118l-107 -63q-19 45 -56.5 75t-100.5 30q-78 0 -124.5 -47.5t-46.5 -140.5v-112q0 -92 47 -140t126 -48q31 0 58 7.5
t47 22.5t32 37t12 52v45h-137v111h264v-380h-114v108z" />
    <glyph glyph-name="H" unicode="H" horiz-adv-x="719" 
d="M505 295h-291v-295h-132v698h132v-286h291v286h132v-698h-132v295z" />
    <glyph glyph-name="I" unicode="I" horiz-adv-x="423" 
d="M53 0v106h92v486h-92v106h317v-106h-93v-486h93v-106h-317z" />
    <glyph glyph-name="J" unicode="J" horiz-adv-x="545" 
d="M467 698v-502q0 -47 -15.5 -85t-44 -65t-69.5 -42t-92 -15q-97 0 -151 50.5t-69 134.5l122 25q9 -45 32.5 -69.5t64.5 -24.5q39 0 64.5 24.5t25.5 75.5v385h-220v108h352z" />
    <glyph glyph-name="K" unicode="K" horiz-adv-x="678" 
d="M307 316l-93 -110v-206h-132v698h132v-344h5l99 131l173 213h152l-243 -291l263 -407h-157z" />
    <glyph glyph-name="L" unicode="L" horiz-adv-x="521" 
d="M82 0v698h132v-581h275v-117h-407z" />
    <glyph glyph-name="M" unicode="M" horiz-adv-x="816" 
d="M609 501h-4l-54 -111l-143 -264l-143 264l-54 111h-4v-501h-125v698h149l179 -341h4l177 341h143v-698h-125v501z" />
    <glyph glyph-name="N" unicode="N" horiz-adv-x="719" 
d="M282 358l-72 145h-3v-503h-125v698h145l210 -358l72 -145h3v503h125v-698h-145z" />
    <glyph glyph-name="O" unicode="O" horiz-adv-x="712" 
d="M356 -12q-69 0 -125 23t-95.5 69t-61.5 113t-22 156q0 88 22 155.5t61.5 113.5t95.5 69t125 23t125 -23t96 -69t61.5 -113.5t21.5 -155.5q0 -89 -21.5 -156t-61.5 -113t-96 -69t-125 -23zM356 105q75 0 119.5 50t44.5 140v108q0 90 -44.5 140t-119.5 50t-119.5 -50
t-44.5 -140v-108q0 -90 44.5 -140t119.5 -50z" />
    <glyph glyph-name="P" unicode="P" horiz-adv-x="641" 
d="M82 0v698h314q48 0 86.5 -15.5t65.5 -44t41 -68.5t14 -88q0 -49 -14 -88.5t-41 -68t-65.5 -44t-86.5 -15.5h-182v-266h-132zM214 380h170q38 0 60 20.5t22 58.5v46q0 38 -22 58t-60 20h-170v-203z" />
    <glyph glyph-name="Q" unicode="Q" horiz-adv-x="712" 
d="M532 -178h-97q-69 0 -101.5 33.5t-32.5 94.5v42q-114 17 -181.5 108t-67.5 249q0 88 22 155.5t61.5 113.5t95.5 69t125 23t125 -23t96 -69t61.5 -113.5t21.5 -155.5q0 -155 -63 -244t-172 -110v-65h107v-108zM356 105q75 0 119.5 50t44.5 140v108q0 90 -44.5 140
t-119.5 50t-119.5 -50t-44.5 -140v-108q0 -90 44.5 -140t119.5 -50z" />
    <glyph glyph-name="R" unicode="R" horiz-adv-x="664" 
d="M214 0h-132v698h315q48 0 86 -15t64.5 -43.5t41 -68.5t14.5 -89q0 -72 -32.5 -124t-97.5 -74l143 -284h-147l-130 269h-125v-269zM384 380q38 0 60 20.5t22 58.5v46q0 38 -22 58t-60 20h-170v-203h170z" />
    <glyph glyph-name="S" unicode="S" horiz-adv-x="611" 
d="M299 -12q-90 0 -152.5 32t-107.5 84l89 86q36 -42 80.5 -64t98.5 -22q61 0 92 26.5t31 71.5q0 35 -20 57t-75 32l-66 10q-209 33 -209 203q0 47 17.5 85t50.5 65t79.5 41.5t105.5 14.5q79 0 138 -26t101 -77l-90 -85q-26 32 -63 52t-93 20q-57 0 -85.5 -21.5t-28.5 -60.5
q0 -40 23 -59t74 -28l65 -12q106 -19 156.5 -67.5t50.5 -135.5q0 -50 -17.5 -90.5t-51 -70t-82 -45.5t-111.5 -16z" />
    <glyph glyph-name="T" unicode="T" horiz-adv-x="580" 
d="M356 581v-581h-132v581h-198v117h528v-117h-198z" />
    <glyph glyph-name="U" unicode="U" horiz-adv-x="690" 
d="M207 698v-429q0 -82 31.5 -123t106.5 -41t106.5 41t31.5 123v429h130v-412q0 -77 -14.5 -133t-46.5 -93t-83.5 -54.5t-124.5 -17.5q-74 0 -124.5 17.5t-82.5 54.5t-46 93t-14 133v412h130z" />
    <glyph glyph-name="V" unicode="V" horiz-adv-x="638" 
d="M244 0l-228 698h135l107 -340l62 -232h3l61 232l107 340h131l-228 -698h-150z" />
    <glyph glyph-name="W" unicode="W" horiz-adv-x="949" 
d="M188 0l-162 698h132l69 -335l43 -214h3l50 214l80 335h146l80 -335l49 -214h3l44 214l71 335h126l-167 -698h-149l-89 369l-43 184h-2l-45 -184l-89 -369h-150z" />
    <glyph glyph-name="X" unicode="X" horiz-adv-x="655" 
d="M637 0h-154l-160 268h-3l-158 -268h-144l226 358l-216 340h154l148 -248h3l150 248h144l-218 -340z" />
    <glyph glyph-name="Y" unicode="Y" horiz-adv-x="632" 
d="M249 0v274l-239 424h148l161 -295h2l157 295h144l-240 -423v-275h-133z" />
    <glyph glyph-name="Z" unicode="Z" horiz-adv-x="599" 
d="M561 0h-523v118l361 463h-343v117h495v-118l-362 -463h372v-117z" />
    <glyph glyph-name="zero" unicode="0" 
d="M300 -12q-67 0 -116 24.5t-81 70.5t-47.5 113t-15.5 153q0 85 15.5 152.5t47.5 113.5t81 70.5t116 24.5q133 0 196.5 -95t63.5 -266t-63.5 -266t-196.5 -95zM300 99q67 0 93.5 50.5t26.5 136.5v126q0 86 -26.5 136.5t-93.5 50.5t-93.5 -50.5t-26.5 -136.5v-126
q0 -86 26.5 -136.5t93.5 -50.5z" />
    <glyph glyph-name="zero.alt01" 
d="M300 -12q-67 0 -116 24.5t-81 70.5t-47.5 113t-15.5 153q0 85 15.5 152.5t47.5 113.5t81 70.5t116 24.5q133 0 196.5 -95t63.5 -266t-63.5 -266t-196.5 -95zM300 99q34 0 57 13t37.5 37.5t21 59t6.5 77.5v126q0 43 -6.5 77.5t-21 59t-37.5 37.5t-57 13t-57 -13
t-37.5 -37.5t-21 -59t-6.5 -77.5v-126q0 -43 6.5 -77.5t21 -59t37.5 -37.5t57 -13zM301 288q-30 0 -45 15.5t-15 39.5v13q0 23 15 39t45 16q31 0 45.5 -16t14.5 -39v-13q0 -24 -14.5 -39.5t-45.5 -15.5z" />
    <glyph glyph-name="zero.alt02" 
d="M300 -12q-67 0 -116 24.5t-81 70.5t-47.5 113t-15.5 153q0 85 15.5 152.5t47.5 113.5t81 70.5t116 24.5q133 0 196.5 -95t63.5 -266t-63.5 -266t-196.5 -95zM300 99q67 0 93.5 50.5t26.5 136.5v139l-226 -248q13 -38 38.5 -58t67.5 -20zM180 276l225 248q-13 36 -38 55.5
t-67 19.5q-67 0 -93.5 -50.5t-26.5 -136.5v-136z" />
    <glyph glyph-name="one" unicode="1" 
d="M91 0v107h192v496h-9l-152 -180l-82 69l173 206h199v-591h160v-107h-481z" />
    <glyph glyph-name="two" unicode="2" 
d="M546 0h-484v122l219 192q56 49 82 88.5t26 85.5v13q0 46 -30 70.5t-73 24.5q-54 0 -82 -30.5t-40 -73.5l-114 44q11 35 31 66.5t50.5 55.5t71.5 38t94 14q55 0 98 -15.5t72.5 -43.5t45 -66t15.5 -83q0 -44 -14 -80t-38 -68.5t-56 -62t-68 -59.5l-147 -121h341v-111z" />
    <glyph glyph-name="three" unicode="3" 
d="M262 416q60 0 88.5 24.5t28.5 62.5v7q0 43 -27.5 67.5t-75.5 24.5q-46 0 -81.5 -22t-61.5 -62l-84 76q18 24 39.5 45.5t49.5 37t63 24.5t79 9q53 0 96.5 -12.5t75 -36.5t48.5 -57.5t17 -75.5q0 -34 -10.5 -61t-29 -47t-43 -32.5t-51.5 -18.5v-6q30 -6 57 -19t46.5 -34.5
t31 -50.5t11.5 -66q0 -46 -18.5 -84t-52.5 -65t-81 -41.5t-105 -14.5q-51 0 -90 10.5t-68.5 28.5t-51.5 41.5t-38 49.5l97 74q12 -21 26 -38.5t32 -30.5t41 -20t52 -7q58 0 89 28t31 77v7q0 48 -33.5 73t-96.5 25h-69v110h69z" />
    <glyph glyph-name="four" unicode="4" 
d="M348 0v135h-316v112l278 451h163v-461h91v-102h-91v-135h-125zM140 237h208v333h-8z" />
    <glyph glyph-name="five" unicode="5" 
d="M515 584h-314l-16 -234h7q11 22 24 41t30 32t39.5 20.5t54.5 7.5q45 0 84 -15t67.5 -43.5t45 -69.5t16.5 -93q0 -53 -17 -97t-50 -76.5t-81 -50.5t-110 -18q-48 0 -86 10.5t-67 28.5t-50 41.5t-37 49.5l96 74q12 -20 25 -37.5t30.5 -30.5t39 -20.5t50.5 -7.5
q59 0 89.5 33t30.5 90v8q0 54 -31 85t-86 31q-43 0 -70 -16.5t-43 -35.5l-108 15l26 392h411v-114z" />
    <glyph glyph-name="six" unicode="6" 
d="M303 -12q-60 0 -107 19.5t-80 55t-50 86t-17 113.5q0 75 22.5 141.5t58.5 122t80.5 99t88.5 73.5h178q-62 -44 -110.5 -85t-85 -83t-60 -87.5t-35.5 -98.5l8 -2q10 20 23.5 38.5t32.5 33t44 23t58 8.5q43 0 80.5 -15t65 -43.5t43 -68.5t15.5 -89q0 -53 -18 -97t-51 -76
t-79.5 -50t-104.5 -18zM303 92q55 0 86.5 30.5t31.5 87.5v15q0 57 -31.5 87.5t-86.5 30.5q-56 0 -87 -30.5t-31 -87.5v-15q0 -57 31 -87.5t87 -30.5z" />
    <glyph glyph-name="seven" unicode="7" 
d="M169 0l243 591h-241v-128h-112v235h484v-113l-236 -585h-138z" />
    <glyph glyph-name="eight" unicode="8" 
d="M300 -12q-61 0 -108.5 15.5t-80 42.5t-49.5 64t-17 81q0 68 37.5 110.5t100.5 59.5v8q-52 19 -84.5 59t-32.5 101q0 40 15.5 73t45.5 57t73.5 37.5t99.5 13.5t99.5 -13.5t73.5 -37.5t45.5 -57t15.5 -73q0 -61 -32.5 -101t-84.5 -59v-8q63 -17 100.5 -59.5t37.5 -110.5
q0 -44 -17 -81t-49.5 -64t-80 -42.5t-108.5 -15.5zM300 91q57 0 87.5 26t30.5 73v21q0 47 -30.5 73t-87.5 26t-87.5 -26t-30.5 -73v-21q0 -47 30.5 -73t87.5 -26zM300 408q53 0 81 24t28 68v16q0 43 -28 67t-81 24t-81 -24t-28 -67v-16q0 -44 28 -68t81 -24z" />
    <glyph glyph-name="nine" unicode="9" 
d="M551 436q0 -75 -22.5 -141.5t-58.5 -122t-80.5 -99t-88.5 -73.5h-178q61 44 110 85t85.5 83t60 87.5t35.5 98.5l-8 2q-10 -20 -23.5 -39t-32.5 -33t-44 -22.5t-58 -8.5q-44 0 -81 15t-64.5 43.5t-43 68t-15.5 89.5q0 53 18 97t51 76t79.5 50t104.5 18q60 0 107 -19.5
t80 -55t50 -86t17 -113.5zM297 355q56 0 87 30.5t31 87.5v15q0 57 -31 87.5t-87 30.5q-55 0 -86.5 -30.5t-31.5 -87.5v-15q0 -57 31.5 -87.5t86.5 -30.5z" />
    <glyph glyph-name="ampersand" unicode="&#x26;" horiz-adv-x="713" 
d="M488 64q-15 -13 -34 -26.5t-43.5 -24.5t-55 -18t-68.5 -7q-56 0 -99.5 15t-72.5 41t-44 61.5t-15 76.5q0 37 11 65.5t30 52t45 42t55 35.5q-31 35 -54.5 76.5t-23.5 89.5q0 34 14 64.5t40.5 53.5t63.5 36t83 13q41 0 76 -11t60.5 -31t40 -49t14.5 -66q0 -33 -11.5 -60.5
t-31.5 -50t-46 -42t-56 -36.5l122 -132q14 34 21.5 72t9.5 76h157v-107h-65q-15 -68 -46 -124l138 -149h-157zM316 611q-32 0 -53 -18.5t-21 -49.5v-7q0 -23 14.5 -45.5t45.5 -57.5q38 23 62.5 48t24.5 58v6q0 32 -21.5 49t-51.5 17zM304 95q36 0 65 11t51 30l-159 172
q-35 -21 -54.5 -44.5t-19.5 -59.5v-11q0 -44 30 -71t87 -27z" />
    <glyph glyph-name="at" unicode="@" horiz-adv-x="899" 
d="M674 -121h-216q-93 0 -166.5 30t-124.5 84t-78 129.5t-27 167.5t28 169t79.5 132.5t125 86.5t165.5 31q82 0 151.5 -25t120.5 -73t79.5 -118.5t28.5 -161.5q0 -57 -12 -103.5t-35.5 -80t-57.5 -51.5t-78 -18q-52 0 -83 25t-35 67h-5q-13 -42 -41 -66t-76 -24
q-34 0 -63 13.5t-50.5 39.5t-34 65.5t-12.5 91.5t12.5 92t34 66t50.5 39.5t63 13.5q42 0 68.5 -22.5t37.5 -54.5h5v68h98v-279q0 -29 12 -42t35 -13q38 0 60 40t22 119v33q0 65 -22 117t-61.5 88t-93.5 55.5t-118 19.5q-71 0 -128.5 -24t-98.5 -66t-63 -100t-22 -127v-44
q0 -69 22 -126t62.5 -98t97.5 -63.5t128 -22.5h216v-80zM450 163q33 0 55.5 21.5t22.5 50.5v118q0 28 -22 46.5t-56 18.5q-42 0 -64.5 -25.5t-22.5 -66.5v-71q0 -42 22.5 -67t64.5 -25z" />
    <glyph glyph-name="hyphen" unicode="-" horiz-adv-x="402" 
d="M58 241v127h286v-127h-286z" />
    <glyph glyph-name="uni00AD" unicode="&#xad;" horiz-adv-x="402" 
d="M58 241v127h286v-127h-286z" />
    <glyph glyph-name="endash" unicode="&#x2013;" horiz-adv-x="588" 
d="M36 250v108h516v-108h-516z" />
    <glyph glyph-name="emdash" unicode="&#x2014;" horiz-adv-x="780" 
d="M36 250v108h708v-108h-708z" />
    <glyph glyph-name="underscore" unicode="_" horiz-adv-x="559" 
d="M30 -183v108h499v-108h-499z" />
    <glyph glyph-name="period" unicode="." horiz-adv-x="298" 
d="M149 -11q-41 0 -60.5 20.5t-19.5 52.5v18q0 32 19.5 53t60.5 21q42 0 61 -21t19 -53v-18q0 -32 -19 -52.5t-61 -20.5z" />
    <glyph glyph-name="ellipsis" unicode="&#x2026;" horiz-adv-x="868" 
d="M149 -11q-41 0 -60.5 20.5t-19.5 52.5v18q0 32 19.5 53t60.5 21q42 0 61 -21t19 -53v-18q0 -32 -19 -52.5t-61 -20.5zM434 -11q-41 0 -60.5 20.5t-19.5 52.5v18q0 32 19.5 53t60.5 21q42 0 61 -21t19 -53v-18q0 -32 -19 -52.5t-61 -20.5zM719 -11q-41 0 -60.5 20.5
t-19.5 52.5v18q0 32 19.5 53t60.5 21q42 0 61 -21t19 -53v-18q0 -32 -19 -52.5t-61 -20.5z" />
    <glyph glyph-name="colon" unicode=":" horiz-adv-x="318" 
d="M159 -11q-41 0 -60.5 20.5t-19.5 52.5v18q0 32 19.5 53t60.5 21q42 0 61 -21t19 -53v-18q0 -32 -19 -52.5t-61 -20.5zM159 368q-41 0 -60.5 20.5t-19.5 52.5v18q0 32 19.5 53t60.5 21q42 0 61 -21t19 -53v-18q0 -32 -19 -52.5t-61 -20.5z" />
    <glyph glyph-name="comma" unicode="," horiz-adv-x="298" 
d="M149 154q41 0 60.5 -21t19.5 -53v-18q0 -27 -7.5 -56t-21 -56t-32 -51t-41.5 -42h-91q34 33 57 64.5t35 69.5q-31 5 -45 24.5t-14 46.5v18q0 32 19 53t61 21z" />
    <glyph glyph-name="semicolon" unicode=";" horiz-adv-x="318" 
d="M159 154q41 0 60.5 -21t19.5 -53v-18q0 -27 -7.5 -56t-21 -56t-32 -51t-41.5 -42h-91q34 33 57 64.5t35 69.5q-31 5 -45 24.5t-14 46.5v18q0 32 19 53t61 21zM158 368q-41 0 -60.5 20.5t-19.5 52.5v18q0 32 19.5 53t60.5 21q42 0 61 -21t19 -53v-18q0 -32 -19 -52.5
t-61 -20.5z" />
    <glyph glyph-name="uni037E" unicode="&#x37e;" horiz-adv-x="318" 
d="M159 154q41 0 60.5 -21t19.5 -53v-18q0 -27 -7.5 -56t-21 -56t-32 -51t-41.5 -42h-91q34 33 57 64.5t35 69.5q-31 5 -45 24.5t-14 46.5v18q0 32 19 53t61 21zM158 368q-41 0 -60.5 20.5t-19.5 52.5v18q0 32 19.5 53t60.5 21q42 0 61 -21t19 -53v-18q0 -32 -19 -52.5
t-61 -20.5z" />
    <glyph glyph-name="quotesingle" unicode="'" horiz-adv-x="260" 
d="M73 428v312h114v-312h-114z" />
    <glyph glyph-name="quotedbl" unicode="&#x22;" horiz-adv-x="471" 
d="M73 428v312h114v-312h-114zM284 428v312h114v-312h-114z" />
    <glyph glyph-name="quoteleft" unicode="&#x2018;" horiz-adv-x="292" 
d="M143 455q-41 0 -59.5 19.5t-18.5 48.5v19q0 27 8 54.5t21.5 53.5t32.5 49t41 41h86q-32 -31 -54 -61t-33 -67q29 -6 42 -24.5t13 -42.5v-22q0 -29 -18.5 -48.5t-60.5 -19.5z" />
    <glyph glyph-name="quoteright" unicode="&#x2019;" horiz-adv-x="292" 
d="M149 750q41 0 59.5 -19.5t18.5 -48.5v-19q0 -27 -7.5 -54.5t-21.5 -53.5t-33 -49t-41 -41h-86q32 30 54 60.5t33 67.5q-29 5 -42 23.5t-13 43.5v22q0 29 18.5 48.5t60.5 19.5z" />
    <glyph glyph-name="quotedblleft" unicode="&#x201c;" horiz-adv-x="517" 
d="M143 455q-41 0 -59.5 19.5t-18.5 48.5v19q0 27 8 54.5t21.5 53.5t32.5 49t41 41h86q-32 -31 -54 -61t-33 -67q29 -6 42 -24.5t13 -42.5v-22q0 -29 -18.5 -48.5t-60.5 -19.5zM368 455q-41 0 -59.5 19.5t-18.5 48.5v19q0 27 8 54.5t21.5 53.5t32.5 49t41 41h86
q-32 -31 -54 -61t-33 -67q29 -6 42 -24.5t13 -42.5v-22q0 -29 -18.5 -48.5t-60.5 -19.5z" />
    <glyph glyph-name="quotedblright" unicode="&#x201d;" horiz-adv-x="517" 
d="M149 750q41 0 59.5 -19.5t18.5 -48.5v-19q0 -27 -7.5 -54.5t-21.5 -53.5t-33 -49t-41 -41h-86q32 30 54 60.5t33 67.5q-29 5 -42 23.5t-13 43.5v22q0 29 18.5 48.5t60.5 19.5zM374 750q41 0 59.5 -19.5t18.5 -48.5v-19q0 -27 -7.5 -54.5t-21.5 -53.5t-33 -49t-41 -41h-86
q32 30 54 60.5t33 67.5q-29 5 -42 23.5t-13 43.5v22q0 29 18.5 48.5t60.5 19.5z" />
    <glyph glyph-name="quotesinglbase" unicode="&#x201a;" horiz-adv-x="295" 
d="M149 169q42 0 60 -19.5t18 -50.5v-20q0 -54 -28 -106.5t-73 -89.5h-88q33 31 55.5 61t33.5 68q-29 5 -42.5 24t-13.5 43v20q0 31 18 50.5t60 19.5z" />
    <glyph glyph-name="quotedblbase" unicode="&#x201e;" horiz-adv-x="520" 
d="M149 169q42 0 60 -19.5t18 -50.5v-20q0 -54 -28 -106.5t-73 -89.5h-88q33 31 55.5 61t33.5 68q-29 5 -42.5 24t-13.5 43v20q0 31 18 50.5t60 19.5zM374 169q42 0 60 -19.5t18 -50.5v-20q0 -54 -28 -106.5t-73 -89.5h-88q33 31 55.5 61t33.5 68q-29 5 -42.5 24t-13.5 43
v20q0 31 18 50.5t60 19.5z" />
    <glyph glyph-name="guilsinglleft" unicode="&#x2039;" horiz-adv-x="313" 
d="M225 58l-188 162v111l188 162l38 -81l-125 -137l125 -137z" />
    <glyph glyph-name="guilsinglright" unicode="&#x203a;" horiz-adv-x="313" 
d="M175 275l-125 137l38 81l188 -162v-111l-188 -162l-38 80z" />
    <glyph glyph-name="guillemotleft" unicode="&#xab;" horiz-adv-x="545" 
d="M225 58l-188 162v111l188 162l38 -81l-125 -137l125 -137zM457 58l-188 162v111l188 162l38 -81l-125 -137l125 -137z" />
    <glyph glyph-name="guillemotright" unicode="&#xbb;" horiz-adv-x="545" 
d="M175 275l-125 137l38 81l188 -162v-111l-188 -162l-38 80zM407 275l-125 137l38 81l188 -162v-111l-188 -162l-38 80z" />
    <glyph glyph-name="exclamdown" unicode="&#xa1;" horiz-adv-x="309" 
d="M86 -176v197l40 292h56l40 -292v-197h-136zM155 372q-43 0 -62 20t-19 51v21q0 30 19 50t62 20q42 0 61 -20t19 -50v-21q0 -31 -19 -51t-61 -20z" />
    <glyph glyph-name="exclam" unicode="!" horiz-adv-x="309" 
d="M128 210l-41 291v197h136v-197l-39 -291h-56zM155 -12q-43 0 -62 20t-19 51v20q0 31 19 51t62 20q42 0 61 -20t19 -51v-20q0 -31 -19 -51t-61 -20z" />
    <glyph glyph-name="questiondown" unicode="&#xbf;" horiz-adv-x="486" 
d="M254 -188q-51 0 -92 14.5t-70.5 41t-45.5 63.5t-16 82q0 44 14.5 78.5t39.5 60t57 41t67 21.5v83h121v-157q-80 -3 -121.5 -30t-41.5 -85v-14q0 -42 25 -65t67 -23q45 0 73 26.5t38 67.5l108 -44q-9 -31 -26.5 -60t-44.5 -51.5t-65 -36t-87 -13.5zM268 372q-43 0 -62 20
t-19 51v21q0 30 19 50t62 20q42 0 61 -20t19 -50v-21q0 -31 -19 -51t-61 -20z" />
    <glyph glyph-name="question" unicode="?" horiz-adv-x="493" 
d="M164 226v156q80 3 121.5 30.5t41.5 85.5v14q0 42 -25 65t-67 23q-45 0 -72.5 -26.5t-38.5 -68.5l-107 44q9 31 26 60t44 51.5t65 36t88 13.5q51 0 92 -14.5t70 -41t45 -63.5t16 -82q0 -44 -14.5 -78.5t-39.5 -60t-57 -41t-66 -21.5v-82h-122zM226 -12q-42 0 -61 20
t-19 51v20q0 31 19 51t61 20q43 0 62 -20t19 -51v-20q0 -31 -19 -51t-62 -20z" />
    <glyph glyph-name="parenleft" unicode="(" horiz-adv-x="337" 
d="M50 312q0 72 13.5 139t37 124.5t55.5 104.5t70 80h121q-41 -38 -73.5 -84t-55.5 -98.5t-35.5 -110.5t-12.5 -119v-74q0 -62 12.5 -120.5t36 -111t56 -98.5t72.5 -82h-121q-37 31 -69 78t-56 105.5t-37.5 126t-13.5 140.5z" />
    <glyph glyph-name="parenright" unicode=")" horiz-adv-x="337" 
d="M287 312q0 -73 -13.5 -140.5t-37.5 -126t-56 -105.5t-69 -78h-121q40 36 72.5 82t56 98.5t36 111t12.5 120.5v74q0 61 -12.5 119t-35.5 110.5t-55.5 98.5t-73.5 84h121q38 -33 70 -80t55.5 -104.5t37 -124.5t13.5 -139z" />
    <glyph glyph-name="bracketleft" unicode="[" horiz-adv-x="329" 
d="M82 -138v898h194v-92h-77v-714h77v-92h-194z" />
    <glyph glyph-name="bracketright" unicode="]" horiz-adv-x="329" 
d="M247 760v-898h-194v92h77v714h-77v92h194z" />
    <glyph glyph-name="braceleft" unicode="{" horiz-adv-x="363" 
d="M209 -138q-41 0 -66.5 25t-25.5 70v214q0 44 -27.5 66.5t-69.5 22.5v103q42 0 69.5 22.5t27.5 65.5v214q0 45 25.5 70t66.5 25h101v-92h-76v-225q0 -24 -8 -45.5t-22 -38.5t-32.5 -28.5t-39.5 -15.5v-8q21 -4 39.5 -15.5t32.5 -28.5t22 -38.5t8 -45.5v-225h76v-92h-101z
" />
    <glyph glyph-name="braceright" unicode="}" horiz-adv-x="363" 
d="M155 760q40 0 66 -25t26 -70v-214q0 -43 27 -65.5t69 -22.5v-103q-42 0 -69 -22.5t-27 -66.5v-214q0 -45 -26 -70t-66 -25h-102v92h77v226q0 24 8 45.5t21.5 38.5t32 28.5t39.5 15.5v7q-21 4 -39.5 15.5t-32 28.5t-21.5 38.5t-8 45.5v225h-77v92h102z" />
    <glyph glyph-name="slash" unicode="/" horiz-adv-x="437" 
d="M5 -151l287 891h107l-287 -891h-107z" />
    <glyph glyph-name="backslash" unicode="\" horiz-adv-x="437" 
d="M324 -151l-287 891h107l287 -891h-107z" />
    <glyph glyph-name="fraction" unicode="&#x2044;" horiz-adv-x="147" 
d="M-233 0l517 698h96l-517 -698h-96z" />
    <glyph glyph-name="uni2215" unicode="&#x2215;" horiz-adv-x="147" 
d="M-233 0l517 698h96l-517 -698h-96z" />
    <glyph glyph-name="percent" unicode="%" horiz-adv-x="960" 
d="M180 0l484 698h116l-484 -698h-116zM228 314q-85 0 -129.5 50.5t-44.5 147.5t44.5 147.5t129.5 50.5t129 -50.5t44 -147.5t-44 -147.5t-129 -50.5zM228 390q62 0 62 95v54q0 95 -62 95t-62 -95v-54q0 -95 62 -95zM732 -12q-84 0 -128.5 50.5t-44.5 147.5t44.5 147.5
t128.5 50.5q85 0 129.5 -50.5t44.5 -147.5t-44.5 -147.5t-129.5 -50.5zM732 64q62 0 62 95v54q0 95 -62 95t-62 -95v-54q0 -95 62 -95z" />
    <glyph glyph-name="perthousand" unicode="&#x2030;" horiz-adv-x="1359" 
d="M180 0l484 698h116l-484 -698h-116zM228 314q-85 0 -129.5 50.5t-44.5 147.5t44.5 147.5t129.5 50.5t129 -50.5t44 -147.5t-44 -147.5t-129 -50.5zM228 390q62 0 62 95v54q0 95 -62 95t-62 -95v-54q0 -95 62 -95zM732 -12q-84 0 -128.5 50.5t-44.5 147.5t44.5 147.5
t128.5 50.5q85 0 129.5 -50.5t44.5 -147.5t-44.5 -147.5t-129.5 -50.5zM732 64q62 0 62 95v54q0 95 -62 95t-62 -95v-54q0 -95 62 -95zM1132 -12q-85 0 -129.5 50.5t-44.5 147.5t44.5 147.5t129.5 50.5q84 0 128.5 -50.5t44.5 -147.5t-44.5 -147.5t-128.5 -50.5zM1132 64
q62 0 62 95v54q0 95 -62 95t-62 -95v-54q0 -95 62 -95z" />
    <glyph glyph-name="bar" unicode="|" horiz-adv-x="376" 
d="M134 -138v898h108v-898h-108z" />
    <glyph glyph-name="brokenbar" unicode="&#xa6;" horiz-adv-x="376" 
d="M134 402v358h108v-358h-108zM134 -138v358h108v-358h-108z" />
    <glyph glyph-name="section" unicode="&#xa7;" horiz-adv-x="574" 
d="M484 10q0 -39 -15.5 -70.5t-43 -53.5t-66.5 -33.5t-86 -11.5q-51 0 -100 15t-90 52l65 79q26 -25 57 -38.5t69 -13.5q45 0 72 18.5t27 52.5q0 30 -22.5 47.5t-69.5 30.5l-72 21q-42 12 -71 28t-46.5 35.5t-25.5 41t-8 44.5q0 45 26.5 81t80.5 59v14q-35 23 -55.5 56.5
t-20.5 79.5q0 39 15.5 70t43.5 52.5t66.5 32.5t85.5 11q51 0 100 -14.5t91 -52.5l-66 -79q-26 24 -56 38t-72 14q-44 0 -70.5 -16.5t-26.5 -51.5q0 -29 22.5 -46t69.5 -30l72 -21q42 -12 71 -28t47 -35.5t26 -42t8 -45.5q0 -45 -26.5 -80.5t-81.5 -58.5v-13q35 -23 55.5 -57
t20.5 -81zM406 262q0 31 -19.5 54.5t-71.5 37.5l-71 20q-8 2 -16 4.5t-16 5.5q-21 -20 -33 -42.5t-12 -49.5q0 -30 19.5 -53t71.5 -37l71 -20q8 -2 16.5 -5t16.5 -6q20 20 32 42.5t12 48.5z" />
    <glyph glyph-name="paragraph" unicode="&#xb6;" horiz-adv-x="670" 
d="M243 272q-43 0 -80.5 17t-65.5 46t-44 67.5t-16 82.5q0 43 16 82t44 68t65.5 46t80.5 17h365v-95h-66v-752h-99v752h-101v-752h-99v421z" />
    <glyph glyph-name="copyright" unicode="&#xa9;" horiz-adv-x="788" 
d="M394 -12q-75 0 -138 25t-108.5 72t-71.5 113.5t-26 150.5t26 150.5t71.5 113.5t108.5 72t138 25q74 0 137 -25t109 -72t72 -113.5t26 -150.5t-26 -150.5t-72 -113.5t-109 -72t-137 -25zM394 51q59 0 109 20.5t86 56t56 84t20 104.5v66q0 56 -20 104.5t-56 84t-86 56
t-109 20.5t-109 -20.5t-86 -56t-56.5 -84t-20.5 -104.5v-66q0 -56 20.5 -104.5t56.5 -84t86 -56t109 -20.5zM401 140q-46 0 -82 15t-61 42.5t-38.5 66t-13.5 85.5t13.5 85.5t38.5 66t61 42.5t82 15q66 0 106.5 -29t60.5 -77l-88 -43q-11 26 -29 42t-50 16q-36 0 -56 -22
t-20 -58v-76q0 -36 20 -58t56 -22q32 0 52.5 16.5t34.5 42.5l87 -43q-20 -45 -61 -76t-113 -31z" />
    <glyph glyph-name="registered" unicode="&#xae;" horiz-adv-x="468" 
d="M234 298q-42 0 -78.5 15.5t-64 43t-43 65.5t-15.5 82t15.5 82t43 65.5t64 43t78.5 15.5t78.5 -15.5t63.5 -43t43 -65.5t16 -82t-16 -82t-43 -65.5t-63.5 -43t-78.5 -15.5zM234 343q31 0 58.5 10.5t47.5 30t32 46t12 59.5v30q0 33 -12 59.5t-32 46t-47.5 30t-58.5 10.5
t-58.5 -10.5t-47.5 -30t-32 -46t-12 -59.5v-30q0 -33 12 -59.5t32 -46t47.5 -30t58.5 -10.5zM207 399h-57v209h99q38 0 56.5 -19.5t18.5 -48.5q0 -25 -10.5 -41t-27.5 -24l45 -76h-62l-35 66h-27v-66zM239 508q27 0 27 22v12q0 22 -27 22h-32v-56h32z" />
    <glyph glyph-name="trademark" unicode="&#x2122;" horiz-adv-x="627" 
d="M100 412v230h-74v56h222v-56h-72v-230h-76zM285 412v286h82l59 -115h5l58 115h77v-286h-63v104l5 91h-4l-78 -148l-80 148h-4l7 -91v-104h-64z" />
    <glyph glyph-name="ordfeminine" unicode="&#xaa;" horiz-adv-x="434" 
d="M392 336h-53q-26 0 -46 13t-23 48h-4q-11 -32 -39 -49.5t-70 -17.5q-52 0 -82.5 28t-30.5 78q0 55 40.5 82t116.5 27h60v21q0 35 -15.5 52t-50.5 17q-33 0 -54 -13.5t-34 -33.5l-52 45q17 30 53.5 50.5t95.5 20.5q69 0 109 -34t40 -100v-165h39v-69zM203 492
q-69 0 -69 -45v-12q0 -22 14.5 -32t40.5 -10q30 0 51 14t21 41v44h-58z" />
    <glyph glyph-name="ordmasculine" unicode="&#xba;" horiz-adv-x="424" 
d="M212 330q-81 0 -126.5 49.5t-45.5 137.5t45.5 137.5t126.5 49.5t126.5 -49.5t45.5 -137.5t-45.5 -137.5t-126.5 -49.5zM212 400q37 0 57 22.5t20 64.5v60q0 42 -20 64.5t-57 22.5t-57 -22.5t-20 -64.5v-60q0 -42 20 -64.5t57 -22.5z" />
    <glyph glyph-name="degree" unicode="&#xb0;" horiz-adv-x="470" 
d="M235 343q-38 0 -71 14t-57 38.5t-38 58.5t-14 73t14 72.5t38 58t57 38.5t71 14t71 -14t57 -38.5t38 -58t14 -72.5t-14 -73t-38 -58.5t-57 -38.5t-71 -14zM235 429q40 0 64 28t24 70t-24 69.5t-64 27.5q-41 0 -64.5 -27.5t-23.5 -69.5t23.5 -70t64.5 -28z" />
    <glyph glyph-name="uni2032" unicode="&#x2032;" horiz-adv-x="260" 
d="M42 355l60 343h116l-60 -343h-116z" />
    <glyph glyph-name="uni2033" unicode="&#x2033;" horiz-adv-x="471" 
d="M42 355l60 343h116l-60 -343h-116zM253 355l60 343h116l-60 -343h-116z" />
    <glyph glyph-name="asterisk" unicode="*" horiz-adv-x="556" 
d="M178 282l-90 62l116 142l-171 50l34 100l164 -66l-9 177h112l-8 -177l163 66l34 -100l-171 -50l116 -142l-90 -61l-100 150z" />
    <glyph glyph-name="dagger" unicode="&#x2020;" horiz-adv-x="531" 
d="M211 -200v621h-178v95h178v224h109v-224h178v-95h-178v-621h-109z" />
    <glyph glyph-name="daggerdbl" unicode="&#x2021;" horiz-adv-x="545" 
d="M218 -200v224h-178v95h178v302h-178v95h178v224h109v-224h178v-95h-178v-302h178v-95h-178v-224h-109z" />
    <glyph glyph-name="numbersign" unicode="#" horiz-adv-x="656" 
d="M379 182h-158l-32 -182h-85l31 182h-109v82h124l28 170h-108v82h123l31 182h85l-32 -182h159l31 182h85l-31 -182h109v-82h-124l-29 -170h109v-82h-123l-32 -182h-84zM392 264l30 170h-158l-30 -170h158z" />
    <glyph glyph-name="asciicircum" unicode="^" 
d="M454 283l-153 280h-6l-154 -280l-97 49l202 366h110l200 -366z" />
    <glyph glyph-name="asciitilde" unicode="~" 
d="M417 219q-37 0 -65 9.5t-62 26.5q-27 14 -53.5 24t-57.5 10q-23 0 -40 -7t-39 -22l-45 72q19 26 49.5 43t78.5 17q37 0 65 -9.5t62 -26.5q27 -14 53.5 -23.5t57.5 -9.5q23 0 40 6.5t39 21.5l45 -72q-19 -26 -49.5 -43t-78.5 -17z" />
    <glyph glyph-name="plus" unicode="+" 
d="M244 63v191h-177v103h177v192h112v-192h177v-103h-177v-191h-112z" />
    <glyph glyph-name="minus" unicode="&#x2212;" 
d="M67 254v103h466v-103h-466z" />
    <glyph glyph-name="plusminus" unicode="&#xb1;" 
d="M244 175v176h-177v104h177v175h112v-175h177v-104h-177v-176h-112zM67 0v104h466v-104h-466z" />
    <glyph glyph-name="multiply" unicode="&#xd7;" 
d="M300 229l-145 -152l-72 73l145 151l-145 151l72 72l145 -151l145 151l72 -72l-145 -151l145 -151l-72 -73z" />
    <glyph glyph-name="divide" unicode="&#xf7;" 
d="M67 254v103h466v-103h-466zM300 35q-43 0 -61.5 18.5t-18.5 44.5v23q0 26 18.5 44.5t61.5 18.5t61.5 -18.5t18.5 -44.5v-23q0 -26 -18.5 -44.5t-61.5 -18.5zM300 426q-43 0 -61.5 18.5t-18.5 44.5v23q0 26 18.5 44.5t61.5 18.5t61.5 -18.5t18.5 -44.5v-23
q0 -26 -18.5 -44.5t-61.5 -18.5z" />
    <glyph glyph-name="equal" unicode="=" 
d="M67 365v103h466v-103h-466zM67 142v104h466v-104h-466z" />
    <glyph glyph-name="approxequal" unicode="&#x2248;" 
d="M417 330q-37 0 -65 9.5t-62 26.5q-27 14 -53.5 24t-57.5 10q-23 0 -40 -7t-39 -22l-45 72q19 26 49.5 43t78.5 17q37 0 65 -9.5t62 -26.5q27 -14 53.5 -23.5t57.5 -9.5q23 0 40 6.5t39 21.5l45 -72q-19 -26 -49.5 -43t-78.5 -17zM417 108q-37 0 -65 9.5t-62 26.5
q-27 14 -53.5 24t-57.5 10q-23 0 -40 -7t-39 -22l-45 72q19 26 49.5 43t78.5 17q37 0 65 -9.5t62 -26.5q27 -14 53.5 -23.5t57.5 -9.5q23 0 40 6.5t39 21.5l45 -72q-19 -26 -49.5 -43t-78.5 -17z" />
    <glyph glyph-name="notequal" unicode="&#x2260;" 
d="M107 47l51 95h-91v102h145l64 122h-209v102h263l51 97h110l-52 -97h94v-102h-147l-65 -122h212v-102h-266l-51 -95h-109z" />
    <glyph glyph-name="less" unicode="&#x3c;" 
d="M99 252v85l402 256v-130l-270 -165v-7l270 -165v-130z" />
    <glyph glyph-name="greater" unicode="&#x3e;" 
d="M99 126l270 165v7l-270 165v130l402 -256v-84l-402 -258v131z" />
    <glyph glyph-name="lessequal" unicode="&#x2264;" 
d="M99 0v102h402v-102h-402zM501 484l-255 -112v-7l255 -112v-120l-402 190v90l402 191v-120z" />
    <glyph glyph-name="greaterequal" unicode="&#x2265;" 
d="M99 253l255 112v7l-255 112v120l402 -190v-90l-402 -191v120zM99 102h402v-102h-402v102z" />
    <glyph glyph-name="periodcentered" unicode="&#xb7;" horiz-adv-x="350" 
d="M175 221q-41 0 -60.5 20.5t-19.5 52.5v18q0 32 19.5 53t60.5 21q42 0 61 -21t19 -53v-18q0 -32 -19 -52.5t-61 -20.5z" />
    <glyph glyph-name="anoteleia" unicode="&#x387;" horiz-adv-x="318" 
d="M158 368q-41 0 -60.5 20.5t-19.5 52.5v18q0 32 19.5 53t60.5 21q42 0 61 -21t19 -53v-18q0 -32 -19 -52.5t-61 -20.5z" />
    <glyph glyph-name="bullet" unicode="&#x2022;" horiz-adv-x="420" 
d="M210 161q-39 0 -66.5 9t-45 25.5t-25 39t-7.5 49.5v33q0 27 7.5 49.5t25 39t45 25.5t66.5 9t66.5 -9t44.5 -25.5t25 -39t8 -49.5v-33q0 -27 -8 -49.5t-25 -39t-44.5 -25.5t-66.5 -9z" />
    <glyph glyph-name="lozenge" unicode="&#x25ca;" 
d="M259 0l-208 349l208 349h82l208 -349l-208 -349h-82zM303 123l129 226l-129 226h-6l-129 -226l129 -226h6z" />
    <glyph glyph-name="logicalnot" unicode="&#xac;" 
d="M427 78v176h-371v103h477v-279h-106z" />
    <glyph glyph-name="radical" unicode="&#x221a;" 
d="M221 0l-120 416h-83v106h167l59 -208l54 -208h7l55 208l110 384h110l-202 -698h-157z" />
    <glyph glyph-name="integral" unicode="&#x222b;" horiz-adv-x="442" 
d="M40 -98h117v697q0 62 35 101.5t109 39.5h101v-102h-117v-697q0 -62 -35.5 -101.5t-108.5 -39.5h-101v102z" />
    <glyph glyph-name="infinity" unicode="&#x221e;" horiz-adv-x="776" 
d="M214 94q-91 0 -142.5 54t-51.5 146q0 93 51.5 147t142.5 54q71 0 120 -31.5t74 -105.5h6q3 32 17 57.5t34.5 43t45.5 27t51 9.5q91 0 142.5 -54t51.5 -147q0 -92 -51.5 -146t-142.5 -54q-71 0 -120 31.5t-73 105.5h-6q-4 -32 -18 -57.5t-34.5 -43t-45.5 -27t-51 -9.5z
M214 194q45 0 77 25t46 67q-16 48 -47 78.5t-76 30.5q-36 0 -57.5 -22.5t-21.5 -64.5v-27q0 -42 21.5 -64.5t57.5 -22.5zM562 194q37 0 58 22.5t21 64.5v27q0 42 -21 64.5t-58 22.5q-45 0 -77 -25.5t-45 -66.5q16 -48 46.5 -78.5t75.5 -30.5z" />
    <glyph glyph-name="uni212E" unicode="&#x212e;" horiz-adv-x="718" 
d="M204 94q29 -22 67.5 -35t87.5 -13q90 0 149 41t95 108l52 -30q-20 -38 -48.5 -70.5t-66 -56t-83 -37t-98.5 -13.5q-71 0 -130.5 25.5t-103.5 72.5t-68.5 113.5t-24.5 149.5q0 82 24.5 149t68.5 114t103.5 72.5t130.5 25.5q70 0 130 -25.5t104 -72.5t68.5 -114t24.5 -149
h-482v-255zM514 404v203q-30 21 -68.5 34.5t-86.5 13.5q-49 0 -87.5 -13.5t-67.5 -34.5v-203h310z" />
    <glyph glyph-name="uni2113" unicode="&#x2113;" horiz-adv-x="534" 
d="M302 -12q-39 0 -72.5 12t-57.5 34t-37.5 54t-13.5 71v5q-2 -2 -8.5 -6t-14 -9t-14 -9.5t-8.5 -5.5l-55 88q26 15 52 32.5t43 30.5v265q0 55 13 93.5t36 62.5t53.5 35t66.5 11q82 0 125.5 -48.5t43.5 -135.5q0 -48 -13.5 -90.5t-40.5 -84t-68 -82.5t-95 -85v-42
q0 -46 17.5 -65.5t47.5 -19.5q34 0 57 23.5t50 79.5l101 -53q-27 -71 -78 -116t-130 -45zM289 640q-20 0 -36 -18.5t-16 -66.5v-198q45 44 72.5 92.5t27.5 106.5v12q0 38 -13.5 55t-34.5 17z" />
    <glyph glyph-name="uni2116" unicode="&#x2116;" horiz-adv-x="1050" 
d="M847 360q-76 0 -120 45.5t-44 129.5t44 129.5t120 45.5t120 -45.5t44 -129.5t-44 -129.5t-120 -45.5zM82 0v698h144l182 -345l76 -159h3v504h124v-698h-145l-186 349l-71 153h-3v-502h-124zM847 431q32 0 50.5 21t18.5 56v54q0 35 -18.5 56t-50.5 21t-50.5 -21t-18.5 -56
v-54q0 -35 18.5 -56t50.5 -21zM694 225v76h305v-76h-305z" />
    <glyph glyph-name="partialdiff" unicode="&#x2202;" horiz-adv-x="588" 
d="M541 273q0 -73 -18 -126.5t-50 -89t-77.5 -52.5t-100.5 -17q-59 0 -105 18.5t-78.5 52.5t-49.5 83t-17 110q0 57 14.5 103.5t41 79.5t64 51t83.5 18q51 0 86.5 -23t58.5 -62l8 3q-27 78 -104.5 145.5t-192.5 130.5h190q43 -26 87 -64t79.5 -90t58 -119t22.5 -152zM293 86
q54 0 84.5 33t30.5 96v60q0 63 -30.5 96.5t-84.5 33.5t-84.5 -33.5t-30.5 -96.5v-60q0 -63 30.5 -96t84.5 -33z" />
    <glyph glyph-name="currency" unicode="&#xa4;" horiz-adv-x="624" 
d="M312 111q-80 0 -134 34l-94 -95l-72 70l96 96q-32 55 -32 133t32 133l-96 96l72 70l94 -95q54 34 134 34t134 -34l94 95l72 -70l-96 -96q32 -55 32 -133t-32 -133l96 -96l-72 -70l-94 95q-54 -34 -134 -34zM312 206q50 0 78.5 29t28.5 85v58q0 56 -28.5 85t-78.5 29
t-78.5 -29t-28.5 -85v-58q0 -56 28.5 -85t78.5 -29z" />
    <glyph glyph-name="cent" unicode="&#xa2;" horiz-adv-x="541" 
d="M236 -114v106q-92 17 -142.5 86.5t-50.5 179.5t51 179.5t142 86.5v106h99v-105q61 -8 100.5 -40.5t60.5 -80.5l-93 -51q-11 26 -29.5 44.5t-45.5 26.5v-333q29 8 50 27.5t35 47.5l91 -53q-23 -49 -64.5 -81.5t-104.5 -40.5v-105h-99zM168 215q0 -45 19 -77t57 -45v330
q-38 -12 -57 -44.5t-19 -77.5v-86z" />
    <glyph glyph-name="Euro" unicode="&#x20ac;" horiz-adv-x="627" 
d="M351 -12q-68 0 -123 24t-94 70.5t-60.5 113.5t-21.5 153t21.5 153t60.5 113.5t94 70.5t123 24q48 0 84.5 -10.5t64 -28t48 -41t36.5 -50.5l-96 -67q-21 43 -54 66.5t-83 23.5q-58 0 -98.5 -35t-54.5 -96h238v-83h-245v-80h244v-83h-237q14 -63 54 -97t99 -34
q51 0 86.5 25t59.5 73l96 -70q-15 -26 -36 -50.5t-50.5 -43.5t-68 -30t-87.5 -11z" />
    <glyph glyph-name="florin" unicode="&#x192;" horiz-adv-x="484" 
d="M13 -32h124l31 298h-117l11 106h116l19 184q6 63 45.5 102.5t113.5 39.5h113l-11 -102h-129l-23 -224h138l-9 -106h-140l-26 -259q-7 -62 -46 -101.5t-113 -39.5h-107z" />
    <glyph glyph-name="sterling" unicode="&#xa3;" horiz-adv-x="586" 
d="M71 0v125q39 18 59 51t20 76q0 21 -4 38h-104v105h67q-8 25 -15 51t-7 57q0 46 17 84.5t48.5 65.5t77 42t101.5 15q81 0 136.5 -30.5t93.5 -88.5l-96 -68q-27 38 -58.5 55.5t-73.5 17.5q-54 0 -83 -29t-29 -83q0 -25 5 -46.5t13 -42.5h202v-105h-164q1 -8 1.5 -16
t0.5 -16q0 -53 -24.5 -87.5t-51.5 -50.5v-8h342v-112h-474z" />
    <glyph glyph-name="dollar" unicode="$" 
d="M256 -82v89q-76 6 -128 35.5t-90 73.5l81 74q29 -34 65 -55.5t81 -27.5v203q-110 23 -158.5 70.5t-48.5 121.5q0 80 52 128.5t146 59.5v90h99v-90q63 -7 108.5 -31t79.5 -66l-82 -71q-20 24 -47.5 42t-67.5 26v-186q107 -25 157 -69.5t50 -122.5q0 -77 -50 -132.5
t-148 -69.5v-92h-99zM179 507q0 -35 20.5 -54t65.5 -31v169q-86 -15 -86 -84zM433 203q0 30 -18.5 52.5t-68.5 36.5v-184q42 9 64.5 34.5t22.5 60.5z" />
    <glyph glyph-name="yen" unicode="&#xa5;" horiz-adv-x="615" 
d="M361 137v-137h-133v137h-170v83h170v76h-170v83h118l-175 319h149l149 -287h3l147 287h142l-178 -319h118v-83h-170v-76h170v-83h-170z" />
    <glyph glyph-name="uni0E3F" unicode="&#xe3f;" horiz-adv-x="659" 
d="M377 -88h-99v108h-196v658h196v102h99v-102h33q83 0 130 -46t47 -123q0 -69 -32.5 -101t-92.5 -40v-6q30 -3 57 -12t47.5 -27t33 -46t12.5 -68q0 -39 -13 -73.5t-36.5 -60t-55 -40.5t-68.5 -15h-62v-108zM285 404v167h-78v-167h78zM371 404h15q71 0 71 68v30q0 69 -71 69
h-15v-167zM285 127v174h-78v-174h78zM371 127h33q36 0 57 18t21 53v33q0 34 -21 52t-57 18h-33v-174z" />
    <glyph glyph-name="uni20A1" unicode="&#x20a1;" horiz-adv-x="620" 
d="M321 6q-12 1 -23 3l-22 4l-10 -95h-69l13 118q-73 37 -115.5 116.5t-42.5 196.5q0 141 59.5 227t164.5 109l10 95h70l-9 -87h9h19t17 -2l9 89h70l-11 -104q43 -15 72.5 -43.5t52.5 -65.5l-91 -64q-9 18 -20.5 32.5t-27.5 24.5l-46 -444q63 20 94 86l92 -66
q-13 -23 -31 -44t-42 -38t-55 -29.5t-68 -17.5l-9 -89h-70zM335 590l-49 -470q22 -10 47 -11l49 477q-8 2 -18.5 3t-18.5 1h-10zM186 292q0 -79 39 -126l40 401q-37 -21 -58 -62t-21 -98v-115z" />
    <glyph glyph-name="uni20A4" unicode="&#x20a4;" horiz-adv-x="586" 
d="M545 0h-474v122q34 15 53 44.5t24 63.5h-106v83h98q-5 19 -12.5 37.5t-14.5 36.5h-71v84h48q-3 15 -3 32q0 46 17 84.5t48.5 65.5t77 42t101.5 15q81 0 136.5 -30.5t93.5 -88.5l-96 -65q-27 38 -58.5 55.5t-73.5 17.5q-54 0 -83 -30.5t-29 -84.5v-13h206v-84h-184
q8 -18 15.5 -36t12.5 -38h156v-83h-151q-6 -42 -28 -70.5t-45 -42.5v-8h342v-109z" />
    <glyph glyph-name="uni20A6" unicode="&#x20a6;" horiz-adv-x="752" 
d="M375 231h-155v-231h-118v230h-86v83h86v76h-86v83h86v226h151l120 -226h160v226h117v-226h86v-83h-86v-76h86v-83h-86v-230h-153zM336 309l-113 221h-3v-221h116zM530 165h3v228h-120z" />
    <glyph glyph-name="uni20A8" unicode="&#x20a8;" horiz-adv-x="840" 
d="M82 0v698h217q95 0 148.5 -52.5t53.5 -147.5q0 -58 -21.5 -102.5t-62.5 -70.5l75 -149q23 -45 50 -66t62 -21q32 0 49.5 13.5t17.5 34.5q0 20 -9 35t-35 39l-19 17q-41 38 -60.5 71.5t-19.5 75.5q0 66 44.5 105t117.5 39q30 0 61 -6.5t57 -23.5l-43 -85q-28 19 -62 19
q-23 0 -38.5 -10.5t-15.5 -33.5q0 -21 13.5 -37t38.5 -39l18 -16q21 -20 35.5 -37t24 -33.5t14 -35t4.5 -40.5q0 -32 -11.5 -60t-36 -48.5t-63 -32.5t-93.5 -12q-75 0 -127 28t-84 96l-83 175h-87v-287h-130zM283 395q39 0 61 18.5t22 56.5v44q0 38 -22 57t-61 19h-71v-195
h71z" />
    <glyph glyph-name="uni20A9" unicode="&#x20a9;" horiz-adv-x="1002" 
d="M578 231h-158l-57 -231h-149l-54 230h-122v83h103l-17 76h-86v83h66l-52 226h130l47 -226h146l55 226h145l55 -226h147l48 226h126l-54 -226h67v-83h-87l-18 -76h105v-83h-125l-56 -230h-149zM348 359l8 34h-111l6 -35l44 -212h3zM709 146l44 211l8 36h-113l8 -32
l50 -215h3zM439 310h120l-10 42l-48 204h-3l-49 -204z" />
    <glyph glyph-name="uni20AA" unicode="&#x20aa;" horiz-adv-x="873" 
d="M279 515h118v-408h198q36 0 57 22t21 65v504h118v-500q0 -100 -51 -149t-132 -49h-329v515zM82 0v698h330q81 0 131.5 -49t50.5 -149v-317h-118v321q0 87 -79 87h-197v-591h-118z" />
    <glyph glyph-name="uni20AB" unicode="&#x20ab;" horiz-adv-x="577" 
d="M354 229h-5q-18 -34 -49.5 -57t-87.5 -23q-74 0 -120 49t-46 150t46 150t120 49q56 0 87.5 -23t49.5 -58h5v135h-130v81h130v58h127v-58h61v-81h-61v-443h-127v71zM264 242q42 0 66 19t24 47v81q0 27 -24 46.5t-66 19.5q-45 0 -68.5 -23.5t-23.5 -61.5v-43
q0 -38 23.5 -61.5t68.5 -23.5zM58 0v94h444v-94h-444z" />
    <glyph glyph-name="uni20AD" unicode="&#x20ad;" horiz-adv-x="664" 
d="M226 0h-131v302h-88v105h88v291h131v-291h51l198 291h149l-210 -291h191v-105h-180l223 -302h-157l-212 302h-53v-302z" />
    <glyph glyph-name="uni20AE" unicode="&#x20ae;" horiz-adv-x="604" 
d="M368 211v-211h-132v148l-124 -59v84l124 59v74l-124 -59v83l124 59v200h-198v109h528v-109h-198v-137l124 60v-84l-124 -59v-75l124 60v-84z" />
    <glyph glyph-name="uni20B1" unicode="&#x20b1;" horiz-adv-x="677" 
d="M238 0h-132v317h-86v76h86v77h-86v76h86v152h267q76 0 124 -36t67 -116h97v-76h-87q1 -9 1 -18v-19v-20.5t-1 -19.5h87v-76h-99q-20 -76 -67.5 -114.5t-121.5 -38.5h-135v-164zM238 541h202q-7 29 -27.5 46.5t-52.5 17.5h-122v-64zM444 390v83h-206v-83h206zM360 255
q32 0 53 18t27 49h-202v-67h122z" />
    <glyph glyph-name="uni20B2" unicode="&#x20b2;" horiz-adv-x="670" 
d="M204 -82l20 108q-78 32 -125 113t-47 210q0 82 20.5 145.5t58 107t90.5 66.5t118 25l15 87h101l-17 -100q110 -32 161 -140l-103 -50q-11 30 -31.5 52.5t-52.5 35.5l-34 -199h234v-126q0 -69 -27 -116.5t-68.5 -77t-90.5 -42t-92 -12.5h-13l-16 -87h-101zM186 296
q0 -58 17 -97t46 -61l79 451q-66 -6 -104 -55.5t-38 -130.5v-107zM359 275l-28 -166q5 -1 15 -1q31 0 57.5 8.5t46 25.5t30.5 42.5t11 59.5v31h-132z" />
    <glyph glyph-name="uni20B4" unicode="&#x20b4;" horiz-adv-x="639" 
d="M329 -12q-54 0 -95.5 16t-69.5 43.5t-42.5 65t-14.5 79.5q0 13 1.5 23t3.5 19h-72v83h113l140 76h-253v84h364q6 15 6 37q0 47 -25.5 68t-71.5 21q-76 0 -128 -58l-68 81q35 40 88.5 62t114.5 22q49 0 88 -14.5t66 -39t41.5 -58t14.5 -71.5q0 -26 -6 -50h75v-84h-121
l-137 -76h258v-83h-366q-6 -17 -6 -37q0 -52 28.5 -78t79.5 -26q37 0 70.5 16.5t71.5 56.5l69 -82q-37 -43 -92 -69.5t-125 -26.5z" />
    <glyph glyph-name="uni20B5" unicode="&#x20b5;" horiz-adv-x="613" 
d="M205 -82l20 111q-80 35 -126.5 116t-46.5 204q0 81 21 144t59 106.5t91 67.5t117 26l15 87h101l-17 -99q50 -15 83 -44.5t56 -68.5l-93 -64q-24 49 -71 73l-82 -467q6 -1 16 -1q47 0 82 24t56 69l93 -66q-14 -25 -34.5 -48.5t-48.5 -42t-65 -29.5t-83 -11h-13t-14 1
l-15 -88h-101zM186 292q0 -51 17 -89.5t47 -61.5l79 449q-63 -7 -103 -55.5t-40 -127.5v-115z" />
    <glyph glyph-name="uni20B8" unicode="&#x20b8;" horiz-adv-x="604" 
d="M38 603v95h528v-95h-528zM368 424v-424h-132v424h-198v95h528v-95h-198z" />
    <glyph glyph-name="uni20B9" unicode="&#x20b9;" horiz-adv-x="622" 
d="M360 0l-181 242h-120v95h179q98 0 104 86h-283v95h283q-3 48 -29.5 66.5t-74.5 18.5h-179v95h527v-95h-193v-4q20 -2 42 -21t32 -60h119v-95h-116q-9 -65 -45.5 -109.5t-102.5 -59.5l199 -254h-161z" />
    <glyph glyph-name="uni20BA" unicode="&#x20ba;" horiz-adv-x="610" 
d="M106 223l-90 -43v84l90 43v75l-90 -44v84l90 43v233h132v-170l171 81v-84l-171 -81v-74l171 80v-83l-171 -81v-178h67q72 0 109.5 45t37.5 152h126q0 -64 -15.5 -119.5t-47 -97t-80 -65t-115.5 -23.5h-214v223z" />
    <glyph glyph-name="uni20BD" unicode="&#x20bd;" horiz-adv-x="650" 
d="M238 112v-112h-132v112h-86v94h86v86h-86v95h86v311h301q97 0 151.5 -53t54.5 -150q0 -96 -54.5 -149.5t-151.5 -53.5h-169v-86h232v-94h-232zM238 387h156q39 0 60.5 21t21.5 59v47q0 38 -22 56.5t-60 18.5h-156v-202z" />
    <glyph glyph-name="uni20BF" unicode="&#x20bf;" horiz-adv-x="659" 
d="M348 20h-65v-102h-99v102h-103v658h103v102h99v-102h65v102h98v-105q67 -10 104 -53.5t37 -112.5t-32.5 -101t-92.5 -40v-6q31 -3 58.5 -12.5t47.5 -27.5t32 -46t12 -67t-12.5 -72.5t-35 -59t-52.5 -41t-66 -16.5v-102h-98v102zM207 404h178q72 0 72 67v32q0 67 -72 67
h-178v-166zM207 128h196q37 0 58 18t21 52v33q0 35 -21 52.5t-58 17.5h-196v-173z" />
    <glyph glyph-name="fl" unicode="&#xfb02;" horiz-adv-x="644" 
d="M552 0q-66 0 -97 33t-31 93v614h128v-638h69v-102h-69zM100 421h-77v101h77v75q0 69 36.5 106t107.5 37h91v-102h-107v-116h107v-101h-107v-421h-128v421z" />
    <glyph glyph-name="aacute" unicode="&#xe1;" horiz-adv-x="559" 
d="M458 0q-42 0 -66.5 24.5t-30.5 65.5h-6q-13 -51 -53 -76.5t-99 -25.5q-80 0 -123 42t-43 112q0 81 58 120.5t165 39.5h89v38q0 44 -23 68t-74 24q-45 0 -72.5 -19.5t-46.5 -46.5l-76 68q29 45 77 72.5t127 27.5q106 0 161 -48t55 -138v-246h52v-102h-71zM246 81
q43 0 73 19t30 56v69h-82q-100 0 -100 -64v-17q0 -32 20.5 -47.5t58.5 -15.5zM277 581l-77 37l95 187l108 -53z" />
    <glyph glyph-name="abreve" unicode="&#x103;" horiz-adv-x="559" 
d="M458 0q-42 0 -66.5 24.5t-30.5 65.5h-6q-13 -51 -53 -76.5t-99 -25.5q-80 0 -123 42t-43 112q0 81 58 120.5t165 39.5h89v38q0 44 -23 68t-74 24q-45 0 -72.5 -19.5t-46.5 -46.5l-76 68q29 45 77 72.5t127 27.5q106 0 161 -48t55 -138v-246h52v-102h-71zM246 81
q43 0 73 19t30 56v69h-82q-100 0 -100 -64v-17q0 -32 20.5 -47.5t58.5 -15.5zM264 584q-43 0 -73 15t-51 38.5t-33.5 51t-21.5 52.5l71 36l20 -33q20 -32 39 -50.5t49 -18.5t49.5 18.5t39.5 50.5l20 33l70 -36q-9 -25 -22.5 -52.5t-34.5 -51t-50.5 -38.5t-71.5 -15z" />
    <glyph glyph-name="uni01CE" unicode="&#x1ce;" horiz-adv-x="559" 
d="M458 0q-42 0 -66.5 24.5t-30.5 65.5h-6q-13 -51 -53 -76.5t-99 -25.5q-80 0 -123 42t-43 112q0 81 58 120.5t165 39.5h89v38q0 44 -23 68t-74 24q-45 0 -72.5 -19.5t-46.5 -46.5l-76 68q29 45 77 72.5t127 27.5q106 0 161 -48t55 -138v-246h52v-102h-71zM246 81
q43 0 73 19t30 56v69h-82q-100 0 -100 -64v-17q0 -32 20.5 -47.5t58.5 -15.5zM206 591l-126 154l64 50l120 -116l120 116l64 -50l-126 -154h-116z" />
    <glyph glyph-name="acircumflex" unicode="&#xe2;" horiz-adv-x="559" 
d="M458 0q-42 0 -66.5 24.5t-30.5 65.5h-6q-13 -51 -53 -76.5t-99 -25.5q-80 0 -123 42t-43 112q0 81 58 120.5t165 39.5h89v38q0 44 -23 68t-74 24q-45 0 -72.5 -19.5t-46.5 -46.5l-76 68q29 45 77 72.5t127 27.5q106 0 161 -48t55 -138v-246h52v-102h-71zM246 81
q43 0 73 19t30 56v69h-82q-100 0 -100 -64v-17q0 -32 20.5 -47.5t58.5 -15.5zM322 786l126 -154l-64 -50l-120 115l-120 -115l-64 50l126 154h116z" />
    <glyph glyph-name="adieresis" unicode="&#xe4;" horiz-adv-x="559" 
d="M458 0q-42 0 -66.5 24.5t-30.5 65.5h-6q-13 -51 -53 -76.5t-99 -25.5q-80 0 -123 42t-43 112q0 81 58 120.5t165 39.5h89v38q0 44 -23 68t-74 24q-45 0 -72.5 -19.5t-46.5 -46.5l-76 68q29 45 77 72.5t127 27.5q106 0 161 -48t55 -138v-246h52v-102h-71zM246 81
q43 0 73 19t30 56v69h-82q-100 0 -100 -64v-17q0 -32 20.5 -47.5t58.5 -15.5zM159 605q-39 0 -55 16.5t-16 41.5v21q0 25 16 41.5t55 16.5t55 -16.5t16 -41.5v-21q0 -25 -16 -41.5t-55 -16.5zM369 605q-39 0 -55 16.5t-16 41.5v21q0 25 16 41.5t55 16.5t55 -16.5t16 -41.5
v-21q0 -25 -16 -41.5t-55 -16.5z" />
    <glyph glyph-name="uni1EA1" unicode="&#x1ea1;" horiz-adv-x="559" 
d="M458 0q-42 0 -66.5 24.5t-30.5 65.5h-6q-13 -51 -53 -76.5t-99 -25.5q-80 0 -123 42t-43 112q0 81 58 120.5t165 39.5h89v38q0 44 -23 68t-74 24q-45 0 -72.5 -19.5t-46.5 -46.5l-76 68q29 45 77 72.5t127 27.5q106 0 161 -48t55 -138v-246h52v-102h-71zM246 81
q43 0 73 19t30 56v69h-82q-100 0 -100 -64v-17q0 -32 20.5 -47.5t58.5 -15.5zM262 -194q-39 0 -55.5 16.5t-16.5 41.5v22q0 25 16.5 41.5t55.5 16.5t55.5 -16.5t16.5 -41.5v-22q0 -25 -16.5 -41.5t-55.5 -16.5z" />
    <glyph glyph-name="agrave" unicode="&#xe0;" horiz-adv-x="559" 
d="M458 0q-42 0 -66.5 24.5t-30.5 65.5h-6q-13 -51 -53 -76.5t-99 -25.5q-80 0 -123 42t-43 112q0 81 58 120.5t165 39.5h89v38q0 44 -23 68t-74 24q-45 0 -72.5 -19.5t-46.5 -46.5l-76 68q29 45 77 72.5t127 27.5q106 0 161 -48t55 -138v-246h52v-102h-71zM246 81
q43 0 73 19t30 56v69h-82q-100 0 -100 -64v-17q0 -32 20.5 -47.5t58.5 -15.5zM125 752l108 53l95 -187l-77 -37z" />
    <glyph glyph-name="uni1EA3" unicode="&#x1ea3;" horiz-adv-x="559" 
d="M458 0q-42 0 -66.5 24.5t-30.5 65.5h-6q-13 -51 -53 -76.5t-99 -25.5q-80 0 -123 42t-43 112q0 81 58 120.5t165 39.5h89v38q0 44 -23 68t-74 24q-45 0 -72.5 -19.5t-46.5 -46.5l-76 68q29 45 77 72.5t127 27.5q106 0 161 -48t55 -138v-246h52v-102h-71zM246 81
q43 0 73 19t30 56v69h-82q-100 0 -100 -64v-17q0 -32 20.5 -47.5t58.5 -15.5zM154 791h133q51 0 70 -20t19 -48q0 -27 -15 -58t-39 -61l-27 -33l-67 32l46 95h-120v93z" />
    <glyph glyph-name="amacron" unicode="&#x101;" horiz-adv-x="559" 
d="M458 0q-42 0 -66.5 24.5t-30.5 65.5h-6q-13 -51 -53 -76.5t-99 -25.5q-80 0 -123 42t-43 112q0 81 58 120.5t165 39.5h89v38q0 44 -23 68t-74 24q-45 0 -72.5 -19.5t-46.5 -46.5l-76 68q29 45 77 72.5t127 27.5q106 0 161 -48t55 -138v-246h52v-102h-71zM246 81
q43 0 73 19t30 56v69h-82q-100 0 -100 -64v-17q0 -32 20.5 -47.5t58.5 -15.5zM115 721h298v-93h-298v93z" />
    <glyph glyph-name="aogonek" unicode="&#x105;" horiz-adv-x="559" 
d="M529 0q-35 -24 -56.5 -41t-33 -29.5t-15.5 -21.5t-4 -18q0 -18 10.5 -25t25.5 -7q17 0 29.5 7.5t23.5 18.5l49 -47q-12 -22 -40 -35t-72 -13q-23 0 -44 4.5t-37 14t-25.5 25.5t-9.5 39q0 41 31.5 69.5t82.5 55.5l-1 4q-35 5 -56 28.5t-26 60.5h-6q-13 -51 -53 -76.5
t-99 -25.5q-80 0 -123 42t-43 112q0 81 58 120.5t165 39.5h89v38q0 44 -23 68t-74 24q-45 0 -72.5 -19.5t-46.5 -46.5l-76 68q29 45 77 72.5t127 27.5q106 0 161 -48t55 -138v-246h52v-102zM267 225q-100 0 -100 -64v-17q0 -32 20.5 -47.5t58.5 -15.5q43 0 73 19t30 56v69
h-82z" />
    <glyph glyph-name="aring" unicode="&#xe5;" horiz-adv-x="559" 
d="M458 0q-42 0 -66.5 24.5t-30.5 65.5h-6q-13 -51 -53 -76.5t-99 -25.5q-80 0 -123 42t-43 112q0 81 58 120.5t165 39.5h89v38q0 44 -23 68t-74 24q-45 0 -72.5 -19.5t-46.5 -46.5l-76 68q29 45 77 72.5t127 27.5q106 0 161 -48t55 -138v-246h52v-102h-71zM246 81
q43 0 73 19t30 56v69h-82q-100 0 -100 -64v-17q0 -32 20.5 -47.5t58.5 -15.5zM264 563q-29 0 -54.5 10t-44.5 28t-29.5 43t-10.5 54t10.5 54t29.5 43t44.5 28t54.5 10t54.5 -10t44 -28t29.5 -43t11 -54t-11 -54t-29.5 -43t-44 -28t-54.5 -10zM264 631q53 0 53 52v30
q0 52 -53 52t-53 -52v-30q0 -52 53 -52z" />
    <glyph glyph-name="aringacute" unicode="&#x1fb;" horiz-adv-x="559" 
d="M458 0q-42 0 -66.5 24.5t-30.5 65.5h-6q-13 -51 -53 -76.5t-99 -25.5q-80 0 -123 42t-43 112q0 81 58 120.5t165 39.5h89v38q0 44 -23 68t-74 24q-45 0 -72.5 -19.5t-46.5 -46.5l-76 68q29 45 77 72.5t127 27.5q106 0 161 -48t55 -138v-246h52v-102h-71zM246 81
q43 0 73 19t30 56v69h-82q-100 0 -100 -64v-17q0 -32 20.5 -47.5t58.5 -15.5zM262 815l-49 48l113 116l70 -68zM264 565q-30 0 -55.5 8t-44.5 23.5t-30 37.5t-11 49t11 49t30 37.5t44.5 24t55.5 8.5t55.5 -8.5t44.5 -24t30 -37.5t11 -49t-11 -49t-30 -37.5t-44.5 -23.5
t-55.5 -8zM264 628q56 0 56 48v14q0 48 -56 48t-56 -48v-14q0 -48 56 -48z" />
    <glyph glyph-name="atilde" unicode="&#xe3;" horiz-adv-x="559" 
d="M458 0q-42 0 -66.5 24.5t-30.5 65.5h-6q-13 -51 -53 -76.5t-99 -25.5q-80 0 -123 42t-43 112q0 81 58 120.5t165 39.5h89v38q0 44 -23 68t-74 24q-45 0 -72.5 -19.5t-46.5 -46.5l-76 68q29 45 77 72.5t127 27.5q106 0 161 -48t55 -138v-246h52v-102h-71zM246 81
q43 0 73 19t30 56v69h-82q-100 0 -100 -64v-17q0 -32 20.5 -47.5t58.5 -15.5zM339 604q-23 0 -41.5 7t-36.5 15q-23 10 -40.5 16.5t-34.5 6.5t-30 -6.5t-29 -19.5l-47 60q17 25 44 43t65 18q23 0 41.5 -7t36.5 -15q23 -11 40.5 -17t34.5 -6t30 6.5t29 19.5l47 -60
q-17 -25 -44 -43t-65 -18z" />
    <glyph glyph-name="uni1EAF" unicode="&#x1eaf;" horiz-adv-x="559" 
d="M458 0q-42 0 -66.5 24.5t-30.5 65.5h-6q-13 -51 -53 -76.5t-99 -25.5q-80 0 -123 42t-43 112q0 81 58 120.5t165 39.5h89v38q0 44 -23 68t-74 24q-45 0 -72.5 -19.5t-46.5 -46.5l-76 68q29 45 77 72.5t127 27.5q106 0 161 -48t55 -138v-246h52v-102h-71zM246 81
q43 0 73 19t30 56v69h-82q-100 0 -100 -64v-17q0 -32 20.5 -47.5t58.5 -15.5zM263 576q-41 0 -72 13t-53 34t-36.5 46t-23.5 49l66 40l20 -31q23 -34 47 -48.5t52 -14.5q30 0 53 14.5t46 48.5l20 31l66 -40q-9 -24 -23.5 -49t-36.5 -46t-53 -34t-72 -13zM278 723l-70 34
l93 187l100 -50z" />
    <glyph glyph-name="uni1EB7" unicode="&#x1eb7;" horiz-adv-x="559" 
d="M458 0q-42 0 -66.5 24.5t-30.5 65.5h-6q-13 -51 -53 -76.5t-99 -25.5q-80 0 -123 42t-43 112q0 81 58 120.5t165 39.5h89v38q0 44 -23 68t-74 24q-45 0 -72.5 -19.5t-46.5 -46.5l-76 68q29 45 77 72.5t127 27.5q106 0 161 -48t55 -138v-246h52v-102h-71zM246 81
q43 0 73 19t30 56v69h-82q-100 0 -100 -64v-17q0 -32 20.5 -47.5t58.5 -15.5zM264 584q-43 0 -73 15t-51 38.5t-33.5 51t-21.5 52.5l71 36l20 -33q20 -32 39 -50.5t49 -18.5t49.5 18.5t39.5 50.5l20 33l70 -36q-9 -25 -22.5 -52.5t-34.5 -51t-50.5 -38.5t-71.5 -15z
M262 -194q-39 0 -55.5 16.5t-16.5 41.5v22q0 25 16.5 41.5t55.5 16.5t55.5 -16.5t16.5 -41.5v-22q0 -25 -16.5 -41.5t-55.5 -16.5z" />
    <glyph glyph-name="uni1EB1" unicode="&#x1eb1;" horiz-adv-x="559" 
d="M458 0q-42 0 -66.5 24.5t-30.5 65.5h-6q-13 -51 -53 -76.5t-99 -25.5q-80 0 -123 42t-43 112q0 81 58 120.5t165 39.5h89v38q0 44 -23 68t-74 24q-45 0 -72.5 -19.5t-46.5 -46.5l-76 68q29 45 77 72.5t127 27.5q106 0 161 -48t55 -138v-246h52v-102h-71zM246 81
q43 0 73 19t30 56v69h-82q-100 0 -100 -64v-17q0 -32 20.5 -47.5t58.5 -15.5zM263 576q-41 0 -72 13t-53 34t-36.5 46t-23.5 49l66 40l20 -31q23 -34 47 -48.5t52 -14.5q30 0 53 14.5t46 48.5l20 31l66 -40q-9 -24 -23.5 -49t-36.5 -46t-53 -34t-72 -13zM127 894l99 50
l93 -186l-71 -35z" />
    <glyph glyph-name="uni1EB3" unicode="&#x1eb3;" horiz-adv-x="559" 
d="M458 0q-42 0 -66.5 24.5t-30.5 65.5h-6q-13 -51 -53 -76.5t-99 -25.5q-80 0 -123 42t-43 112q0 81 58 120.5t165 39.5h89v38q0 44 -23 68t-74 24q-45 0 -72.5 -19.5t-46.5 -46.5l-76 68q29 45 77 72.5t127 27.5q106 0 161 -48t55 -138v-246h52v-102h-71zM246 81
q43 0 73 19t30 56v69h-82q-100 0 -100 -64v-17q0 -32 20.5 -47.5t58.5 -15.5zM263 576q-41 0 -72 13t-53 34t-36.5 46t-23.5 49l66 40l20 -31q23 -34 47 -48.5t52 -14.5q30 0 53 14.5t46 48.5l20 31l66 -40q-9 -24 -23.5 -49t-36.5 -46t-53 -34t-72 -13zM145 931h124
q51 0 70 -20.5t19 -46.5q0 -28 -16.5 -59t-41.5 -61l-26 -32l-59 29l48 101h-118v89z" />
    <glyph glyph-name="uni1EB5" unicode="&#x1eb5;" horiz-adv-x="559" 
d="M458 0q-42 0 -66.5 24.5t-30.5 65.5h-6q-13 -51 -53 -76.5t-99 -25.5q-80 0 -123 42t-43 112q0 81 58 120.5t165 39.5h89v38q0 44 -23 68t-74 24q-45 0 -72.5 -19.5t-46.5 -46.5l-76 68q29 45 77 72.5t127 27.5q106 0 161 -48t55 -138v-246h52v-102h-71zM246 81
q43 0 73 19t30 56v69h-82q-100 0 -100 -64v-17q0 -32 20.5 -47.5t58.5 -15.5zM263 576q-41 0 -72 13t-53 34t-36.5 46t-23.5 49l66 40l20 -31q23 -34 47 -48.5t52 -14.5q30 0 53 14.5t46 48.5l20 31l66 -40q-9 -24 -23.5 -49t-36.5 -46t-53 -34t-72 -13zM334 783
q-23 0 -40.5 6.5t-34.5 14.5q-22 10 -39 16t-34 6t-30 -6t-29 -19l-44 56q17 25 43.5 42.5t64.5 17.5q23 0 41 -7t35 -15q22 -9 39 -15t34 -6t30 6.5t28 19.5l45 -56q-17 -25 -44 -43t-65 -18z" />
    <glyph glyph-name="uni1EA5" unicode="&#x1ea5;" horiz-adv-x="559" 
d="M458 0q-42 0 -66.5 24.5t-30.5 65.5h-6q-13 -51 -53 -76.5t-99 -25.5q-80 0 -123 42t-43 112q0 81 58 120.5t165 39.5h89v38q0 44 -23 68t-74 24q-45 0 -72.5 -19.5t-46.5 -46.5l-76 68q29 45 77 72.5t127 27.5q106 0 161 -48t55 -138v-246h52v-102h-71zM246 81
q43 0 73 19t30 56v69h-82q-100 0 -100 -64v-17q0 -32 20.5 -47.5t58.5 -15.5zM430 723l-70 34l95 187l101 -50zM311 770l135 -143l-60 -54l-123 107l-123 -107l-60 54l135 143h96z" />
    <glyph glyph-name="uni1EAD" unicode="&#x1ead;" horiz-adv-x="559" 
d="M458 0q-42 0 -66.5 24.5t-30.5 65.5h-6q-13 -51 -53 -76.5t-99 -25.5q-80 0 -123 42t-43 112q0 81 58 120.5t165 39.5h89v38q0 44 -23 68t-74 24q-45 0 -72.5 -19.5t-46.5 -46.5l-76 68q29 45 77 72.5t127 27.5q106 0 161 -48t55 -138v-246h52v-102h-71zM246 81
q43 0 73 19t30 56v69h-82q-100 0 -100 -64v-17q0 -32 20.5 -47.5t58.5 -15.5zM322 786l126 -154l-64 -50l-120 115l-120 -115l-64 50l126 154h116zM262 -194q-39 0 -55.5 16.5t-16.5 41.5v22q0 25 16.5 41.5t55.5 16.5t55.5 -16.5t16.5 -41.5v-22q0 -25 -16.5 -41.5
t-55.5 -16.5z" />
    <glyph glyph-name="uni1EA7" unicode="&#x1ea7;" horiz-adv-x="559" 
d="M458 0q-42 0 -66.5 24.5t-30.5 65.5h-6q-13 -51 -53 -76.5t-99 -25.5q-80 0 -123 42t-43 112q0 81 58 120.5t165 39.5h89v38q0 44 -23 68t-74 24q-45 0 -72.5 -19.5t-46.5 -46.5l-76 68q29 45 77 72.5t127 27.5q106 0 161 -48t55 -138v-246h52v-102h-71zM246 81
q43 0 73 19t30 56v69h-82q-100 0 -100 -64v-17q0 -32 20.5 -47.5t58.5 -15.5zM-30 894l101 50l95 -187l-70 -34zM311 770l135 -143l-60 -54l-123 107l-123 -107l-60 54l135 143h96z" />
    <glyph glyph-name="uni1EA9" unicode="&#x1ea9;" horiz-adv-x="559" 
d="M458 0q-42 0 -66.5 24.5t-30.5 65.5h-6q-13 -51 -53 -76.5t-99 -25.5q-80 0 -123 42t-43 112q0 81 58 120.5t165 39.5h89v38q0 44 -23 68t-74 24q-45 0 -72.5 -19.5t-46.5 -46.5l-76 68q29 45 77 72.5t127 27.5q106 0 161 -48t55 -138v-246h52v-102h-71zM246 81
q43 0 73 19t30 56v69h-82q-100 0 -100 -64v-17q0 -32 20.5 -47.5t58.5 -15.5zM305 931h126q50 0 70 -20.5t20 -46.5q0 -28 -17.5 -59t-41.5 -61l-26 -32l-60 30l48 100h-119v89zM311 770l135 -143l-60 -54l-123 107l-123 -107l-60 54l135 143h96z" />
    <glyph glyph-name="uni1EAB" unicode="&#x1eab;" horiz-adv-x="559" 
d="M458 0q-42 0 -66.5 24.5t-30.5 65.5h-6q-13 -51 -53 -76.5t-99 -25.5q-80 0 -123 42t-43 112q0 81 58 120.5t165 39.5h89v38q0 44 -23 68t-74 24q-45 0 -72.5 -19.5t-46.5 -46.5l-76 68q29 45 77 72.5t127 27.5q106 0 161 -48t55 -138v-246h52v-102h-71zM246 81
q43 0 73 19t30 56v69h-82q-100 0 -100 -64v-17q0 -32 20.5 -47.5t58.5 -15.5zM189 925q23 0 41.5 -7t36.5 -15q23 -10 40.5 -16t34.5 -6t30 6t29 19l45 -56q-17 -25 -44 -42.5t-65 -17.5q-23 0 -41.5 6.5t-36.5 14.5q-23 11 -40.5 17t-34.5 6t-30 -6.5t-29 -19.5l-45 56
q17 25 44 43t65 18zM312 761l132 -134l-58 -54l-123 100l-123 -100l-58 54l132 134h98z" />
    <glyph glyph-name="aacute.alt01" 
d="M398 87h-5q-14 -45 -53 -72t-91 -27q-99 0 -151.5 71t-52.5 203q0 131 52.5 201.5t151.5 70.5q52 0 91 -26.5t53 -71.5h5v86h128v-522h-128v87zM290 94q46 0 77 22t31 63v166q0 38 -31 61t-77 23q-50 0 -80.5 -33.5t-30.5 -89.5v-90q0 -56 30.5 -89t80.5 -33zM317 581
l-77 37l95 187l108 -53z" />
    <glyph glyph-name="abreve.alt01" 
d="M398 87h-5q-14 -45 -53 -72t-91 -27q-99 0 -151.5 71t-52.5 203q0 131 52.5 201.5t151.5 70.5q52 0 91 -26.5t53 -71.5h5v86h128v-522h-128v87zM290 94q46 0 77 22t31 63v166q0 38 -31 61t-77 23q-50 0 -80.5 -33.5t-30.5 -89.5v-90q0 -56 30.5 -89t80.5 -33zM304 584
q-43 0 -73 15t-51 38.5t-33.5 51t-21.5 52.5l71 36l20 -33q20 -32 39 -50.5t49 -18.5t49.5 18.5t39.5 50.5l20 33l70 -36q-9 -25 -22.5 -52.5t-34.5 -51t-50.5 -38.5t-71.5 -15z" />
    <glyph glyph-name="uni01CE.alt01" 
d="M398 87h-5q-14 -45 -53 -72t-91 -27q-99 0 -151.5 71t-52.5 203q0 131 52.5 201.5t151.5 70.5q52 0 91 -26.5t53 -71.5h5v86h128v-522h-128v87zM290 94q46 0 77 22t31 63v166q0 38 -31 61t-77 23q-50 0 -80.5 -33.5t-30.5 -89.5v-90q0 -56 30.5 -89t80.5 -33zM246 591
l-126 154l64 50l120 -116l120 116l64 -50l-126 -154h-116z" />
    <glyph glyph-name="acircumflex.alt01" 
d="M398 87h-5q-14 -45 -53 -72t-91 -27q-99 0 -151.5 71t-52.5 203q0 131 52.5 201.5t151.5 70.5q52 0 91 -26.5t53 -71.5h5v86h128v-522h-128v87zM290 94q46 0 77 22t31 63v166q0 38 -31 61t-77 23q-50 0 -80.5 -33.5t-30.5 -89.5v-90q0 -56 30.5 -89t80.5 -33zM362 786
l126 -154l-64 -50l-120 115l-120 -115l-64 50l126 154h116z" />
    <glyph glyph-name="adieresis.alt01" 
d="M398 87h-5q-14 -45 -53 -72t-91 -27q-99 0 -151.5 71t-52.5 203q0 131 52.5 201.5t151.5 70.5q52 0 91 -26.5t53 -71.5h5v86h128v-522h-128v87zM290 94q46 0 77 22t31 63v166q0 38 -31 61t-77 23q-50 0 -80.5 -33.5t-30.5 -89.5v-90q0 -56 30.5 -89t80.5 -33zM199 605
q-39 0 -55 16.5t-16 41.5v21q0 25 16 41.5t55 16.5t55 -16.5t16 -41.5v-21q0 -25 -16 -41.5t-55 -16.5zM409 605q-39 0 -55 16.5t-16 41.5v21q0 25 16 41.5t55 16.5t55 -16.5t16 -41.5v-21q0 -25 -16 -41.5t-55 -16.5z" />
    <glyph glyph-name="uni1EA1.alt01" 
d="M398 87h-5q-14 -45 -53 -72t-91 -27q-99 0 -151.5 71t-52.5 203q0 131 52.5 201.5t151.5 70.5q52 0 91 -26.5t53 -71.5h5v86h128v-522h-128v87zM290 94q46 0 77 22t31 63v166q0 38 -31 61t-77 23q-50 0 -80.5 -33.5t-30.5 -89.5v-90q0 -56 30.5 -89t80.5 -33zM287 -194
q-39 0 -55.5 16.5t-16.5 41.5v22q0 25 16.5 41.5t55.5 16.5t55.5 -16.5t16.5 -41.5v-22q0 -25 -16.5 -41.5t-55.5 -16.5z" />
    <glyph glyph-name="agrave.alt01" 
d="M398 87h-5q-14 -45 -53 -72t-91 -27q-99 0 -151.5 71t-52.5 203q0 131 52.5 201.5t151.5 70.5q52 0 91 -26.5t53 -71.5h5v86h128v-522h-128v87zM290 94q46 0 77 22t31 63v166q0 38 -31 61t-77 23q-50 0 -80.5 -33.5t-30.5 -89.5v-90q0 -56 30.5 -89t80.5 -33zM165 752
l108 53l95 -187l-77 -37z" />
    <glyph glyph-name="uni1EA3.alt01" 
d="M398 87h-5q-14 -45 -53 -72t-91 -27q-99 0 -151.5 71t-52.5 203q0 131 52.5 201.5t151.5 70.5q52 0 91 -26.5t53 -71.5h5v86h128v-522h-128v87zM290 94q46 0 77 22t31 63v166q0 38 -31 61t-77 23q-50 0 -80.5 -33.5t-30.5 -89.5v-90q0 -56 30.5 -89t80.5 -33zM195 791
h133q51 0 70 -20t19 -48q0 -27 -15 -58t-39 -61l-27 -33l-67 32l46 95h-120v93z" />
    <glyph glyph-name="amacron.alt01" 
d="M398 87h-5q-14 -45 -53 -72t-91 -27q-99 0 -151.5 71t-52.5 203q0 131 52.5 201.5t151.5 70.5q52 0 91 -26.5t53 -71.5h5v86h128v-522h-128v87zM290 94q46 0 77 22t31 63v166q0 38 -31 61t-77 23q-50 0 -80.5 -33.5t-30.5 -89.5v-90q0 -56 30.5 -89t80.5 -33zM155 721
h298v-93h-298v93z" />
    <glyph glyph-name="aogonek.alt01" 
d="M526 0q-35 -24 -56.5 -41t-33 -29.5t-15.5 -21.5t-4 -18q0 -18 10.5 -25t25.5 -7q17 0 29.5 7.5t23.5 18.5l49 -47q-12 -22 -40 -35t-72 -13q-23 0 -44 4.5t-37 14t-25.5 25.5t-9.5 39q0 41 31.5 69.5t82.5 54.5l-1 4h-42v87h-5q-14 -45 -53 -72t-91 -27q-99 0 -151.5 71
t-52.5 203q0 131 52.5 201.5t151.5 70.5q52 0 91 -26.5t53 -71.5h5v86h128v-522zM290 94q46 0 77 22t31 63v166q0 38 -31 61t-77 23q-50 0 -80.5 -33.5t-30.5 -89.5v-90q0 -56 30.5 -89t80.5 -33z" />
    <glyph glyph-name="aring.alt01" 
d="M398 87h-5q-14 -45 -53 -72t-91 -27q-99 0 -151.5 71t-52.5 203q0 131 52.5 201.5t151.5 70.5q52 0 91 -26.5t53 -71.5h5v86h128v-522h-128v87zM290 94q46 0 77 22t31 63v166q0 38 -31 61t-77 23q-50 0 -80.5 -33.5t-30.5 -89.5v-90q0 -56 30.5 -89t80.5 -33zM304 563
q-29 0 -54.5 10t-44.5 28t-29.5 43t-10.5 54t10.5 54t29.5 43t44.5 28t54.5 10t54.5 -10t44 -28t29.5 -43t11 -54t-11 -54t-29.5 -43t-44 -28t-54.5 -10zM304 631q53 0 53 52v30q0 52 -53 52t-53 -52v-30q0 -52 53 -52z" />
    <glyph glyph-name="aringacute.alt01" 
d="M398 87h-5q-14 -45 -53 -72t-91 -27q-99 0 -151.5 71t-52.5 203q0 131 52.5 201.5t151.5 70.5q52 0 91 -26.5t53 -71.5h5v86h128v-522h-128v87zM290 94q46 0 77 22t31 63v166q0 38 -31 61t-77 23q-50 0 -80.5 -33.5t-30.5 -89.5v-90q0 -56 30.5 -89t80.5 -33zM302 815
l-49 48l113 116l70 -68zM304 565q-30 0 -55.5 8t-44.5 23.5t-30 37.5t-11 49t11 49t30 37.5t44.5 24t55.5 8.5t55.5 -8.5t44.5 -24t30 -37.5t11 -49t-11 -49t-30 -37.5t-44.5 -23.5t-55.5 -8zM304 628q56 0 56 48v14q0 48 -56 48t-56 -48v-14q0 -48 56 -48z" />
    <glyph glyph-name="atilde.alt01" 
d="M398 87h-5q-14 -45 -53 -72t-91 -27q-99 0 -151.5 71t-52.5 203q0 131 52.5 201.5t151.5 70.5q52 0 91 -26.5t53 -71.5h5v86h128v-522h-128v87zM290 94q46 0 77 22t31 63v166q0 38 -31 61t-77 23q-50 0 -80.5 -33.5t-30.5 -89.5v-90q0 -56 30.5 -89t80.5 -33zM379 604
q-23 0 -41.5 7t-36.5 15q-23 10 -40.5 16.5t-34.5 6.5t-30 -6.5t-29 -19.5l-47 60q17 25 44 43t65 18q23 0 41.5 -7t36.5 -15q23 -11 40.5 -17t34.5 -6t30 6.5t29 19.5l47 -60q-17 -25 -44 -43t-65 -18z" />
    <glyph glyph-name="uni1EAF.alt01" 
d="M398 87h-5q-14 -45 -53 -72t-91 -27q-99 0 -151.5 71t-52.5 203q0 131 52.5 201.5t151.5 70.5q52 0 91 -26.5t53 -71.5h5v86h128v-522h-128v87zM290 94q46 0 77 22t31 63v166q0 38 -31 61t-77 23q-50 0 -80.5 -33.5t-30.5 -89.5v-90q0 -56 30.5 -89t80.5 -33zM304 576
q-41 0 -72 13t-53 34t-36.5 46t-23.5 49l66 40l20 -31q23 -34 47 -48.5t52 -14.5q30 0 53 14.5t46 48.5l20 31l66 -40q-9 -24 -23.5 -49t-36.5 -46t-53 -34t-72 -13zM319 723l-70 34l93 187l100 -50z" />
    <glyph glyph-name="uni1EB7.alt01" 
d="M398 87h-5q-14 -45 -53 -72t-91 -27q-99 0 -151.5 71t-52.5 203q0 131 52.5 201.5t151.5 70.5q52 0 91 -26.5t53 -71.5h5v86h128v-522h-128v87zM290 94q46 0 77 22t31 63v166q0 38 -31 61t-77 23q-50 0 -80.5 -33.5t-30.5 -89.5v-90q0 -56 30.5 -89t80.5 -33zM304 584
q-43 0 -73 15t-51 38.5t-33.5 51t-21.5 52.5l71 36l20 -33q20 -32 39 -50.5t49 -18.5t49.5 18.5t39.5 50.5l20 33l70 -36q-9 -25 -22.5 -52.5t-34.5 -51t-50.5 -38.5t-71.5 -15zM287 -194q-39 0 -55.5 16.5t-16.5 41.5v22q0 25 16.5 41.5t55.5 16.5t55.5 -16.5t16.5 -41.5
v-22q0 -25 -16.5 -41.5t-55.5 -16.5z" />
    <glyph glyph-name="uni1EB1.alt01" 
d="M398 87h-5q-14 -45 -53 -72t-91 -27q-99 0 -151.5 71t-52.5 203q0 131 52.5 201.5t151.5 70.5q52 0 91 -26.5t53 -71.5h5v86h128v-522h-128v87zM290 94q46 0 77 22t31 63v166q0 38 -31 61t-77 23q-50 0 -80.5 -33.5t-30.5 -89.5v-90q0 -56 30.5 -89t80.5 -33zM304 576
q-41 0 -72 13t-53 34t-36.5 46t-23.5 49l66 40l20 -31q23 -34 47 -48.5t52 -14.5q30 0 53 14.5t46 48.5l20 31l66 -40q-9 -24 -23.5 -49t-36.5 -46t-53 -34t-72 -13zM168 894l99 50l93 -186l-71 -35z" />
    <glyph glyph-name="uni1EB3.alt01" 
d="M398 87h-5q-14 -45 -53 -72t-91 -27q-99 0 -151.5 71t-52.5 203q0 131 52.5 201.5t151.5 70.5q52 0 91 -26.5t53 -71.5h5v86h128v-522h-128v87zM290 94q46 0 77 22t31 63v166q0 38 -31 61t-77 23q-50 0 -80.5 -33.5t-30.5 -89.5v-90q0 -56 30.5 -89t80.5 -33zM304 576
q-41 0 -72 13t-53 34t-36.5 46t-23.5 49l66 40l20 -31q23 -34 47 -48.5t52 -14.5q30 0 53 14.5t46 48.5l20 31l66 -40q-9 -24 -23.5 -49t-36.5 -46t-53 -34t-72 -13zM186 931h124q51 0 70 -20.5t19 -46.5q0 -28 -16.5 -59t-41.5 -61l-26 -32l-59 29l48 101h-118v89z" />
    <glyph glyph-name="uni1EB5.alt01" 
d="M398 87h-5q-14 -45 -53 -72t-91 -27q-99 0 -151.5 71t-52.5 203q0 131 52.5 201.5t151.5 70.5q52 0 91 -26.5t53 -71.5h5v86h128v-522h-128v87zM290 94q46 0 77 22t31 63v166q0 38 -31 61t-77 23q-50 0 -80.5 -33.5t-30.5 -89.5v-90q0 -56 30.5 -89t80.5 -33zM304 576
q-41 0 -72 13t-53 34t-36.5 46t-23.5 49l66 40l20 -31q23 -34 47 -48.5t52 -14.5q30 0 53 14.5t46 48.5l20 31l66 -40q-9 -24 -23.5 -49t-36.5 -46t-53 -34t-72 -13zM375 783q-23 0 -40.5 6.5t-34.5 14.5q-22 10 -39 16t-34 6t-30 -6t-29 -19l-44 56q17 25 43.5 42.5
t64.5 17.5q23 0 41 -7t35 -15q22 -9 39 -15t34 -6t30 6.5t28 19.5l45 -56q-17 -25 -44 -43t-65 -18z" />
    <glyph glyph-name="uni1EA5.alt01" 
d="M398 87h-5q-14 -45 -53 -72t-91 -27q-99 0 -151.5 71t-52.5 203q0 131 52.5 201.5t151.5 70.5q52 0 91 -26.5t53 -71.5h5v86h128v-522h-128v87zM290 94q46 0 77 22t31 63v166q0 38 -31 61t-77 23q-50 0 -80.5 -33.5t-30.5 -89.5v-90q0 -56 30.5 -89t80.5 -33zM471 723
l-70 34l95 187l101 -50zM352 770l135 -143l-60 -54l-123 107l-123 -107l-60 54l135 143h96z" />
    <glyph glyph-name="uni1EAD.alt01" 
d="M398 87h-5q-14 -45 -53 -72t-91 -27q-99 0 -151.5 71t-52.5 203q0 131 52.5 201.5t151.5 70.5q52 0 91 -26.5t53 -71.5h5v86h128v-522h-128v87zM290 94q46 0 77 22t31 63v166q0 38 -31 61t-77 23q-50 0 -80.5 -33.5t-30.5 -89.5v-90q0 -56 30.5 -89t80.5 -33zM362 786
l126 -154l-64 -50l-120 115l-120 -115l-64 50l126 154h116zM287 -194q-39 0 -55.5 16.5t-16.5 41.5v22q0 25 16.5 41.5t55.5 16.5t55.5 -16.5t16.5 -41.5v-22q0 -25 -16.5 -41.5t-55.5 -16.5z" />
    <glyph glyph-name="uni1EA7.alt01" 
d="M398 87h-5q-14 -45 -53 -72t-91 -27q-99 0 -151.5 71t-52.5 203q0 131 52.5 201.5t151.5 70.5q52 0 91 -26.5t53 -71.5h5v86h128v-522h-128v87zM290 94q46 0 77 22t31 63v166q0 38 -31 61t-77 23q-50 0 -80.5 -33.5t-30.5 -89.5v-90q0 -56 30.5 -89t80.5 -33zM11 894
l101 50l95 -187l-70 -34zM352 770l135 -143l-60 -54l-123 107l-123 -107l-60 54l135 143h96z" />
    <glyph glyph-name="uni1EA9.alt01" 
d="M398 87h-5q-14 -45 -53 -72t-91 -27q-99 0 -151.5 71t-52.5 203q0 131 52.5 201.5t151.5 70.5q52 0 91 -26.5t53 -71.5h5v86h128v-522h-128v87zM290 94q46 0 77 22t31 63v166q0 38 -31 61t-77 23q-50 0 -80.5 -33.5t-30.5 -89.5v-90q0 -56 30.5 -89t80.5 -33zM346 931
h126q50 0 70 -20.5t20 -46.5q0 -28 -17.5 -59t-41.5 -61l-26 -32l-60 30l48 100h-119v89zM352 770l135 -143l-60 -54l-123 107l-123 -107l-60 54l135 143h96z" />
    <glyph glyph-name="uni1EAB.alt01" 
d="M398 87h-5q-14 -45 -53 -72t-91 -27q-99 0 -151.5 71t-52.5 203q0 131 52.5 201.5t151.5 70.5q52 0 91 -26.5t53 -71.5h5v86h128v-522h-128v87zM290 94q46 0 77 22t31 63v166q0 38 -31 61t-77 23q-50 0 -80.5 -33.5t-30.5 -89.5v-90q0 -56 30.5 -89t80.5 -33zM230 925
q23 0 41.5 -7t36.5 -15q23 -10 40.5 -16t34.5 -6t30 6t29 19l45 -56q-17 -25 -44 -42.5t-65 -17.5q-23 0 -41.5 6.5t-36.5 14.5q-23 11 -40.5 17t-34.5 6t-30 -6.5t-29 -19.5l-45 56q17 25 44 43t65 18zM353 761l132 -134l-58 -54l-123 100l-123 -100l-58 54l132 134h98z
" />
    <glyph glyph-name="ae" unicode="&#xe6;" horiz-adv-x="864" 
d="M267 229q-48 -1 -74 -17.5t-26 -48.5v-16q0 -32 20 -49t60 -17q42 0 72 19t30 56v73h-82zM692 308v9q0 54 -26.5 87.5t-76.5 33.5q-51 0 -81 -34t-30 -88v-8h214zM607 92q47 0 79 20t54 49l69 -77q-32 -45 -87 -70.5t-126 -25.5q-38 0 -71 9t-58.5 24t-43.5 34t-27 40h-6
q-7 -20 -21.5 -39t-37.5 -34t-54.5 -24.5t-73.5 -9.5q-79 0 -122.5 43t-43.5 112q0 41 16 72t45 51.5t70 31t92 10.5h89v32q0 44 -23 68t-73 24q-46 0 -73.5 -19t-46.5 -47l-76 68q29 45 77 72.5t127 27.5q60 0 96 -24.5t56 -61.5h6q20 37 65 61.5t108 24.5q61 0 105 -21
t72.5 -57t42 -83.5t13.5 -101.5v-42h-348v-13q0 -56 34 -90t96 -34z" />
    <glyph glyph-name="aeacute" unicode="&#x1fd;" horiz-adv-x="864" 
d="M440 581l-77 37l95 187l108 -53zM267 229q-48 -1 -74 -17.5t-26 -48.5v-16q0 -32 20 -49t60 -17q42 0 72 19t30 56v73h-82zM692 308v9q0 54 -26.5 87.5t-76.5 33.5q-51 0 -81 -34t-30 -88v-8h214zM607 92q47 0 79 20t54 49l69 -77q-32 -45 -87 -70.5t-126 -25.5
q-38 0 -71 9t-58.5 24t-43.5 34t-27 40h-6q-7 -20 -21.5 -39t-37.5 -34t-54.5 -24.5t-73.5 -9.5q-79 0 -122.5 43t-43.5 112q0 41 16 72t45 51.5t70 31t92 10.5h89v32q0 44 -23 68t-73 24q-46 0 -73.5 -19t-46.5 -47l-76 68q29 45 77 72.5t127 27.5q60 0 96 -24.5t56 -61.5
h6q20 37 65 61.5t108 24.5q61 0 105 -21t72.5 -57t42 -83.5t13.5 -101.5v-42h-348v-13q0 -56 34 -90t96 -34z" />
    <glyph glyph-name="cacute" unicode="&#x107;" horiz-adv-x="513" 
d="M289 581l-77 37l95 187l108 -53zM280 -12q-58 0 -103 19t-75.5 55t-46.5 86.5t-16 113.5t16 113t46.5 85.5t75.5 54.5t103 19q79 0 130.5 -35t74.5 -97l-105 -47q-9 33 -33.5 54.5t-66.5 21.5q-54 0 -80.5 -34t-26.5 -89v-95q0 -55 26.5 -88.5t80.5 -33.5q46 0 71 23.5
t39 58.5l98 -47q-26 -69 -79 -103.5t-129 -34.5z" />
    <glyph glyph-name="ccaron" unicode="&#x10d;" horiz-adv-x="513" 
d="M218 591l-126 154l64 50l120 -116l120 116l64 -50l-126 -154h-116zM280 -12q-58 0 -103 19t-75.5 55t-46.5 86.5t-16 113.5t16 113t46.5 85.5t75.5 54.5t103 19q79 0 130.5 -35t74.5 -97l-105 -47q-9 33 -33.5 54.5t-66.5 21.5q-54 0 -80.5 -34t-26.5 -89v-95
q0 -55 26.5 -88.5t80.5 -33.5q46 0 71 23.5t39 58.5l98 -47q-26 -69 -79 -103.5t-129 -34.5z" />
    <glyph glyph-name="ccedilla" unicode="&#xe7;" horiz-adv-x="513" 
d="M280 534q79 0 130.5 -35t74.5 -97l-105 -47q-9 33 -33.5 54.5t-66.5 21.5q-54 0 -80.5 -34t-26.5 -89v-95q0 -55 26.5 -88.5t80.5 -33.5q46 0 71 23.5t39 58.5l98 -47q-24 -66 -74 -100.5t-121 -37.5l-9 -45l4 -3q22 6 45 6q30 0 51 -16.5t21 -51.5q0 -24 -10.5 -41
t-28 -27.5t-40.5 -15.5t-47 -5q-49 0 -77 14.5t-40 29.5l44 51q10 -12 25.5 -20.5t38.5 -8.5q19 0 31.5 6.5t12.5 20.5q0 6 -3 12t-11 11.5t-22 10t-37 7.5l-23 2l14 67q-94 15 -143.5 86.5t-49.5 183.5q0 63 16 113t46.5 85.5t75.5 54.5t103 19z" />
    <glyph glyph-name="ccircumflex" unicode="&#x109;" horiz-adv-x="513" 
d="M334 786l126 -154l-64 -50l-120 115l-120 -115l-64 50l126 154h116zM280 -12q-58 0 -103 19t-75.5 55t-46.5 86.5t-16 113.5t16 113t46.5 85.5t75.5 54.5t103 19q79 0 130.5 -35t74.5 -97l-105 -47q-9 33 -33.5 54.5t-66.5 21.5q-54 0 -80.5 -34t-26.5 -89v-95
q0 -55 26.5 -88.5t80.5 -33.5q46 0 71 23.5t39 58.5l98 -47q-26 -69 -79 -103.5t-129 -34.5z" />
    <glyph glyph-name="cdotaccent" unicode="&#x10b;" horiz-adv-x="513" 
d="M280 -12q-58 0 -103 19t-75.5 55t-46.5 86.5t-16 113.5t16 113t46.5 85.5t75.5 54.5t103 19q79 0 130.5 -35t74.5 -97l-105 -47q-9 33 -33.5 54.5t-66.5 21.5q-54 0 -80.5 -34t-26.5 -89v-95q0 -55 26.5 -88.5t80.5 -33.5q46 0 71 23.5t39 58.5l98 -47
q-26 -69 -79 -103.5t-129 -34.5zM276 598q-43 0 -60.5 18.5t-17.5 44.5v24q0 27 17.5 45t60.5 18t60.5 -18t17.5 -45v-24q0 -26 -17.5 -44.5t-60.5 -18.5z" />
    <glyph glyph-name="dcaron" unicode="&#x10f;" 
d="M398 87h-5q-14 -45 -53 -72t-91 -27q-99 0 -151.5 71t-52.5 203q0 131 52.5 201.5t151.5 70.5q52 0 91 -26.5t53 -71.5h5v304h128v-740h-128v87zM290 94q46 0 77 22t31 63v166q0 38 -31 61t-77 23q-50 0 -80.5 -33.5t-30.5 -89.5v-90q0 -56 30.5 -89t80.5 -33zM672 534
h-84l8 206h138z" />
    <glyph glyph-name="dcroat" unicode="&#x111;" horiz-adv-x="603" 
d="M398 87h-5q-14 -45 -53 -72t-91 -27q-99 0 -151.5 71t-52.5 203q0 131 52.5 201.5t151.5 70.5q52 0 91 -26.5t53 -71.5h5v159h-144v89h144v56h128v-56h62v-89h-62v-595h-128v87zM290 94q46 0 77 22t31 63v166q0 38 -31 61t-77 23q-50 0 -80.5 -33.5t-30.5 -89.5v-90
q0 -56 30.5 -89t80.5 -33z" />
    <glyph glyph-name="eth" unicode="&#xf0;" horiz-adv-x="589" 
d="M461 699l-74 -48q69 -72 111 -166t42 -209q0 -74 -18 -128.5t-50.5 -90t-77.5 -52.5t-100 -17q-59 0 -105.5 18.5t-79 52.5t-49.5 83t-17 109q0 56 14.5 102t41.5 79t65.5 51t85.5 18q54 0 90.5 -26.5t57.5 -71.5l6 3q-12 51 -42.5 97t-73.5 88l-86 -54l-46 55l78 47
q-35 29 -73.5 54t-77.5 47h195q14 -8 27 -18.5t27 -21.5l84 53zM292 86q53 0 84 34t31 95v58q0 61 -31 95t-84 34q-54 0 -85 -34t-31 -95v-58q0 -61 31 -95t85 -34z" />
    <glyph glyph-name="eacute" unicode="&#xe9;" horiz-adv-x="558" 
d="M299 581l-77 37l95 187l108 -53zM285 -12q-58 0 -103.5 19.5t-77 55t-48.5 86t-17 113.5q0 62 16.5 112t47.5 85.5t76 55t102 19.5q61 0 106 -21t74 -57t43.5 -83.5t14.5 -101.5v-42h-347v-13q0 -57 32 -91.5t95 -34.5q48 0 78.5 20t54.5 51l69 -77q-32 -45 -87.5 -70.5
t-128.5 -25.5zM283 438q-51 0 -81 -34t-30 -88v-8h214v9q0 54 -26.5 87.5t-76.5 33.5z" />
    <glyph glyph-name="ebreve" unicode="&#x115;" horiz-adv-x="558" 
d="M285 -12q-58 0 -103.5 19.5t-77 55t-48.5 86t-17 113.5q0 62 16.5 112t47.5 85.5t76 55t102 19.5q61 0 106 -21t74 -57t43.5 -83.5t14.5 -101.5v-42h-347v-13q0 -57 32 -91.5t95 -34.5q48 0 78.5 20t54.5 51l69 -77q-32 -45 -87.5 -70.5t-128.5 -25.5zM283 438
q-51 0 -81 -34t-30 -88v-8h214v9q0 54 -26.5 87.5t-76.5 33.5zM286 584q-43 0 -73 15t-51 38.5t-33.5 51t-21.5 52.5l71 36l20 -33q20 -32 39 -50.5t49 -18.5t49.5 18.5t39.5 50.5l20 33l70 -36q-9 -25 -22.5 -52.5t-34.5 -51t-50.5 -38.5t-71.5 -15z" />
    <glyph glyph-name="ecaron" unicode="&#x11b;" horiz-adv-x="558" 
d="M228 591l-126 154l64 50l120 -116l120 116l64 -50l-126 -154h-116zM285 -12q-58 0 -103.5 19.5t-77 55t-48.5 86t-17 113.5q0 62 16.5 112t47.5 85.5t76 55t102 19.5q61 0 106 -21t74 -57t43.5 -83.5t14.5 -101.5v-42h-347v-13q0 -57 32 -91.5t95 -34.5q48 0 78.5 20
t54.5 51l69 -77q-32 -45 -87.5 -70.5t-128.5 -25.5zM283 438q-51 0 -81 -34t-30 -88v-8h214v9q0 54 -26.5 87.5t-76.5 33.5z" />
    <glyph glyph-name="ecircumflex" unicode="&#xea;" horiz-adv-x="558" 
d="M344 786l126 -154l-64 -50l-120 115l-120 -115l-64 50l126 154h116zM285 -12q-58 0 -103.5 19.5t-77 55t-48.5 86t-17 113.5q0 62 16.5 112t47.5 85.5t76 55t102 19.5q61 0 106 -21t74 -57t43.5 -83.5t14.5 -101.5v-42h-347v-13q0 -57 32 -91.5t95 -34.5q48 0 78.5 20
t54.5 51l69 -77q-32 -45 -87.5 -70.5t-128.5 -25.5zM283 438q-51 0 -81 -34t-30 -88v-8h214v9q0 54 -26.5 87.5t-76.5 33.5z" />
    <glyph glyph-name="edieresis" unicode="&#xeb;" horiz-adv-x="558" 
d="M181 605q-39 0 -55 16.5t-16 41.5v21q0 25 16 41.5t55 16.5t55 -16.5t16 -41.5v-21q0 -25 -16 -41.5t-55 -16.5zM391 605q-39 0 -55 16.5t-16 41.5v21q0 25 16 41.5t55 16.5t55 -16.5t16 -41.5v-21q0 -25 -16 -41.5t-55 -16.5zM285 -12q-58 0 -103.5 19.5t-77 55
t-48.5 86t-17 113.5q0 62 16.5 112t47.5 85.5t76 55t102 19.5q61 0 106 -21t74 -57t43.5 -83.5t14.5 -101.5v-42h-347v-13q0 -57 32 -91.5t95 -34.5q48 0 78.5 20t54.5 51l69 -77q-32 -45 -87.5 -70.5t-128.5 -25.5zM283 438q-51 0 -81 -34t-30 -88v-8h214v9
q0 54 -26.5 87.5t-76.5 33.5z" />
    <glyph glyph-name="edotaccent" unicode="&#x117;" horiz-adv-x="558" 
d="M285 -12q-58 0 -103.5 19.5t-77 55t-48.5 86t-17 113.5q0 62 16.5 112t47.5 85.5t76 55t102 19.5q61 0 106 -21t74 -57t43.5 -83.5t14.5 -101.5v-42h-347v-13q0 -57 32 -91.5t95 -34.5q48 0 78.5 20t54.5 51l69 -77q-32 -45 -87.5 -70.5t-128.5 -25.5zM283 438
q-51 0 -81 -34t-30 -88v-8h214v9q0 54 -26.5 87.5t-76.5 33.5zM286 598q-43 0 -60.5 18.5t-17.5 44.5v24q0 27 17.5 45t60.5 18t60.5 -18t17.5 -45v-24q0 -26 -17.5 -44.5t-60.5 -18.5z" />
    <glyph glyph-name="uni1EB9" unicode="&#x1eb9;" horiz-adv-x="558" 
d="M285 -12q-58 0 -103.5 19.5t-77 55t-48.5 86t-17 113.5q0 62 16.5 112t47.5 85.5t76 55t102 19.5q61 0 106 -21t74 -57t43.5 -83.5t14.5 -101.5v-42h-347v-13q0 -57 32 -91.5t95 -34.5q48 0 78.5 20t54.5 51l69 -77q-32 -45 -87.5 -70.5t-128.5 -25.5zM283 438
q-51 0 -81 -34t-30 -88v-8h214v9q0 54 -26.5 87.5t-76.5 33.5zM283 -194q-39 0 -55.5 16.5t-16.5 41.5v22q0 25 16.5 41.5t55.5 16.5t55.5 -16.5t16.5 -41.5v-22q0 -25 -16.5 -41.5t-55.5 -16.5z" />
    <glyph glyph-name="egrave" unicode="&#xe8;" horiz-adv-x="558" 
d="M285 -12q-58 0 -103.5 19.5t-77 55t-48.5 86t-17 113.5q0 62 16.5 112t47.5 85.5t76 55t102 19.5q61 0 106 -21t74 -57t43.5 -83.5t14.5 -101.5v-42h-347v-13q0 -57 32 -91.5t95 -34.5q48 0 78.5 20t54.5 51l69 -77q-32 -45 -87.5 -70.5t-128.5 -25.5zM283 438
q-51 0 -81 -34t-30 -88v-8h214v9q0 54 -26.5 87.5t-76.5 33.5zM147 752l108 53l95 -187l-77 -37z" />
    <glyph glyph-name="uni1EBB" unicode="&#x1ebb;" horiz-adv-x="558" 
d="M285 -12q-58 0 -103.5 19.5t-77 55t-48.5 86t-17 113.5q0 62 16.5 112t47.5 85.5t76 55t102 19.5q61 0 106 -21t74 -57t43.5 -83.5t14.5 -101.5v-42h-347v-13q0 -57 32 -91.5t95 -34.5q48 0 78.5 20t54.5 51l69 -77q-32 -45 -87.5 -70.5t-128.5 -25.5zM283 438
q-51 0 -81 -34t-30 -88v-8h214v9q0 54 -26.5 87.5t-76.5 33.5zM176 791h133q51 0 70 -20t19 -48q0 -27 -15 -58t-39 -61l-27 -33l-67 32l46 95h-120v93z" />
    <glyph glyph-name="emacron" unicode="&#x113;" horiz-adv-x="558" 
d="M285 -12q-58 0 -103.5 19.5t-77 55t-48.5 86t-17 113.5q0 62 16.5 112t47.5 85.5t76 55t102 19.5q61 0 106 -21t74 -57t43.5 -83.5t14.5 -101.5v-42h-347v-13q0 -57 32 -91.5t95 -34.5q48 0 78.5 20t54.5 51l69 -77q-32 -45 -87.5 -70.5t-128.5 -25.5zM283 438
q-51 0 -81 -34t-30 -88v-8h214v9q0 54 -26.5 87.5t-76.5 33.5zM137 721h298v-93h-298v93z" />
    <glyph glyph-name="eogonek" unicode="&#x119;" horiz-adv-x="558" 
d="M342 -211q-23 0 -43.5 4.5t-36.5 14t-25 25t-9 38.5q0 22 8.5 39t23.5 31.5t35 26.5t44 24l-2 4q-14 -5 -27.5 -6.5t-27.5 -1.5q-57 0 -102.5 19.5t-76.5 55t-47.5 86t-16.5 113.5q0 62 16.5 112t47.5 85.5t76 55t102 19.5q61 0 106 -21t74 -57t43.5 -83.5t14.5 -101.5
v-42h-347v-13q0 -57 32 -91.5t96 -34.5q45 0 78 21t54 50l69 -77q-10 -14 -30 -31t-55 -44q-41 -32 -70 -61.5t-29 -58.5q0 -17 10.5 -24t25.5 -7q16 0 29 7.5t23 18.5l48 -47q-11 -22 -39 -35t-72 -13zM386 308v9q0 54 -26.5 87.5t-76.5 33.5q-51 0 -81 -34t-30 -88v-8h214
z" />
    <glyph glyph-name="uni1EBD" unicode="&#x1ebd;" horiz-adv-x="558" 
d="M285 -12q-58 0 -103.5 19.5t-77 55t-48.5 86t-17 113.5q0 62 16.5 112t47.5 85.5t76 55t102 19.5q61 0 106 -21t74 -57t43.5 -83.5t14.5 -101.5v-42h-347v-13q0 -57 32 -91.5t95 -34.5q48 0 78.5 20t54.5 51l69 -77q-32 -45 -87.5 -70.5t-128.5 -25.5zM283 438
q-51 0 -81 -34t-30 -88v-8h214v9q0 54 -26.5 87.5t-76.5 33.5zM361 604q-23 0 -41.5 7t-36.5 15q-23 10 -40.5 16.5t-34.5 6.5t-30 -6.5t-29 -19.5l-47 60q17 25 44 43t65 18q23 0 41.5 -7t36.5 -15q23 -11 40.5 -17t34.5 -6t30 6.5t29 19.5l47 -60q-17 -25 -44 -43t-65 -18
z" />
    <glyph glyph-name="uni1EBF" unicode="&#x1ebf;" horiz-adv-x="558" 
d="M452 723l-70 34l95 187l101 -50zM333 770l135 -143l-60 -54l-123 107l-123 -107l-60 54l135 143h96zM285 -12q-58 0 -103.5 19.5t-77 55t-48.5 86t-17 113.5q0 62 16.5 112t47.5 85.5t76 55t102 19.5q61 0 106 -21t74 -57t43.5 -83.5t14.5 -101.5v-42h-347v-13
q0 -57 32 -91.5t95 -34.5q48 0 78.5 20t54.5 51l69 -77q-32 -45 -87.5 -70.5t-128.5 -25.5zM283 438q-51 0 -81 -34t-30 -88v-8h214v9q0 54 -26.5 87.5t-76.5 33.5z" />
    <glyph glyph-name="uni1EC7" unicode="&#x1ec7;" horiz-adv-x="558" 
d="M344 786l126 -154l-64 -50l-120 115l-120 -115l-64 50l126 154h116zM285 -12q-58 0 -103.5 19.5t-77 55t-48.5 86t-17 113.5q0 62 16.5 112t47.5 85.5t76 55t102 19.5q61 0 106 -21t74 -57t43.5 -83.5t14.5 -101.5v-42h-347v-13q0 -57 32 -91.5t95 -34.5q48 0 78.5 20
t54.5 51l69 -77q-32 -45 -87.5 -70.5t-128.5 -25.5zM283 438q-51 0 -81 -34t-30 -88v-8h214v9q0 54 -26.5 87.5t-76.5 33.5zM283 -194q-39 0 -55.5 16.5t-16.5 41.5v22q0 25 16.5 41.5t55.5 16.5t55.5 -16.5t16.5 -41.5v-22q0 -25 -16.5 -41.5t-55.5 -16.5z" />
    <glyph glyph-name="uni1EC1" unicode="&#x1ec1;" horiz-adv-x="558" 
d="M-8 894l101 50l95 -187l-70 -34zM333 770l135 -143l-60 -54l-123 107l-123 -107l-60 54l135 143h96zM285 -12q-58 0 -103.5 19.5t-77 55t-48.5 86t-17 113.5q0 62 16.5 112t47.5 85.5t76 55t102 19.5q61 0 106 -21t74 -57t43.5 -83.5t14.5 -101.5v-42h-347v-13
q0 -57 32 -91.5t95 -34.5q48 0 78.5 20t54.5 51l69 -77q-32 -45 -87.5 -70.5t-128.5 -25.5zM283 438q-51 0 -81 -34t-30 -88v-8h214v9q0 54 -26.5 87.5t-76.5 33.5z" />
    <glyph glyph-name="uni1EC3" unicode="&#x1ec3;" horiz-adv-x="558" 
d="M285 -12q-58 0 -103.5 19.5t-77 55t-48.5 86t-17 113.5q0 62 16.5 112t47.5 85.5t76 55t102 19.5q61 0 106 -21t74 -57t43.5 -83.5t14.5 -101.5v-42h-347v-13q0 -57 32 -91.5t95 -34.5q48 0 78.5 20t54.5 51l69 -77q-32 -45 -87.5 -70.5t-128.5 -25.5zM283 438
q-51 0 -81 -34t-30 -88v-8h214v9q0 54 -26.5 87.5t-76.5 33.5zM327 931h126q50 0 70 -20.5t20 -46.5q0 -28 -17.5 -59t-41.5 -61l-26 -32l-60 30l48 100h-119v89zM333 770l135 -143l-60 -54l-123 107l-123 -107l-60 54l135 143h96z" />
    <glyph glyph-name="uni1EC5" unicode="&#x1ec5;" horiz-adv-x="558" 
d="M285 -12q-58 0 -103.5 19.5t-77 55t-48.5 86t-17 113.5q0 62 16.5 112t47.5 85.5t76 55t102 19.5q61 0 106 -21t74 -57t43.5 -83.5t14.5 -101.5v-42h-347v-13q0 -57 32 -91.5t95 -34.5q48 0 78.5 20t54.5 51l69 -77q-32 -45 -87.5 -70.5t-128.5 -25.5zM283 438
q-51 0 -81 -34t-30 -88v-8h214v9q0 54 -26.5 87.5t-76.5 33.5zM211 925q23 0 41.5 -7t36.5 -15q23 -10 40.5 -16t34.5 -6t30 6t29 19l45 -56q-17 -25 -44 -42.5t-65 -17.5q-23 0 -41.5 6.5t-36.5 14.5q-23 11 -40.5 17t-34.5 6t-30 -6.5t-29 -19.5l-45 56q17 25 44 43t65 18
zM334 761l132 -134l-58 -54l-123 100l-123 -100l-58 54l132 134h98z" />
    <glyph glyph-name="uni0259" unicode="&#x259;" horiz-adv-x="558" 
d="M386 294v12q0 57 -30.5 91.5t-92.5 34.5q-50 0 -81 -21.5t-50 -49.5l-69 77q32 45 86.5 70.5t126.5 25.5q57 0 102.5 -19t76.5 -54.5t47.5 -86t16.5 -113.5q0 -62 -16.5 -112.5t-47.5 -86t-76 -55t-102 -19.5q-61 0 -106 21t-74 57t-43.5 83.5t-14.5 101.5v43h347z
M172 205q0 -54 26.5 -87t76.5 -33q51 0 81 33.5t30 88.5v7h-214v-9z" />
    <glyph glyph-name="gbreve" unicode="&#x11f;" horiz-adv-x="553" 
d="M545 -44q0 -41 -14.5 -72.5t-47.5 -52.5t-85 -32t-127 -11q-66 0 -112 8.5t-75.5 24t-42.5 38.5t-13 52q0 44 24.5 68.5t68.5 31.5v11q-32 8 -49.5 31.5t-17.5 55.5q0 20 8 35.5t21.5 26.5t30.5 18.5t36 11.5v4q-48 22 -71.5 61t-23.5 91q0 80 55 128.5t161 48.5
q23 0 47.5 -2.5t44.5 -9.5h171v-88h-69q22 -33 22 -77q0 -79 -54.5 -127t-161.5 -48q-46 0 -80 9q-15 -7 -26 -18.5t-11 -28.5q0 -39 68 -39h140q96 0 139.5 -39.5t43.5 -109.5zM271 269q94 0 94 80v17q0 80 -94 80t-94 -80v-17q0 -80 94 -80zM425 -59q0 25 -20 39t-69 14
h-178q-27 -20 -27 -54q0 -30 25 -47t85 -17h64q63 0 91.5 16t28.5 49zM275 584q-43 0 -73 15t-51 38.5t-33.5 51t-21.5 52.5l71 36l20 -33q20 -32 39 -50.5t49 -18.5t49.5 18.5t39.5 50.5l20 33l70 -36q-9 -25 -22.5 -52.5t-34.5 -51t-50.5 -38.5t-71.5 -15z" />
    <glyph glyph-name="gcircumflex" unicode="&#x11d;" horiz-adv-x="553" 
d="M333 786l126 -154l-64 -50l-120 115l-120 -115l-64 50l126 154h116zM545 -44q0 -41 -14.5 -72.5t-47.5 -52.5t-85 -32t-127 -11q-66 0 -112 8.5t-75.5 24t-42.5 38.5t-13 52q0 44 24.5 68.5t68.5 31.5v11q-32 8 -49.5 31.5t-17.5 55.5q0 20 8 35.5t21.5 26.5t30.5 18.5
t36 11.5v4q-48 22 -71.5 61t-23.5 91q0 80 55 128.5t161 48.5q23 0 47.5 -2.5t44.5 -9.5h171v-88h-69q22 -33 22 -77q0 -79 -54.5 -127t-161.5 -48q-46 0 -80 9q-15 -7 -26 -18.5t-11 -28.5q0 -39 68 -39h140q96 0 139.5 -39.5t43.5 -109.5zM271 269q94 0 94 80v17
q0 80 -94 80t-94 -80v-17q0 -80 94 -80zM425 -59q0 25 -20 39t-69 14h-178q-27 -20 -27 -54q0 -30 25 -47t85 -17h64q63 0 91.5 16t28.5 49z" />
    <glyph glyph-name="gcommaaccent" unicode="&#x123;" horiz-adv-x="553" 
d="M545 -44q0 -41 -14.5 -72.5t-47.5 -52.5t-85 -32t-127 -11q-66 0 -112 8.5t-75.5 24t-42.5 38.5t-13 52q0 44 24.5 68.5t68.5 31.5v11q-32 8 -49.5 31.5t-17.5 55.5q0 20 8 35.5t21.5 26.5t30.5 18.5t36 11.5v4q-48 22 -71.5 61t-23.5 91q0 80 55 128.5t161 48.5
q23 0 47.5 -2.5t44.5 -9.5h171v-88h-69q22 -33 22 -77q0 -79 -54.5 -127t-161.5 -48q-46 0 -80 9q-15 -7 -26 -18.5t-11 -28.5q0 -39 68 -39h140q96 0 139.5 -39.5t43.5 -109.5zM271 269q94 0 94 80v17q0 80 -94 80t-94 -80v-17q0 -80 94 -80zM425 -59q0 25 -20 39t-69 14
h-178q-27 -20 -27 -54q0 -30 25 -47t85 -17h64q63 0 91.5 16t28.5 49zM274 582q-64 0 -64 57v13q0 43 18.5 83t46.5 64h77q-24 -22 -37.5 -43.5t-21.5 -49.5q25 -3 35 -19.5t10 -36.5v-11q0 -57 -64 -57z" />
    <glyph glyph-name="gdotaccent" unicode="&#x121;" horiz-adv-x="553" 
d="M545 -44q0 -41 -14.5 -72.5t-47.5 -52.5t-85 -32t-127 -11q-66 0 -112 8.5t-75.5 24t-42.5 38.5t-13 52q0 44 24.5 68.5t68.5 31.5v11q-32 8 -49.5 31.5t-17.5 55.5q0 20 8 35.5t21.5 26.5t30.5 18.5t36 11.5v4q-48 22 -71.5 61t-23.5 91q0 80 55 128.5t161 48.5
q23 0 47.5 -2.5t44.5 -9.5h171v-88h-69q22 -33 22 -77q0 -79 -54.5 -127t-161.5 -48q-46 0 -80 9q-15 -7 -26 -18.5t-11 -28.5q0 -39 68 -39h140q96 0 139.5 -39.5t43.5 -109.5zM271 269q94 0 94 80v17q0 80 -94 80t-94 -80v-17q0 -80 94 -80zM425 -59q0 25 -20 39t-69 14
h-178q-27 -20 -27 -54q0 -30 25 -47t85 -17h64q63 0 91.5 16t28.5 49zM273 598q-43 0 -60.5 18.5t-17.5 44.5v24q0 27 17.5 45t60.5 18t60.5 -18t17.5 -45v-24q0 -26 -17.5 -44.5t-60.5 -18.5z" />
    <glyph glyph-name="gbreve.alt01" 
d="M526 28q0 -114 -62.5 -177t-186.5 -63q-72 0 -121 21t-79 53l70 82q51 -54 128 -54q62 0 92.5 33t30.5 93v81h-5q-14 -45 -52.5 -72t-91.5 -27q-99 0 -151.5 70t-52.5 198t52.5 198t151.5 70q52 0 91 -27t53 -72h5v87h128v-494zM291 104q46 0 76.5 22t30.5 63v156
q0 38 -30.5 61t-76.5 23q-50 0 -81 -34t-31 -89v-79q0 -55 31 -89t81 -34zM293 584q-43 0 -73 15t-51 38.5t-33.5 51t-21.5 52.5l71 36l20 -33q20 -32 39 -50.5t49 -18.5t49.5 18.5t39.5 50.5l20 33l70 -36q-9 -25 -22.5 -52.5t-34.5 -51t-50.5 -38.5t-71.5 -15z" />
    <glyph glyph-name="gcircumflex.alt01" 
d="M351 786l126 -154l-64 -50l-120 115l-120 -115l-64 50l126 154h116zM526 28q0 -114 -62.5 -177t-186.5 -63q-72 0 -121 21t-79 53l70 82q51 -54 128 -54q62 0 92.5 33t30.5 93v81h-5q-14 -45 -52.5 -72t-91.5 -27q-99 0 -151.5 70t-52.5 198t52.5 198t151.5 70
q52 0 91 -27t53 -72h5v87h128v-494zM291 104q46 0 76.5 22t30.5 63v156q0 38 -30.5 61t-76.5 23q-50 0 -81 -34t-31 -89v-79q0 -55 31 -89t81 -34z" />
    <glyph glyph-name="gcommaaccent.alt01" 
d="M526 28q0 -114 -62.5 -177t-186.5 -63q-72 0 -121 21t-79 53l70 82q51 -54 128 -54q62 0 92.5 33t30.5 93v81h-5q-14 -45 -52.5 -72t-91.5 -27q-99 0 -151.5 70t-52.5 198t52.5 198t151.5 70q52 0 91 -27t53 -72h5v87h128v-494zM291 104q46 0 76.5 22t30.5 63v156
q0 38 -30.5 61t-76.5 23q-50 0 -81 -34t-31 -89v-79q0 -55 31 -89t81 -34zM294 582q-64 0 -64 57v13q0 43 18.5 83t46.5 64h77q-24 -22 -37.5 -43.5t-21.5 -49.5q25 -3 35 -19.5t10 -36.5v-11q0 -57 -64 -57z" />
    <glyph glyph-name="gdotaccent.alt01" 
d="M526 28q0 -114 -62.5 -177t-186.5 -63q-72 0 -121 21t-79 53l70 82q51 -54 128 -54q62 0 92.5 33t30.5 93v81h-5q-14 -45 -52.5 -72t-91.5 -27q-99 0 -151.5 70t-52.5 198t52.5 198t151.5 70q52 0 91 -27t53 -72h5v87h128v-494zM291 104q46 0 76.5 22t30.5 63v156
q0 38 -30.5 61t-76.5 23q-50 0 -81 -34t-31 -89v-79q0 -55 31 -89t81 -34zM293 598q-43 0 -60.5 18.5t-17.5 44.5v24q0 27 17.5 45t60.5 18t60.5 -18t17.5 -45v-24q0 -26 -17.5 -44.5t-60.5 -18.5z" />
    <glyph glyph-name="hbar" unicode="&#x127;" horiz-adv-x="588" 
d="M74 0v595h-63v89h63v56h128v-56h143v-89h-143v-160h5q16 42 50.5 70.5t95.5 28.5q81 0 124 -53t43 -151v-330h-128v317q0 56 -20 84t-66 28q-20 0 -38.5 -5.5t-33 -16t-23.5 -26t-9 -36.5v-345h-128z" />
    <glyph glyph-name="hcircumflex" unicode="&#x125;" horiz-adv-x="588" 
d="M197 944l126 -154l-64 -50l-120 115l-120 -115l-64 50l126 154h116zM74 740h128v-305h5q16 42 50.5 70.5t95.5 28.5q81 0 124 -53t43 -151v-330h-128v317q0 56 -20 84t-66 28q-20 0 -38.5 -5.5t-33 -16t-23.5 -26t-9 -36.5v-345h-128v740z" />
    <glyph glyph-name="dotlessi" unicode="&#x131;" horiz-adv-x="276" 
d="M74 0v522h128v-522h-128z" />
    <glyph glyph-name="iacute" unicode="&#xed;" horiz-adv-x="276" 
d="M74 0v522h128v-522h-128zM152 581l-77 37l95 187l108 -53z" />
    <glyph glyph-name="ibreve" unicode="&#x12d;" horiz-adv-x="276" 
d="M74 0v522h128v-522h-128zM139 584q-43 0 -73 15t-51 38.5t-33.5 51t-21.5 52.5l71 36l20 -33q20 -32 39 -50.5t49 -18.5t49.5 18.5t39.5 50.5l20 33l70 -36q-9 -25 -22.5 -52.5t-34.5 -51t-50.5 -38.5t-71.5 -15z" />
    <glyph glyph-name="uni01D0" unicode="&#x1d0;" horiz-adv-x="276" 
d="M74 0v522h128v-522h-128zM81 591l-126 154l64 50l120 -116l120 116l64 -50l-126 -154h-116z" />
    <glyph glyph-name="icircumflex" unicode="&#xee;" horiz-adv-x="276" 
d="M74 0v522h128v-522h-128zM197 786l126 -154l-64 -50l-120 115l-120 -115l-64 50l126 154h116z" />
    <glyph glyph-name="idieresis" unicode="&#xef;" horiz-adv-x="276" 
d="M74 0v522h128v-522h-128zM34 605q-39 0 -55 16.5t-16 41.5v21q0 25 16 41.5t55 16.5t55 -16.5t16 -41.5v-21q0 -25 -16 -41.5t-55 -16.5zM244 605q-39 0 -55 16.5t-16 41.5v21q0 25 16 41.5t55 16.5t55 -16.5t16 -41.5v-21q0 -25 -16 -41.5t-55 -16.5z" />
    <glyph glyph-name="uni1ECB" unicode="&#x1ecb;" horiz-adv-x="276" 
d="M138 598q-40 0 -57.5 18t-17.5 46v20q0 28 17.5 46t57.5 18q39 0 57 -18t18 -46v-20q0 -28 -18 -46t-57 -18zM74 522h128v-522h-128v522zM137 -194q-39 0 -55.5 16.5t-16.5 41.5v22q0 25 16.5 41.5t55.5 16.5t55.5 -16.5t16.5 -41.5v-22q0 -25 -16.5 -41.5t-55.5 -16.5z
" />
    <glyph glyph-name="igrave" unicode="&#xec;" horiz-adv-x="276" 
d="M74 0v522h128v-522h-128zM0 752l108 53l95 -187l-77 -37z" />
    <glyph glyph-name="uni1EC9" unicode="&#x1ec9;" horiz-adv-x="276" 
d="M74 0v522h128v-522h-128zM29 791h133q51 0 70 -20t19 -48q0 -27 -15 -58t-39 -61l-27 -33l-67 32l46 95h-120v93z" />
    <glyph glyph-name="imacron" unicode="&#x12b;" horiz-adv-x="276" 
d="M74 0v522h128v-522h-128zM-10 721h298v-93h-298v93z" />
    <glyph glyph-name="iogonek" unicode="&#x12f;" horiz-adv-x="276" 
d="M74 522h128v-522q-36 -24 -57.5 -41t-33 -29.5t-15.5 -21.5t-4 -18q0 -18 11 -25t25 -7q17 0 30 7.5t23 18.5l49 -47q-11 -22 -39.5 -35t-72.5 -13q-23 0 -44 4.5t-36.5 14t-25 25.5t-9.5 39q0 41 31.5 69.5t82.5 54.5l-1 4h-42v522zM138 598q-40 0 -57.5 18t-17.5 46v20
q0 28 17.5 46t57.5 18q39 0 57 -18t18 -46v-20q0 -28 -18 -46t-57 -18z" />
    <glyph glyph-name="itilde" unicode="&#x129;" horiz-adv-x="276" 
d="M74 0v522h128v-522h-128zM214 604q-23 0 -41.5 7t-36.5 15q-23 10 -40.5 16.5t-34.5 6.5t-30 -6.5t-29 -19.5l-47 60q17 25 44 43t65 18q23 0 41.5 -7t36.5 -15q23 -11 40.5 -17t34.5 -6t30 6.5t29 19.5l47 -60q-17 -25 -44 -43t-65 -18z" />
    <glyph glyph-name="ij" unicode="&#x133;" horiz-adv-x="546" 
d="M138 598q-40 0 -57.5 18t-17.5 46v20q0 28 17.5 46t57.5 18q39 0 57 -18t18 -46v-20q0 -28 -18 -46t-57 -18zM74 522h128v-522h-128v522zM344 522h128v-585q0 -66 -33 -101.5t-105 -35.5h-70v102h80v620zM408 598q-40 0 -57.5 18t-17.5 46v20q0 28 17.5 46t57.5 18
q39 0 57 -18t18 -46v-20q0 -28 -18 -46t-57 -18z" />
    <glyph glyph-name="uni0237" unicode="&#x237;" horiz-adv-x="276" 
d="M-6 -98h80v620h128v-585q0 -66 -33 -101.5t-105 -35.5h-70v102z" />
    <glyph glyph-name="jcircumflex" unicode="&#x135;" horiz-adv-x="276" 
d="M-6 -98h80v620h128v-585q0 -66 -33 -101.5t-105 -35.5h-70v102zM197 786l126 -154l-64 -50l-120 115l-120 -115l-64 50l126 154h116z" />
    <glyph glyph-name="kcommaaccent" unicode="&#x137;" horiz-adv-x="562" 
d="M314 -49q31 0 48 -15t17 -43v-13q0 -43 -19 -82.5t-46 -63.5h-77q24 22 37.5 43t20.5 50q-25 2 -35 19t-10 37v10q0 28 17 43t47 15zM74 740h128v-446h5l69 94l117 134h145l-180 -202l199 -320h-152l-134 234l-69 -75v-159h-128v740z" />
    <glyph glyph-name="kgreenlandic" unicode="&#x138;" horiz-adv-x="562" 
d="M270 232l-68 -73v-159h-128v522h128v-228h5l72 92l123 136h146l-188 -204l197 -318h-150z" />
    <glyph glyph-name="lacute" unicode="&#x13a;" horiz-adv-x="294" 
d="M152 781l-77 37l95 187l108 -53zM202 0q-66 0 -97 33t-31 93v614h128v-638h69v-102h-69z" />
    <glyph glyph-name="lcaron" unicode="&#x13e;" horiz-adv-x="294" 
d="M202 0q-66 0 -97 33t-31 93v614h128v-638h69v-102h-69zM347 534h-84l8 206h138z" />
    <glyph glyph-name="lcommaaccent" unicode="&#x13c;" horiz-adv-x="294" 
d="M171 -49q31 0 48 -15t17 -43v-13q0 -43 -19 -82.5t-46 -63.5h-77q24 22 37.5 43t20.5 50q-25 2 -35 19t-10 37v10q0 28 17 43t47 15zM202 0q-66 0 -97 33t-31 93v614h128v-638h69v-102h-69z" />
    <glyph glyph-name="ldot" unicode="&#x140;" horiz-adv-x="421" 
d="M202 0q-66 0 -97 33t-31 93v614h128v-638h69v-102h-69zM346 268q-43 0 -60.5 18.5t-17.5 44.5v24q0 27 17.5 45t60.5 18t60.5 -18t17.5 -45v-24q0 -26 -17.5 -44.5t-60.5 -18.5z" />
    <glyph glyph-name="lslash" unicode="&#x142;" horiz-adv-x="303" 
d="M276 0h-68q-66 0 -97.5 33t-31.5 93v178l-75 -25v97l75 25v339h128v-297l103 34v-97l-103 -34v-244h69v-102z" />
    <glyph glyph-name="nacute" unicode="&#x144;" horiz-adv-x="588" 
d="M310 581l-77 37l95 187l108 -53zM74 0v522h128v-87h5q16 42 50.5 70.5t95.5 28.5q81 0 124 -53t43 -151v-330h-128v317q0 56 -20 84t-66 28q-20 0 -38.5 -5.5t-33 -16t-23.5 -26t-9 -36.5v-345h-128z" />
    <glyph glyph-name="ncaron" unicode="&#x148;" horiz-adv-x="588" 
d="M239 591l-126 154l64 50l120 -116l120 116l64 -50l-126 -154h-116zM74 0v522h128v-87h5q16 42 50.5 70.5t95.5 28.5q81 0 124 -53t43 -151v-330h-128v317q0 56 -20 84t-66 28q-20 0 -38.5 -5.5t-33 -16t-23.5 -26t-9 -36.5v-345h-128z" />
    <glyph glyph-name="ncommaaccent" unicode="&#x146;" horiz-adv-x="588" 
d="M297 -49q31 0 48 -15t17 -43v-13q0 -43 -19 -82.5t-46 -63.5h-77q24 22 37.5 43t20.5 50q-25 2 -35 19t-10 37v10q0 28 17 43t47 15zM74 0v522h128v-87h5q16 42 50.5 70.5t95.5 28.5q81 0 124 -53t43 -151v-330h-128v317q0 56 -20 84t-66 28q-20 0 -38.5 -5.5t-33 -16
t-23.5 -26t-9 -36.5v-345h-128z" />
    <glyph glyph-name="ntilde" unicode="&#xf1;" horiz-adv-x="588" 
d="M74 0v522h128v-87h5q16 42 50.5 70.5t95.5 28.5q81 0 124 -53t43 -151v-330h-128v317q0 56 -20 84t-66 28q-20 0 -38.5 -5.5t-33 -16t-23.5 -26t-9 -36.5v-345h-128zM372 604q-23 0 -41.5 7t-36.5 15q-23 10 -40.5 16.5t-34.5 6.5t-30 -6.5t-29 -19.5l-47 60q17 25 44 43
t65 18q23 0 41.5 -7t36.5 -15q23 -11 40.5 -17t34.5 -6t30 6.5t29 19.5l47 -60q-17 -25 -44 -43t-65 -18z" />
    <glyph glyph-name="napostrophe" unicode="&#x149;" horiz-adv-x="864" 
d="M149 750q41 0 59.5 -19.5t18.5 -48.5v-19q0 -27 -7.5 -54.5t-21.5 -53.5t-33 -49t-41 -41h-86q32 30 54 60.5t33 67.5q-29 5 -42 23.5t-13 43.5v22q0 29 18.5 48.5t60.5 19.5zM350 0v522h128v-87h5q16 42 50.5 70.5t95.5 28.5q81 0 124 -53t43 -151v-330h-128v317
q0 56 -20 84t-66 28q-20 0 -38.5 -5.5t-33 -16t-23.5 -26t-9 -36.5v-345h-128z" />
    <glyph glyph-name="eng" unicode="&#x14b;" horiz-adv-x="588" 
d="M312 -98h80v415q0 56 -20 84t-66 28q-20 0 -38.5 -5t-33 -15.5t-23.5 -26.5t-9 -37v-345h-128v522h128v-87h5q16 42 50.5 70.5t95.5 28.5q81 0 124 -53t43 -151v-394q0 -65 -32.5 -100.5t-104.5 -35.5h-71v102z" />
    <glyph glyph-name="oacute" unicode="&#xf3;" horiz-adv-x="563" 
d="M281 -12q-56 0 -100.5 19t-76 55t-48.5 86.5t-17 113.5t17 113t48.5 85.5t76 54.5t100.5 19t101 -19t76.5 -54.5t48.5 -85.5t17 -113t-17 -113.5t-48.5 -86.5t-76.5 -55t-101 -19zM281 91q51 0 80 31t29 91v97q0 59 -29 90t-80 31q-50 0 -79 -31t-29 -90v-97
q0 -60 29 -91t79 -31zM295 581l-77 37l95 187l108 -53z" />
    <glyph glyph-name="obreve" unicode="&#x14f;" horiz-adv-x="563" 
d="M281 -12q-56 0 -100.5 19t-76 55t-48.5 86.5t-17 113.5t17 113t48.5 85.5t76 54.5t100.5 19t101 -19t76.5 -54.5t48.5 -85.5t17 -113t-17 -113.5t-48.5 -86.5t-76.5 -55t-101 -19zM281 91q51 0 80 31t29 91v97q0 59 -29 90t-80 31q-50 0 -79 -31t-29 -90v-97
q0 -60 29 -91t79 -31zM282 584q-43 0 -73 15t-51 38.5t-33.5 51t-21.5 52.5l71 36l20 -33q20 -32 39 -50.5t49 -18.5t49.5 18.5t39.5 50.5l20 33l70 -36q-9 -25 -22.5 -52.5t-34.5 -51t-50.5 -38.5t-71.5 -15z" />
    <glyph glyph-name="uni01D2" unicode="&#x1d2;" horiz-adv-x="563" 
d="M281 -12q-56 0 -100.5 19t-76 55t-48.5 86.5t-17 113.5t17 113t48.5 85.5t76 54.5t100.5 19t101 -19t76.5 -54.5t48.5 -85.5t17 -113t-17 -113.5t-48.5 -86.5t-76.5 -55t-101 -19zM281 91q51 0 80 31t29 91v97q0 59 -29 90t-80 31q-50 0 -79 -31t-29 -90v-97
q0 -60 29 -91t79 -31zM224 591l-126 154l64 50l120 -116l120 116l64 -50l-126 -154h-116z" />
    <glyph glyph-name="ocircumflex" unicode="&#xf4;" horiz-adv-x="563" 
d="M281 -12q-56 0 -100.5 19t-76 55t-48.5 86.5t-17 113.5t17 113t48.5 85.5t76 54.5t100.5 19t101 -19t76.5 -54.5t48.5 -85.5t17 -113t-17 -113.5t-48.5 -86.5t-76.5 -55t-101 -19zM281 91q51 0 80 31t29 91v97q0 59 -29 90t-80 31q-50 0 -79 -31t-29 -90v-97
q0 -60 29 -91t79 -31zM340 786l126 -154l-64 -50l-120 115l-120 -115l-64 50l126 154h116z" />
    <glyph glyph-name="odieresis" unicode="&#xf6;" horiz-adv-x="563" 
d="M281 -12q-56 0 -100.5 19t-76 55t-48.5 86.5t-17 113.5t17 113t48.5 85.5t76 54.5t100.5 19t101 -19t76.5 -54.5t48.5 -85.5t17 -113t-17 -113.5t-48.5 -86.5t-76.5 -55t-101 -19zM281 91q51 0 80 31t29 91v97q0 59 -29 90t-80 31q-50 0 -79 -31t-29 -90v-97
q0 -60 29 -91t79 -31zM177 605q-39 0 -55 16.5t-16 41.5v21q0 25 16 41.5t55 16.5t55 -16.5t16 -41.5v-21q0 -25 -16 -41.5t-55 -16.5zM387 605q-39 0 -55 16.5t-16 41.5v21q0 25 16 41.5t55 16.5t55 -16.5t16 -41.5v-21q0 -25 -16 -41.5t-55 -16.5z" />
    <glyph glyph-name="uni1ECD" unicode="&#x1ecd;" horiz-adv-x="563" 
d="M281 -12q-56 0 -100.5 19t-76 55t-48.5 86.5t-17 113.5t17 113t48.5 85.5t76 54.5t100.5 19t101 -19t76.5 -54.5t48.5 -85.5t17 -113t-17 -113.5t-48.5 -86.5t-76.5 -55t-101 -19zM281 91q51 0 80 31t29 91v97q0 59 -29 90t-80 31q-50 0 -79 -31t-29 -90v-97
q0 -60 29 -91t79 -31zM281 -194q-39 0 -55.5 16.5t-16.5 41.5v22q0 25 16.5 41.5t55.5 16.5t55.5 -16.5t16.5 -41.5v-22q0 -25 -16.5 -41.5t-55.5 -16.5z" />
    <glyph glyph-name="ograve" unicode="&#xf2;" horiz-adv-x="563" 
d="M281 -12q-56 0 -100.5 19t-76 55t-48.5 86.5t-17 113.5t17 113t48.5 85.5t76 54.5t100.5 19t101 -19t76.5 -54.5t48.5 -85.5t17 -113t-17 -113.5t-48.5 -86.5t-76.5 -55t-101 -19zM281 91q51 0 80 31t29 91v97q0 59 -29 90t-80 31q-50 0 -79 -31t-29 -90v-97
q0 -60 29 -91t79 -31zM143 752l108 53l95 -187l-77 -37z" />
    <glyph glyph-name="uni1ECF" unicode="&#x1ecf;" horiz-adv-x="563" 
d="M281 -12q-56 0 -100.5 19t-76 55t-48.5 86.5t-17 113.5t17 113t48.5 85.5t76 54.5t100.5 19t101 -19t76.5 -54.5t48.5 -85.5t17 -113t-17 -113.5t-48.5 -86.5t-76.5 -55t-101 -19zM281 91q51 0 80 31t29 91v97q0 59 -29 90t-80 31q-50 0 -79 -31t-29 -90v-97
q0 -60 29 -91t79 -31zM172 791h133q51 0 70 -20t19 -48q0 -27 -15 -58t-39 -61l-27 -33l-67 32l46 95h-120v93z" />
    <glyph glyph-name="ohungarumlaut" unicode="&#x151;" horiz-adv-x="563" 
d="M281 -12q-56 0 -100.5 19t-76 55t-48.5 86.5t-17 113.5t17 113t48.5 85.5t76 54.5t100.5 19t101 -19t76.5 -54.5t48.5 -85.5t17 -113t-17 -113.5t-48.5 -86.5t-76.5 -55t-101 -19zM281 91q51 0 80 31t29 91v97q0 59 -29 90t-80 31q-50 0 -79 -31t-29 -90v-97
q0 -60 29 -91t79 -31zM197 581l-71 34l95 187l102 -50zM389 581l-72 34l95 187l102 -50z" />
    <glyph glyph-name="omacron" unicode="&#x14d;" horiz-adv-x="563" 
d="M281 -12q-56 0 -100.5 19t-76 55t-48.5 86.5t-17 113.5t17 113t48.5 85.5t76 54.5t100.5 19t101 -19t76.5 -54.5t48.5 -85.5t17 -113t-17 -113.5t-48.5 -86.5t-76.5 -55t-101 -19zM281 91q51 0 80 31t29 91v97q0 59 -29 90t-80 31q-50 0 -79 -31t-29 -90v-97
q0 -60 29 -91t79 -31zM133 721h298v-93h-298v93z" />
    <glyph glyph-name="oslash" unicode="&#xf8;" horiz-adv-x="571" 
d="M20 5l67 84q-44 68 -44 173q0 63 17 113t48.5 85.5t76 54.5t100.5 19q79 0 135 -38l61 73l70 -52l-68 -84q22 -34 33.5 -77.5t11.5 -94.5q0 -63 -17 -113.5t-48.5 -86t-76.5 -54.5t-101 -19q-78 0 -135 37l-60 -72zM285 85q52 0 82 34.5t30 96.5v120l-186 -225
q29 -26 74 -26zM175 189l184 222q-29 26 -74 26q-51 0 -80.5 -34.5t-29.5 -96.5v-117z" />
    <glyph glyph-name="oslashacute" unicode="&#x1ff;" horiz-adv-x="571" 
d="M20 5l67 84q-44 68 -44 173q0 63 17 113t48.5 85.5t76 54.5t100.5 19q79 0 135 -38l61 73l70 -52l-68 -84q22 -34 33.5 -77.5t11.5 -94.5q0 -63 -17 -113.5t-48.5 -86t-76.5 -54.5t-101 -19q-78 0 -135 37l-60 -72zM285 85q52 0 82 34.5t30 96.5v120l-186 -225
q29 -26 74 -26zM175 189l184 222q-29 26 -74 26q-51 0 -80.5 -34.5t-29.5 -96.5v-117zM299 581l-77 37l95 187l108 -53z" />
    <glyph glyph-name="otilde" unicode="&#xf5;" horiz-adv-x="563" 
d="M281 -12q-56 0 -100.5 19t-76 55t-48.5 86.5t-17 113.5t17 113t48.5 85.5t76 54.5t100.5 19t101 -19t76.5 -54.5t48.5 -85.5t17 -113t-17 -113.5t-48.5 -86.5t-76.5 -55t-101 -19zM281 91q51 0 80 31t29 91v97q0 59 -29 90t-80 31q-50 0 -79 -31t-29 -90v-97
q0 -60 29 -91t79 -31zM357 604q-23 0 -41.5 7t-36.5 15q-23 10 -40.5 16.5t-34.5 6.5t-30 -6.5t-29 -19.5l-47 60q17 25 44 43t65 18q23 0 41.5 -7t36.5 -15q23 -11 40.5 -17t34.5 -6t30 6.5t29 19.5l47 -60q-17 -25 -44 -43t-65 -18z" />
    <glyph glyph-name="ohorn" unicode="&#x1a1;" horiz-adv-x="563" 
d="M542 630v-95q0 -38 -14.5 -63t-58.5 -25q30 -39 42.5 -83.5t12.5 -99.5q0 -63 -17 -114t-48.5 -87t-76.5 -55.5t-101 -19.5t-100.5 19.5t-76 55.5t-48.5 87t-17 114t17 113t48.5 85t76 53.5t100.5 18.5q45 0 83 -12h69v108h109zM281 91q51 0 80 31t29 91v97q0 59 -29 90
t-80 31q-50 0 -79 -31t-29 -90v-97q0 -60 29 -91t79 -31z" />
    <glyph glyph-name="uni1EDB" unicode="&#x1edb;" horiz-adv-x="563" 
d="M542 630v-95q0 -38 -14.5 -63t-58.5 -25q30 -39 42.5 -83.5t12.5 -99.5q0 -63 -17 -114t-48.5 -87t-76.5 -55.5t-101 -19.5t-100.5 19.5t-76 55.5t-48.5 87t-17 114t17 113t48.5 85t76 53.5t100.5 18.5q45 0 83 -12h69v108h109zM281 91q51 0 80 31t29 91v97q0 59 -29 90
t-80 31q-50 0 -79 -31t-29 -90v-97q0 -60 29 -91t79 -31zM295 581l-77 37l95 187l108 -53z" />
    <glyph glyph-name="uni1EE3" unicode="&#x1ee3;" horiz-adv-x="563" 
d="M542 630v-95q0 -38 -14.5 -63t-58.5 -25q30 -39 42.5 -83.5t12.5 -99.5q0 -63 -17 -114t-48.5 -87t-76.5 -55.5t-101 -19.5t-100.5 19.5t-76 55.5t-48.5 87t-17 114t17 113t48.5 85t76 53.5t100.5 18.5q45 0 83 -12h69v108h109zM281 91q51 0 80 31t29 91v97q0 59 -29 90
t-80 31q-50 0 -79 -31t-29 -90v-97q0 -60 29 -91t79 -31zM281 -194q-39 0 -55.5 16.5t-16.5 41.5v22q0 25 16.5 41.5t55.5 16.5t55.5 -16.5t16.5 -41.5v-22q0 -25 -16.5 -41.5t-55.5 -16.5z" />
    <glyph glyph-name="uni1EDD" unicode="&#x1edd;" horiz-adv-x="563" 
d="M542 630v-95q0 -38 -14.5 -63t-58.5 -25q30 -39 42.5 -83.5t12.5 -99.5q0 -63 -17 -114t-48.5 -87t-76.5 -55.5t-101 -19.5t-100.5 19.5t-76 55.5t-48.5 87t-17 114t17 113t48.5 85t76 53.5t100.5 18.5q45 0 83 -12h69v108h109zM281 91q51 0 80 31t29 91v97q0 59 -29 90
t-80 31q-50 0 -79 -31t-29 -90v-97q0 -60 29 -91t79 -31zM143 752l108 53l95 -187l-77 -37z" />
    <glyph glyph-name="uni1EDF" unicode="&#x1edf;" horiz-adv-x="563" 
d="M542 630v-95q0 -38 -14.5 -63t-58.5 -25q30 -39 42.5 -83.5t12.5 -99.5q0 -63 -17 -114t-48.5 -87t-76.5 -55.5t-101 -19.5t-100.5 19.5t-76 55.5t-48.5 87t-17 114t17 113t48.5 85t76 53.5t100.5 18.5q45 0 83 -12h69v108h109zM281 91q51 0 80 31t29 91v97q0 59 -29 90
t-80 31q-50 0 -79 -31t-29 -90v-97q0 -60 29 -91t79 -31zM172 791h133q51 0 70 -20t19 -48q0 -27 -15 -58t-39 -61l-27 -33l-67 32l46 95h-120v93z" />
    <glyph glyph-name="uni1EE1" unicode="&#x1ee1;" horiz-adv-x="563" 
d="M542 630v-95q0 -38 -14.5 -63t-58.5 -25q30 -39 42.5 -83.5t12.5 -99.5q0 -63 -17 -114t-48.5 -87t-76.5 -55.5t-101 -19.5t-100.5 19.5t-76 55.5t-48.5 87t-17 114t17 113t48.5 85t76 53.5t100.5 18.5q45 0 83 -12h69v108h109zM281 91q51 0 80 31t29 91v97q0 59 -29 90
t-80 31q-50 0 -79 -31t-29 -90v-97q0 -60 29 -91t79 -31zM347 605q-20 0 -36 6.5t-32 14.5q-19 9 -33.5 15t-30.5 6q-26 0 -51 -22l-46 55q16 26 40 44t59 18q20 0 36 -6t32 -14q19 -10 33.5 -16t30.5 -6q25 0 51 23l46 -55q-16 -26 -40 -44.5t-59 -18.5z" />
    <glyph glyph-name="uni1ED1" unicode="&#x1ed1;" horiz-adv-x="563" 
d="M281 -12q-56 0 -100.5 19t-76 55t-48.5 86.5t-17 113.5t17 113t48.5 85.5t76 54.5t100.5 19t101 -19t76.5 -54.5t48.5 -85.5t17 -113t-17 -113.5t-48.5 -86.5t-76.5 -55t-101 -19zM281 91q51 0 80 31t29 91v97q0 59 -29 90t-80 31q-50 0 -79 -31t-29 -90v-97
q0 -60 29 -91t79 -31zM448 723l-70 34l95 187l101 -50zM329 770l135 -143l-60 -54l-123 107l-123 -107l-60 54l135 143h96z" />
    <glyph glyph-name="uni1ED9" unicode="&#x1ed9;" horiz-adv-x="563" 
d="M281 -12q-56 0 -100.5 19t-76 55t-48.5 86.5t-17 113.5t17 113t48.5 85.5t76 54.5t100.5 19t101 -19t76.5 -54.5t48.5 -85.5t17 -113t-17 -113.5t-48.5 -86.5t-76.5 -55t-101 -19zM281 91q51 0 80 31t29 91v97q0 59 -29 90t-80 31q-50 0 -79 -31t-29 -90v-97
q0 -60 29 -91t79 -31zM340 786l126 -154l-64 -50l-120 115l-120 -115l-64 50l126 154h116zM281 -194q-39 0 -55.5 16.5t-16.5 41.5v22q0 25 16.5 41.5t55.5 16.5t55.5 -16.5t16.5 -41.5v-22q0 -25 -16.5 -41.5t-55.5 -16.5z" />
    <glyph glyph-name="uni1ED3" unicode="&#x1ed3;" horiz-adv-x="563" 
d="M281 -12q-56 0 -100.5 19t-76 55t-48.5 86.5t-17 113.5t17 113t48.5 85.5t76 54.5t100.5 19t101 -19t76.5 -54.5t48.5 -85.5t17 -113t-17 -113.5t-48.5 -86.5t-76.5 -55t-101 -19zM281 91q51 0 80 31t29 91v97q0 59 -29 90t-80 31q-50 0 -79 -31t-29 -90v-97
q0 -60 29 -91t79 -31zM-12 894l101 50l95 -187l-70 -34zM329 770l135 -143l-60 -54l-123 107l-123 -107l-60 54l135 143h96z" />
    <glyph glyph-name="uni1ED5" unicode="&#x1ed5;" horiz-adv-x="563" 
d="M281 -12q-56 0 -100.5 19t-76 55t-48.5 86.5t-17 113.5t17 113t48.5 85.5t76 54.5t100.5 19t101 -19t76.5 -54.5t48.5 -85.5t17 -113t-17 -113.5t-48.5 -86.5t-76.5 -55t-101 -19zM281 91q51 0 80 31t29 91v97q0 59 -29 90t-80 31q-50 0 -79 -31t-29 -90v-97
q0 -60 29 -91t79 -31zM323 931h126q50 0 70 -20.5t20 -46.5q0 -28 -17.5 -59t-41.5 -61l-26 -32l-60 30l48 100h-119v89zM329 770l135 -143l-60 -54l-123 107l-123 -107l-60 54l135 143h96z" />
    <glyph glyph-name="uni1ED7" unicode="&#x1ed7;" horiz-adv-x="563" 
d="M281 -12q-56 0 -100.5 19t-76 55t-48.5 86.5t-17 113.5t17 113t48.5 85.5t76 54.5t100.5 19t101 -19t76.5 -54.5t48.5 -85.5t17 -113t-17 -113.5t-48.5 -86.5t-76.5 -55t-101 -19zM281 91q51 0 80 31t29 91v97q0 59 -29 90t-80 31q-50 0 -79 -31t-29 -90v-97
q0 -60 29 -91t79 -31zM207 925q23 0 41.5 -7t36.5 -15q23 -10 40.5 -16t34.5 -6t30 6t29 19l45 -56q-17 -25 -44 -42.5t-65 -17.5q-23 0 -41.5 6.5t-36.5 14.5q-23 11 -40.5 17t-34.5 6t-30 -6.5t-29 -19.5l-45 56q17 25 44 43t65 18zM330 761l132 -134l-58 -54l-123 100
l-123 -100l-58 54l132 134h98z" />
    <glyph glyph-name="oe" unicode="&#x153;" horiz-adv-x="910" 
d="M281 91q51 0 80 31t29 91v97q0 59 -29 90t-80 31q-50 0 -79 -31t-29 -90v-97q0 -60 29 -91t79 -31zM737 308v9q0 54 -26.5 87.5t-76.5 33.5q-51 0 -81 -34t-30 -88v-8h214zM641 -12q-69 0 -116.5 24.5t-64.5 61.5h-6q-20 -40 -65 -63t-108 -23q-56 0 -100.5 19.5
t-76 55.5t-48.5 87t-17 114t17 113t48.5 85t76 53.5t100.5 18.5q60 0 104.5 -20.5t68.5 -65.5h6q20 40 65.5 63t110.5 23q56 0 100 -19t74 -53.5t45.5 -83t15.5 -107.5v-42h-348v-13q0 -57 32.5 -91.5t97.5 -34.5q48 0 78.5 20t54.5 51l68 -77q-32 -45 -86.5 -70.5
t-126.5 -25.5z" />
    <glyph glyph-name="racute" unicode="&#x155;" horiz-adv-x="393" 
d="M237 581l-77 37l95 187l108 -53zM74 0v522h128v-108h5q5 21 15.5 40.5t27.5 34.5t40.5 24t54.5 9h28v-121h-40q-65 0 -98 -19t-33 -62v-320h-128z" />
    <glyph glyph-name="rcaron" unicode="&#x159;" horiz-adv-x="393" 
d="M166 591l-126 154l64 50l120 -116l120 116l64 -50l-126 -154h-116zM74 0v522h128v-108h5q5 21 15.5 40.5t27.5 34.5t40.5 24t54.5 9h28v-121h-40q-65 0 -98 -19t-33 -62v-320h-128z" />
    <glyph glyph-name="rcommaaccent" unicode="&#x157;" horiz-adv-x="393" 
d="M137 -49q31 0 48 -15t17 -43v-13q0 -43 -19 -82.5t-46 -63.5h-77q24 22 37.5 43t20.5 50q-25 2 -35 19t-10 37v10q0 28 17 43t47 15zM74 0v522h128v-108h5q5 21 15.5 40.5t27.5 34.5t40.5 24t54.5 9h28v-121h-40q-65 0 -98 -19t-33 -62v-320h-128z" />
    <glyph glyph-name="sacute" unicode="&#x15b;" horiz-adv-x="499" 
d="M260 581l-77 37l95 187l108 -53zM245 -12q-75 0 -126 25.5t-90 70.5l78 76q29 -33 63.5 -52t79.5 -19q46 0 66.5 16t20.5 44q0 23 -14.5 36.5t-49.5 18.5l-52 7q-85 11 -129.5 48.5t-44.5 109.5q0 38 14 68.5t40 52t62.5 33t81.5 11.5q38 0 67.5 -5.5t53.5 -16t44 -26
t39 -34.5l-75 -75q-23 24 -55 40t-70 16q-42 0 -60.5 -15t-18.5 -39q0 -26 15.5 -39.5t52.5 -19.5l53 -7q169 -24 169 -154q0 -38 -15.5 -69.5t-43.5 -54t-67.5 -35t-88.5 -12.5z" />
    <glyph glyph-name="scaron" unicode="&#x161;" horiz-adv-x="499" 
d="M189 591l-126 154l64 50l120 -116l120 116l64 -50l-126 -154h-116zM245 -12q-75 0 -126 25.5t-90 70.5l78 76q29 -33 63.5 -52t79.5 -19q46 0 66.5 16t20.5 44q0 23 -14.5 36.5t-49.5 18.5l-52 7q-85 11 -129.5 48.5t-44.5 109.5q0 38 14 68.5t40 52t62.5 33t81.5 11.5
q38 0 67.5 -5.5t53.5 -16t44 -26t39 -34.5l-75 -75q-23 24 -55 40t-70 16q-42 0 -60.5 -15t-18.5 -39q0 -26 15.5 -39.5t52.5 -19.5l53 -7q169 -24 169 -154q0 -38 -15.5 -69.5t-43.5 -54t-67.5 -35t-88.5 -12.5z" />
    <glyph glyph-name="scedilla" unicode="&#x15f;" horiz-adv-x="499" 
d="M259 -211q-49 0 -76.5 14.5t-40.5 29.5l44 51q10 -12 26 -20.5t39 -8.5q19 0 31.5 6.5t12.5 20.5q0 12 -14 24t-59 17l-23 2l13 65q-61 5 -105 29t-78 65l78 76q29 -33 63.5 -52t79.5 -19q46 0 66.5 16t20.5 44q0 23 -14.5 36.5t-49.5 18.5l-52 7q-85 11 -129.5 48.5
t-44.5 109.5q0 38 14 68.5t40 52t62.5 33t81.5 11.5q38 0 67.5 -5.5t53.5 -16t44 -26t39 -34.5l-75 -75q-23 24 -55 40t-70 16q-42 0 -60.5 -15t-18.5 -39q0 -26 15.5 -39.5t52.5 -19.5l53 -7q169 -24 169 -154q0 -35 -13 -64.5t-37.5 -51.5t-59 -36t-76.5 -18l-10 -46l4 -3
q22 6 45 6q30 0 51 -16.5t21 -51.5q0 -24 -10.5 -41t-28 -27.5t-40.5 -15.5t-47 -5z" />
    <glyph glyph-name="scircumflex" unicode="&#x15d;" horiz-adv-x="499" 
d="M305 786l126 -154l-64 -50l-120 115l-120 -115l-64 50l126 154h116zM245 -12q-75 0 -126 25.5t-90 70.5l78 76q29 -33 63.5 -52t79.5 -19q46 0 66.5 16t20.5 44q0 23 -14.5 36.5t-49.5 18.5l-52 7q-85 11 -129.5 48.5t-44.5 109.5q0 38 14 68.5t40 52t62.5 33t81.5 11.5
q38 0 67.5 -5.5t53.5 -16t44 -26t39 -34.5l-75 -75q-23 24 -55 40t-70 16q-42 0 -60.5 -15t-18.5 -39q0 -26 15.5 -39.5t52.5 -19.5l53 -7q169 -24 169 -154q0 -38 -15.5 -69.5t-43.5 -54t-67.5 -35t-88.5 -12.5z" />
    <glyph glyph-name="scommaaccent" unicode="&#x219;" horiz-adv-x="499" 
d="M245 -49q31 0 48 -15t17 -43v-13q0 -43 -19 -82.5t-46 -63.5h-77q24 22 37.5 43t20.5 50q-25 2 -35 19t-10 37v10q0 28 17 43t47 15zM245 -12q-75 0 -126 25.5t-90 70.5l78 76q29 -33 63.5 -52t79.5 -19q46 0 66.5 16t20.5 44q0 23 -14.5 36.5t-49.5 18.5l-52 7
q-85 11 -129.5 48.5t-44.5 109.5q0 38 14 68.5t40 52t62.5 33t81.5 11.5q38 0 67.5 -5.5t53.5 -16t44 -26t39 -34.5l-75 -75q-23 24 -55 40t-70 16q-42 0 -60.5 -15t-18.5 -39q0 -26 15.5 -39.5t52.5 -19.5l53 -7q169 -24 169 -154q0 -38 -15.5 -69.5t-43.5 -54t-67.5 -35
t-88.5 -12.5z" />
    <glyph glyph-name="uni017F" unicode="&#x17f;" horiz-adv-x="302" 
d="M100 421h-77v101h77v75q0 69 36.5 106t107.5 37h91v-102h-107v-638h-128v421z" />
    <glyph glyph-name="germandbls" unicode="&#xdf;" horiz-adv-x="677" 
d="M651 166q0 -41 -14 -74t-39 -56t-60 -35.5t-77 -12.5q-126 0 -183 78l75 74q23 -29 49.5 -41.5t58.5 -12.5q33 0 52 16.5t19 48.5q0 26 -15 42t-52 27l-31 9q-27 8 -49.5 19.5t-38.5 29t-25 41.5t-9 56q0 63 40 102t112 50v3q0 64 -29 94t-89 30t-89 -30t-29 -94v-530
h-128v421h-77v101h77v5q0 52 17.5 94t49.5 71t76.5 44.5t99.5 15.5t99 -15.5t75.5 -44t48.5 -70.5t17 -94v-86h-53q-52 0 -75.5 -13t-23.5 -44q0 -28 17 -40.5t50 -22.5l31 -10q60 -17 91 -51.5t31 -94.5z" />
    <glyph glyph-name="germandbls.alt01" horiz-adv-x="589" 
d="M74 0v599q0 62 35 101.5t108 39.5h123v-102h-142v-116h337v-94l-147 -208q85 -13 132.5 -61.5t47.5 -139.5q0 -109 -69 -164t-186 -55h-64v102h54q70 0 102.5 23.5t32.5 79.5v26q0 55 -33.5 79.5t-106.5 24.5h-21v99l130 187h-209v-421h-124z" />
    <glyph glyph-name="tbar" unicode="&#x167;" horiz-adv-x="381" 
d="M332 0h-91q-66 0 -100.5 34t-34.5 99v96h-64v89h64v102h-78v102h41q29 0 39.5 13.5t10.5 40.5v89h115v-143h106v-102h-106v-102h86v-89h-86v-127h98v-102z" />
    <glyph glyph-name="tcaron" unicode="&#x165;" horiz-adv-x="377" 
d="M237 0q-66 0 -100.5 34.5t-34.5 98.5v287h-77v102h40q29 0 39.5 13.5t10.5 40.5v89h115v-143h107v-102h-107v-318h99v-102h-92zM379 574h-84l8 206h138z" />
    <glyph glyph-name="uni021B" unicode="&#x21b;" horiz-adv-x="374" 
d="M223 -49q31 0 48 -15t17 -43v-13q0 -43 -19 -82.5t-46 -63.5h-77q24 22 37.5 43t20.5 50q-25 2 -35 19t-10 37v10q0 28 17 43t47 15zM237 0q-66 0 -100.5 34.5t-34.5 98.5v287h-77v102h40q29 0 39.5 13.5t10.5 40.5v89h115v-143h107v-102h-107v-318h99v-102h-92z" />
    <glyph glyph-name="uni0163" unicode="&#x163;" horiz-adv-x="374" 
d="M237 -211q-48 0 -76 14.5t-40 29.5l43 51q10 -12 26 -20.5t39 -8.5q19 0 31.5 6.5t12.5 20.5q0 12 -14 24t-59 17l-23 2l16 79q-45 11 -68 43.5t-23 85.5v287h-77v102h40q29 0 39.5 13.5t10.5 40.5v89h115v-143h107v-102h-107v-318h99v-102h-75l-11 -57l3 -3q22 6 46 6
q29 0 50 -16.5t21 -51.5q0 -24 -10.5 -41t-28 -27.5t-40 -15.5t-47.5 -5z" />
    <glyph glyph-name="thorn" unicode="&#xfe;" 
d="M74 740h128v-304h4q14 45 53 71.5t91 26.5q100 0 152.5 -70.5t52.5 -201.5q0 -132 -52.5 -203t-152.5 -71q-52 0 -90.5 27t-53.5 72h-4v-287h-128v940zM309 94q50 0 81 33t31 89v90q0 56 -31 89.5t-81 33.5q-46 0 -76.5 -23t-30.5 -61v-166q0 -41 30.5 -63t76.5 -22z" />
    <glyph glyph-name="uacute" unicode="&#xfa;" horiz-adv-x="588" 
d="M305 581l-77 37l95 187l108 -53zM386 87h-5q-7 -20 -18.5 -37.5t-29 -31.5t-42 -22t-56.5 -8q-81 0 -124 53t-43 151v330h128v-317q0 -54 21 -82.5t67 -28.5q19 0 37.5 5t32.5 15.5t23 26t9 36.5v345h128v-522h-128v87z" />
    <glyph glyph-name="ubreve" unicode="&#x16d;" horiz-adv-x="588" 
d="M386 87h-5q-7 -20 -18.5 -37.5t-29 -31.5t-42 -22t-56.5 -8q-81 0 -124 53t-43 151v330h128v-317q0 -54 21 -82.5t67 -28.5q19 0 37.5 5t32.5 15.5t23 26t9 36.5v345h128v-522h-128v87zM292 584q-43 0 -73 15t-51 38.5t-33.5 51t-21.5 52.5l71 36l20 -33q20 -32 39 -50.5
t49 -18.5t49.5 18.5t39.5 50.5l20 33l70 -36q-9 -25 -22.5 -52.5t-34.5 -51t-50.5 -38.5t-71.5 -15z" />
    <glyph glyph-name="uni01D4" unicode="&#x1d4;" horiz-adv-x="588" 
d="M386 87h-5q-7 -20 -18.5 -37.5t-29 -31.5t-42 -22t-56.5 -8q-81 0 -124 53t-43 151v330h128v-317q0 -54 21 -82.5t67 -28.5q19 0 37.5 5t32.5 15.5t23 26t9 36.5v345h128v-522h-128v87zM234 591l-126 154l64 50l120 -116l120 116l64 -50l-126 -154h-116z" />
    <glyph glyph-name="ucircumflex" unicode="&#xfb;" horiz-adv-x="588" 
d="M350 786l126 -154l-64 -50l-120 115l-120 -115l-64 50l126 154h116zM386 87h-5q-7 -20 -18.5 -37.5t-29 -31.5t-42 -22t-56.5 -8q-81 0 -124 53t-43 151v330h128v-317q0 -54 21 -82.5t67 -28.5q19 0 37.5 5t32.5 15.5t23 26t9 36.5v345h128v-522h-128v87z" />
    <glyph glyph-name="udieresis" unicode="&#xfc;" horiz-adv-x="588" 
d="M187 605q-39 0 -55 16.5t-16 41.5v21q0 25 16 41.5t55 16.5t55 -16.5t16 -41.5v-21q0 -25 -16 -41.5t-55 -16.5zM397 605q-39 0 -55 16.5t-16 41.5v21q0 25 16 41.5t55 16.5t55 -16.5t16 -41.5v-21q0 -25 -16 -41.5t-55 -16.5zM386 87h-5q-7 -20 -18.5 -37.5t-29 -31.5
t-42 -22t-56.5 -8q-81 0 -124 53t-43 151v330h128v-317q0 -54 21 -82.5t67 -28.5q19 0 37.5 5t32.5 15.5t23 26t9 36.5v345h128v-522h-128v87z" />
    <glyph glyph-name="uni1EE5" unicode="&#x1ee5;" horiz-adv-x="588" 
d="M386 87h-5q-7 -20 -18.5 -37.5t-29 -31.5t-42 -22t-56.5 -8q-81 0 -124 53t-43 151v330h128v-317q0 -54 21 -82.5t67 -28.5q19 0 37.5 5t32.5 15.5t23 26t9 36.5v345h128v-522h-128v87zM290 -194q-39 0 -55.5 16.5t-16.5 41.5v22q0 25 16.5 41.5t55.5 16.5t55.5 -16.5
t16.5 -41.5v-22q0 -25 -16.5 -41.5t-55.5 -16.5z" />
    <glyph glyph-name="ugrave" unicode="&#xf9;" horiz-adv-x="588" 
d="M386 87h-5q-7 -20 -18.5 -37.5t-29 -31.5t-42 -22t-56.5 -8q-81 0 -124 53t-43 151v330h128v-317q0 -54 21 -82.5t67 -28.5q19 0 37.5 5t32.5 15.5t23 26t9 36.5v345h128v-522h-128v87zM153 752l108 53l95 -187l-77 -37z" />
    <glyph glyph-name="uni1EE7" unicode="&#x1ee7;" horiz-adv-x="588" 
d="M386 87h-5q-7 -20 -18.5 -37.5t-29 -31.5t-42 -22t-56.5 -8q-81 0 -124 53t-43 151v330h128v-317q0 -54 21 -82.5t67 -28.5q19 0 37.5 5t32.5 15.5t23 26t9 36.5v345h128v-522h-128v87zM182 791h133q51 0 70 -20t19 -48q0 -27 -15 -58t-39 -61l-27 -33l-67 32l46 95h-120
v93z" />
    <glyph glyph-name="uhungarumlaut" unicode="&#x171;" horiz-adv-x="588" 
d="M386 87h-5q-7 -20 -18.5 -37.5t-29 -31.5t-42 -22t-56.5 -8q-81 0 -124 53t-43 151v330h128v-317q0 -54 21 -82.5t67 -28.5q19 0 37.5 5t32.5 15.5t23 26t9 36.5v345h128v-522h-128v87zM207 581l-71 34l95 187l102 -50zM399 581l-72 34l95 187l102 -50z" />
    <glyph glyph-name="umacron" unicode="&#x16b;" horiz-adv-x="588" 
d="M386 87h-5q-7 -20 -18.5 -37.5t-29 -31.5t-42 -22t-56.5 -8q-81 0 -124 53t-43 151v330h128v-317q0 -54 21 -82.5t67 -28.5q19 0 37.5 5t32.5 15.5t23 26t9 36.5v345h128v-522h-128v87zM143 721h298v-93h-298v93z" />
    <glyph glyph-name="uogonek" unicode="&#x173;" horiz-adv-x="588" 
d="M514 0q-35 -24 -56.5 -41t-33 -29.5t-15.5 -21.5t-4 -18q0 -18 10.5 -25t25.5 -7q17 0 29.5 7.5t23.5 18.5l49 -47q-12 -22 -40 -35t-72 -13q-23 0 -44 4.5t-37 14t-25.5 25.5t-9.5 39q0 41 31.5 69.5t82.5 54.5l-1 4h-42v87h-5q-7 -20 -18.5 -37.5t-29 -31.5t-42 -22
t-56.5 -8q-81 0 -124 53t-43 151v330h128v-317q0 -54 21 -82.5t67 -28.5q19 0 37.5 5t32.5 15.5t23 26t9 36.5v345h128v-522z" />
    <glyph glyph-name="uring" unicode="&#x16f;" horiz-adv-x="588" 
d="M292 563q-29 0 -54.5 10t-44.5 28t-29.5 43t-10.5 54t10.5 54t29.5 43t44.5 28t54.5 10t54.5 -10t44 -28t29.5 -43t11 -54t-11 -54t-29.5 -43t-44 -28t-54.5 -10zM292 631q53 0 53 52v30q0 52 -53 52t-53 -52v-30q0 -52 53 -52zM386 87h-5q-7 -20 -18.5 -37.5t-29 -31.5
t-42 -22t-56.5 -8q-81 0 -124 53t-43 151v330h128v-317q0 -54 21 -82.5t67 -28.5q19 0 37.5 5t32.5 15.5t23 26t9 36.5v345h128v-522h-128v87z" />
    <glyph glyph-name="utilde" unicode="&#x169;" horiz-adv-x="588" 
d="M386 87h-5q-7 -20 -18.5 -37.5t-29 -31.5t-42 -22t-56.5 -8q-81 0 -124 53t-43 151v330h128v-317q0 -54 21 -82.5t67 -28.5q19 0 37.5 5t32.5 15.5t23 26t9 36.5v345h128v-522h-128v87zM367 604q-23 0 -41.5 7t-36.5 15q-23 10 -40.5 16.5t-34.5 6.5t-30 -6.5t-29 -19.5
l-47 60q17 25 44 43t65 18q23 0 41.5 -7t36.5 -15q23 -11 40.5 -17t34.5 -6t30 6.5t29 19.5l47 -60q-17 -25 -44 -43t-65 -18z" />
    <glyph glyph-name="uhorn" unicode="&#x1b0;" horiz-adv-x="588" 
d="M584 534q0 -38 -13.5 -63t-56.5 -25v-446h-128v87h-5q-7 -20 -18.5 -37.5t-29 -31.5t-42 -22t-56.5 -8q-81 0 -124 53t-43 151v330h128v-317q0 -54 21 -82.5t67 -28.5q19 0 37.5 5t32.5 15.5t23 26t9 36.5v345h90v108h108v-96z" />
    <glyph glyph-name="uni1EE9" unicode="&#x1ee9;" horiz-adv-x="588" 
d="M304 581l-77 37l95 187l108 -53zM584 534q0 -38 -13.5 -63t-56.5 -25v-446h-128v87h-5q-7 -20 -18.5 -37.5t-29 -31.5t-42 -22t-56.5 -8q-81 0 -124 53t-43 151v330h128v-317q0 -54 21 -82.5t67 -28.5q19 0 37.5 5t32.5 15.5t23 26t9 36.5v345h90v108h108v-96z" />
    <glyph glyph-name="uni1EF1" unicode="&#x1ef1;" horiz-adv-x="588" 
d="M584 534q0 -38 -13.5 -63t-56.5 -25v-446h-128v87h-5q-7 -20 -18.5 -37.5t-29 -31.5t-42 -22t-56.5 -8q-81 0 -124 53t-43 151v330h128v-317q0 -54 21 -82.5t67 -28.5q19 0 37.5 5t32.5 15.5t23 26t9 36.5v345h90v108h108v-96zM289 -194q-39 0 -55.5 16.5t-16.5 41.5v22
q0 25 16.5 41.5t55.5 16.5t55.5 -16.5t16.5 -41.5v-22q0 -25 -16.5 -41.5t-55.5 -16.5z" />
    <glyph glyph-name="uni1EEB" unicode="&#x1eeb;" horiz-adv-x="588" 
d="M152 752l108 53l95 -187l-77 -37zM584 534q0 -38 -13.5 -63t-56.5 -25v-446h-128v87h-5q-7 -20 -18.5 -37.5t-29 -31.5t-42 -22t-56.5 -8q-81 0 -124 53t-43 151v330h128v-317q0 -54 21 -82.5t67 -28.5q19 0 37.5 5t32.5 15.5t23 26t9 36.5v345h90v108h108v-96z" />
    <glyph glyph-name="uni1EED" unicode="&#x1eed;" horiz-adv-x="588" 
d="M181 791h133q51 0 70 -20t19 -48q0 -27 -15 -58t-39 -61l-27 -33l-67 32l46 95h-120v93zM584 534q0 -38 -13.5 -63t-56.5 -25v-446h-128v87h-5q-7 -20 -18.5 -37.5t-29 -31.5t-42 -22t-56.5 -8q-81 0 -124 53t-43 151v330h128v-317q0 -54 21 -82.5t67 -28.5q19 0 37.5 5
t32.5 15.5t23 26t9 36.5v345h90v108h108v-96z" />
    <glyph glyph-name="uni1EEF" unicode="&#x1eef;" horiz-adv-x="588" 
d="M355 605q-20 0 -36 6.5t-32 14.5q-19 9 -33.5 15t-30.5 6q-26 0 -51 -22l-46 55q16 26 40 44t59 18q20 0 36 -6t32 -14q19 -10 33.5 -16t30.5 -6q25 0 51 23l46 -55q-16 -26 -40 -44.5t-59 -18.5zM584 534q0 -38 -13.5 -63t-56.5 -25v-446h-128v87h-5q-7 -20 -18.5 -37.5
t-29 -31.5t-42 -22t-56.5 -8q-81 0 -124 53t-43 151v330h128v-317q0 -54 21 -82.5t67 -28.5q19 0 37.5 5t32.5 15.5t23 26t9 36.5v345h90v108h108v-96z" />
    <glyph glyph-name="uni01D6" unicode="&#x1d6;" horiz-adv-x="588" 
d="M386 87h-5q-7 -20 -18.5 -37.5t-29 -31.5t-42 -22t-56.5 -8q-81 0 -124 53t-43 151v330h128v-317q0 -54 21 -82.5t67 -28.5q19 0 37.5 5t32.5 15.5t23 26t9 36.5v345h128v-522h-128v87zM142 868h298v-93h-298v93zM184 590q-39 0 -55 16.5t-16 41.5v21q0 25 16 41.5
t55 16.5q40 0 55.5 -16.5t15.5 -41.5v-21q0 -25 -15.5 -41.5t-55.5 -16.5zM398 590q-40 0 -55.5 16.5t-15.5 41.5v21q0 25 15.5 41.5t55.5 16.5q39 0 55 -16.5t16 -41.5v-21q0 -25 -16 -41.5t-55 -16.5z" />
    <glyph glyph-name="uni01D8" unicode="&#x1d8;" horiz-adv-x="588" 
d="M386 87h-5q-7 -20 -18.5 -37.5t-29 -31.5t-42 -22t-56.5 -8q-81 0 -124 53t-43 151v330h128v-317q0 -54 21 -82.5t67 -28.5q19 0 37.5 5t32.5 15.5t23 26t9 36.5v345h128v-522h-128v87zM302 723l-71 34l95 187l101 -50zM184 590q-39 0 -55 16.5t-16 41.5v21q0 25 16 41.5
t55 16.5q40 0 55.5 -16.5t15.5 -41.5v-21q0 -25 -15.5 -41.5t-55.5 -16.5zM398 590q-40 0 -55.5 16.5t-15.5 41.5v21q0 25 15.5 41.5t55.5 16.5q39 0 55 -16.5t16 -41.5v-21q0 -25 -16 -41.5t-55 -16.5z" />
    <glyph glyph-name="uni01DC" unicode="&#x1dc;" horiz-adv-x="588" 
d="M386 87h-5q-7 -20 -18.5 -37.5t-29 -31.5t-42 -22t-56.5 -8q-81 0 -124 53t-43 151v330h128v-317q0 -54 21 -82.5t67 -28.5q19 0 37.5 5t32.5 15.5t23 26t9 36.5v345h128v-522h-128v87zM155 894l101 50l95 -187l-71 -34zM184 590q-39 0 -55 16.5t-16 41.5v21
q0 25 16 41.5t55 16.5q40 0 55.5 -16.5t15.5 -41.5v-21q0 -25 -15.5 -41.5t-55.5 -16.5zM398 590q-40 0 -55.5 16.5t-15.5 41.5v21q0 25 15.5 41.5t55.5 16.5q39 0 55 -16.5t16 -41.5v-21q0 -25 -16 -41.5t-55 -16.5z" />
    <glyph glyph-name="uni01DA" unicode="&#x1da;" horiz-adv-x="588" 
d="M386 87h-5q-7 -20 -18.5 -37.5t-29 -31.5t-42 -22t-56.5 -8q-81 0 -124 53t-43 151v330h128v-317q0 -54 21 -82.5t67 -28.5q19 0 37.5 5t32.5 15.5t23 26t9 36.5v345h128v-522h-128v87zM243 748l-135 143l60 54l123 -107l123 107l60 -54l-135 -143h-96zM184 590
q-39 0 -55 16.5t-16 41.5v21q0 25 16 41.5t55 16.5q40 0 55.5 -16.5t15.5 -41.5v-21q0 -25 -15.5 -41.5t-55.5 -16.5zM398 590q-40 0 -55.5 16.5t-15.5 41.5v21q0 25 15.5 41.5t55.5 16.5q39 0 55 -16.5t16 -41.5v-21q0 -25 -16 -41.5t-55 -16.5z" />
    <glyph glyph-name="wacute" unicode="&#x1e83;" horiz-adv-x="819" 
d="M423 581l-77 37l95 187l108 -53zM23 522h123l53 -215l41 -179h4l48 179l61 215h116l63 -215l49 -179h4l41 179l52 215h119l-143 -522h-138l-67 230l-39 142h-3l-38 -142l-66 -230h-136z" />
    <glyph glyph-name="wcircumflex" unicode="&#x175;" horiz-adv-x="819" 
d="M468 786l126 -154l-64 -50l-120 115l-120 -115l-64 50l126 154h116zM23 522h123l53 -215l41 -179h4l48 179l61 215h116l63 -215l49 -179h4l41 179l52 215h119l-143 -522h-138l-67 230l-39 142h-3l-38 -142l-66 -230h-136z" />
    <glyph glyph-name="wdieresis" unicode="&#x1e85;" horiz-adv-x="819" 
d="M305 605q-39 0 -55 16.5t-16 41.5v21q0 25 16 41.5t55 16.5t55 -16.5t16 -41.5v-21q0 -25 -16 -41.5t-55 -16.5zM515 605q-39 0 -55 16.5t-16 41.5v21q0 25 16 41.5t55 16.5t55 -16.5t16 -41.5v-21q0 -25 -16 -41.5t-55 -16.5zM23 522h123l53 -215l41 -179h4l48 179
l61 215h116l63 -215l49 -179h4l41 179l52 215h119l-143 -522h-138l-67 230l-39 142h-3l-38 -142l-66 -230h-136z" />
    <glyph glyph-name="wgrave" unicode="&#x1e81;" horiz-adv-x="819" 
d="M23 522h123l53 -215l41 -179h4l48 179l61 215h116l63 -215l49 -179h4l41 179l52 215h119l-143 -522h-138l-67 230l-39 142h-3l-38 -142l-66 -230h-136zM271 752l108 53l95 -187l-77 -37z" />
    <glyph glyph-name="yacute" unicode="&#xfd;" horiz-adv-x="524" 
d="M394 522h120l-210 -615q-10 -28 -22.5 -48.5t-29.5 -33.5t-41 -19t-56 -6h-77v102h94l24 73l-187 547h127l91 -276l34 -132h6l36 132zM279 581l-77 37l95 187l108 -53z" />
    <glyph glyph-name="ycircumflex" unicode="&#x177;" horiz-adv-x="524" 
d="M394 522h120l-210 -615q-10 -28 -22.5 -48.5t-29.5 -33.5t-41 -19t-56 -6h-77v102h94l24 73l-187 547h127l91 -276l34 -132h6l36 132zM324 786l126 -154l-64 -50l-120 115l-120 -115l-64 50l126 154h116z" />
    <glyph glyph-name="ydieresis" unicode="&#xff;" horiz-adv-x="524" 
d="M394 522h120l-210 -615q-10 -28 -22.5 -48.5t-29.5 -33.5t-41 -19t-56 -6h-77v102h94l24 73l-187 547h127l91 -276l34 -132h6l36 132zM161 605q-39 0 -55 16.5t-16 41.5v21q0 25 16 41.5t55 16.5t55 -16.5t16 -41.5v-21q0 -25 -16 -41.5t-55 -16.5zM371 605
q-39 0 -55 16.5t-16 41.5v21q0 25 16 41.5t55 16.5t55 -16.5t16 -41.5v-21q0 -25 -16 -41.5t-55 -16.5z" />
    <glyph glyph-name="uni1EF5" unicode="&#x1ef5;" horiz-adv-x="524" 
d="M394 522h120l-210 -615q-10 -28 -22.5 -48.5t-29.5 -33.5t-41 -19t-56 -6h-77v102h94l24 73l-187 547h127l91 -276l34 -132h6l36 132zM420 -194q-39 0 -55.5 16.5t-16.5 41.5v22q0 25 16.5 41.5t55.5 16.5t55.5 -16.5t16.5 -41.5v-22q0 -25 -16.5 -41.5t-55.5 -16.5z" />
    <glyph glyph-name="ygrave" unicode="&#x1ef3;" horiz-adv-x="524" 
d="M394 522h120l-210 -615q-10 -28 -22.5 -48.5t-29.5 -33.5t-41 -19t-56 -6h-77v102h94l24 73l-187 547h127l91 -276l34 -132h6l36 132zM127 752l108 53l95 -187l-77 -37z" />
    <glyph glyph-name="uni1EF7" unicode="&#x1ef7;" horiz-adv-x="524" 
d="M394 522h120l-210 -615q-10 -28 -22.5 -48.5t-29.5 -33.5t-41 -19t-56 -6h-77v102h94l24 73l-187 547h127l91 -276l34 -132h6l36 132zM156 791h133q51 0 70 -20t19 -48q0 -27 -15 -58t-39 -61l-27 -33l-67 32l46 95h-120v93z" />
    <glyph glyph-name="uni1EF9" unicode="&#x1ef9;" horiz-adv-x="524" 
d="M394 522h120l-210 -615q-10 -28 -22.5 -48.5t-29.5 -33.5t-41 -19t-56 -6h-77v102h94l24 73l-187 547h127l91 -276l34 -132h6l36 132zM341 604q-23 0 -41.5 7t-36.5 15q-23 10 -40.5 16.5t-34.5 6.5t-30 -6.5t-29 -19.5l-47 60q17 25 44 43t65 18q23 0 41.5 -7t36.5 -15
q23 -11 40.5 -17t34.5 -6t30 6.5t29 19.5l47 -60q-17 -25 -44 -43t-65 -18z" />
    <glyph glyph-name="zacute" unicode="&#x17a;" horiz-adv-x="502" 
d="M265 581l-77 37l95 187l108 -53zM37 0v102l271 319h-262v101h412v-99l-273 -321h280v-102h-428z" />
    <glyph glyph-name="zcaron" unicode="&#x17e;" horiz-adv-x="502" 
d="M194 591l-126 154l64 50l120 -116l120 116l64 -50l-126 -154h-116zM37 0v102l271 319h-262v101h412v-99l-273 -321h280v-102h-428z" />
    <glyph glyph-name="zdotaccent" unicode="&#x17c;" horiz-adv-x="502" 
d="M37 0v102l271 319h-262v101h412v-99l-273 -321h280v-102h-428zM252 598q-43 0 -60.5 18.5t-17.5 44.5v24q0 27 17.5 45t60.5 18t60.5 -18t17.5 -45v-24q0 -26 -17.5 -44.5t-60.5 -18.5z" />
    <glyph glyph-name="Aacute" unicode="&#xc1;" horiz-adv-x="672" 
d="M514 0l-56 178h-248l-55 -178h-134l234 698h164l232 -698h-137zM336 578h-5l-89 -287h184zM347 744l-77 38l95 187l108 -54z" />
    <glyph glyph-name="Abreve" unicode="&#x102;" horiz-adv-x="672" 
d="M514 0l-56 178h-248l-55 -178h-134l234 698h164l232 -698h-137zM336 578h-5l-89 -287h184zM334 748q-43 0 -73.5 15t-51 38t-33.5 50.5t-21 52.5l71 36l19 -32q20 -32 39 -50.5t50 -18.5t50.5 18.5t39.5 50.5l19 32l70 -36q-8 -25 -21.5 -52.5t-34.5 -50.5t-51 -38
t-72 -15z" />
    <glyph glyph-name="uni01CD" unicode="&#x1cd;" horiz-adv-x="672" 
d="M514 0l-56 178h-248l-55 -178h-134l234 698h164l232 -698h-137zM336 578h-5l-89 -287h184zM276 754l-126 154l64 51l120 -116l120 116l64 -51l-126 -154h-116z" />
    <glyph glyph-name="Acircumflex" unicode="&#xc2;" horiz-adv-x="672" 
d="M514 0l-56 178h-248l-55 -178h-134l234 698h164l232 -698h-137zM336 578h-5l-89 -287h184zM392 950l126 -154l-64 -51l-120 116l-120 -116l-64 51l126 154h116z" />
    <glyph glyph-name="Adieresis" unicode="&#xc4;" horiz-adv-x="672" 
d="M514 0l-56 178h-248l-55 -178h-134l234 698h164l232 -698h-137zM336 578h-5l-89 -287h184zM229 769q-39 0 -55 16.5t-16 41.5v21q0 25 16 42t55 17t55 -17t16 -42v-21q0 -25 -16 -41.5t-55 -16.5zM439 769q-39 0 -55 16.5t-16 41.5v21q0 25 16 42t55 17t55 -17t16 -42
v-21q0 -25 -16 -41.5t-55 -16.5z" />
    <glyph glyph-name="uni1EA0" unicode="&#x1ea0;" horiz-adv-x="672" 
d="M514 0l-56 178h-248l-55 -178h-134l234 698h164l232 -698h-137zM336 578h-5l-89 -287h184zM334 -194q-39 0 -55.5 16.5t-16.5 41.5v22q0 25 16.5 41.5t55.5 16.5t55.5 -16.5t16.5 -41.5v-22q0 -25 -16.5 -41.5t-55.5 -16.5z" />
    <glyph glyph-name="Agrave" unicode="&#xc0;" horiz-adv-x="672" 
d="M514 0l-56 178h-248l-55 -178h-134l234 698h164l232 -698h-137zM336 578h-5l-89 -287h184zM195 915l108 54l95 -187l-77 -38z" />
    <glyph glyph-name="uni1EA2" unicode="&#x1ea2;" horiz-adv-x="672" 
d="M514 0l-56 178h-248l-55 -178h-134l234 698h164l232 -698h-137zM336 578h-5l-89 -287h184zM225 955h133q51 0 70 -20.5t19 -47.5t-15 -58t-39 -61l-27 -33l-67 31l46 96h-120v93z" />
    <glyph glyph-name="Amacron" unicode="&#x100;" horiz-adv-x="672" 
d="M514 0l-56 178h-248l-55 -178h-134l234 698h164l232 -698h-137zM336 578h-5l-89 -287h184zM185 884h298v-93h-298v93z" />
    <glyph glyph-name="Aogonek" unicode="&#x104;" horiz-adv-x="672" 
d="M255 698h164l232 -698q-35 -24 -56.5 -41t-33 -29.5t-15.5 -21.5t-4 -18q0 -18 10.5 -25t25.5 -7q17 0 29.5 7.5t23.5 18.5l49 -47q-12 -22 -40 -35t-72 -13q-23 0 -44 4.5t-37 14t-25.5 25.5t-9.5 39q0 41 31.5 69.5t82.5 54.5l-1 4h-51l-56 178h-248l-55 -178h-134z
M336 578h-5l-89 -287h184z" />
    <glyph glyph-name="Aring" unicode="&#xc5;" horiz-adv-x="672" 
d="M514 0l-56 178h-248l-55 -178h-134l234 698h164l232 -698h-137zM336 578h-5l-89 -287h184zM334 727q-29 0 -54.5 10t-44.5 28t-29.5 43t-10.5 54t10.5 53.5t29.5 42.5t44.5 28t54.5 10t54.5 -10t44 -28t29.5 -42.5t11 -53.5t-11 -54t-29.5 -43t-44 -28t-54.5 -10z
M334 794q26 0 39.5 14t13.5 38v31q0 24 -13.5 38t-39.5 14t-39.5 -14t-13.5 -38v-31q0 -24 13.5 -38t39.5 -14z" />
    <glyph glyph-name="Aringacute" unicode="&#x1fa;" horiz-adv-x="672" 
d="M514 0l-56 178h-248l-55 -178h-134l234 698h164l232 -698h-137zM336 578h-5l-89 -287h184zM333 979l-51 46l112 116l73 -65zM334 728q-30 0 -55.5 8.5t-44.5 24t-30 37.5t-11 49t11 49t30 37.5t44.5 23.5t55.5 8t55.5 -8t44.5 -23.5t30 -37.5t11 -49t-11 -49t-30 -37.5
t-44.5 -24t-55.5 -8.5zM334 792q56 0 56 48v14q0 47 -56 47t-56 -47v-14q0 -48 56 -48z" />
    <glyph glyph-name="Atilde" unicode="&#xc3;" horiz-adv-x="672" 
d="M514 0l-56 178h-248l-55 -178h-134l234 698h164l232 -698h-137zM336 578h-5l-89 -287h184zM409 768q-23 0 -41.5 7t-36.5 15q-23 10 -40.5 16t-34.5 6t-30 -6t-29 -19l-47 59q17 26 44 43.5t65 17.5q23 0 41.5 -7t36.5 -15q23 -10 40.5 -16t34.5 -6t30 6t29 19l47 -59
q-17 -26 -44 -43.5t-65 -17.5z" />
    <glyph glyph-name="uni1EAE" unicode="&#x1eae;" horiz-adv-x="672" 
d="M514 0l-56 178h-248l-55 -178h-134l234 698h164l232 -698h-137zM336 578h-5l-89 -287h184zM334 740q-41 0 -72 13t-53 34t-36 46t-23 49l66 39l20 -32q22 -34 46 -47.5t52 -13.5q30 0 53 13.5t45 47.5l20 32l66 -39q-9 -24 -23 -49t-36 -46t-53 -34t-72 -13zM349 886
l-70 35l93 187l100 -51z" />
    <glyph glyph-name="uni1EB6" unicode="&#x1eb6;" horiz-adv-x="672" 
d="M514 0l-56 178h-248l-55 -178h-134l234 698h164l232 -698h-137zM336 578h-5l-89 -287h184zM334 748q-43 0 -73.5 15t-51 38t-33.5 50.5t-21 52.5l71 36l19 -32q20 -32 39 -50.5t50 -18.5t50.5 18.5t39.5 50.5l19 32l70 -36q-8 -25 -21.5 -52.5t-34.5 -50.5t-51 -38
t-72 -15zM334 -194q-39 0 -55.5 16.5t-16.5 41.5v22q0 25 16.5 41.5t55.5 16.5t55.5 -16.5t16.5 -41.5v-22q0 -25 -16.5 -41.5t-55.5 -16.5z" />
    <glyph glyph-name="uni1EB0" unicode="&#x1eb0;" horiz-adv-x="672" 
d="M514 0l-56 178h-248l-55 -178h-134l234 698h164l232 -698h-137zM336 578h-5l-89 -287h184zM334 740q-41 0 -72 13t-53 34t-36 46t-23 49l66 39l20 -32q22 -34 46 -47.5t52 -13.5q30 0 53 13.5t45 47.5l20 32l66 -39q-9 -24 -23 -49t-36 -46t-53 -34t-72 -13zM198 1057
l99 51l93 -186l-71 -36z" />
    <glyph glyph-name="uni1EB2" unicode="&#x1eb2;" horiz-adv-x="672" 
d="M514 0l-56 178h-248l-55 -178h-134l234 698h164l232 -698h-137zM336 578h-5l-89 -287h184zM216 1094h124q51 0 70 -20t19 -47t-16.5 -58t-41.5 -61l-26 -33l-59 30l48 101h-118v88zM334 740q-41 0 -72 13t-53 34t-36 46t-23 49l66 39l20 -32q22 -34 46 -47.5t52 -13.5
q30 0 53 13.5t45 47.5l20 32l66 -39q-9 -24 -23 -49t-36 -46t-53 -34t-72 -13z" />
    <glyph glyph-name="uni1EB4" unicode="&#x1eb4;" horiz-adv-x="672" 
d="M514 0l-56 178h-248l-55 -178h-134l234 698h164l232 -698h-137zM336 578h-5l-89 -287h184zM405 946q-23 0 -40.5 6.5t-34.5 14.5q-22 10 -39 16t-34 6t-30 -6t-29 -19l-44 56q17 25 43.5 42.5t64.5 17.5q23 0 41 -7t35 -15q22 -9 39 -15t34 -6t30 6.5t28 19.5l45 -56
q-17 -25 -44 -43t-65 -18zM334 740q-41 0 -72 13t-53 34t-36 46t-23 49l66 39l20 -32q22 -34 46 -47.5t52 -13.5q30 0 53 13.5t45 47.5l20 32l66 -39q-9 -24 -23 -49t-36 -46t-53 -34t-72 -13z" />
    <glyph glyph-name="uni1EA4" unicode="&#x1ea4;" horiz-adv-x="672" 
d="M514 0l-56 178h-248l-55 -178h-134l234 698h164l232 -698h-137zM336 578h-5l-89 -287h184zM501 886l-70 35l95 187l101 -51zM382 934l135 -143l-60 -54l-123 106l-123 -106l-60 54l135 143h96z" />
    <glyph glyph-name="uni1EAC" unicode="&#x1eac;" horiz-adv-x="672" 
d="M514 0l-56 178h-248l-55 -178h-134l234 698h164l232 -698h-137zM336 578h-5l-89 -287h184zM392 950l126 -154l-64 -51l-120 116l-120 -116l-64 51l126 154h116zM334 -194q-39 0 -55.5 16.5t-16.5 41.5v22q0 25 16.5 41.5t55.5 16.5t55.5 -16.5t16.5 -41.5v-22
q0 -25 -16.5 -41.5t-55.5 -16.5z" />
    <glyph glyph-name="uni1EA6" unicode="&#x1ea6;" horiz-adv-x="672" 
d="M514 0l-56 178h-248l-55 -178h-134l234 698h164l232 -698h-137zM336 578h-5l-89 -287h184zM41 1057l101 51l95 -187l-70 -35zM382 934l135 -143l-60 -54l-123 106l-123 -106l-60 54l135 143h96z" />
    <glyph glyph-name="uni1EA8" unicode="&#x1ea8;" horiz-adv-x="672" 
d="M514 0l-56 178h-248l-55 -178h-134l234 698h164l232 -698h-137zM336 578h-5l-89 -287h184zM376 1094h126q50 0 70 -20t20 -47t-17.5 -58.5t-41.5 -60.5l-26 -33l-60 31l48 100h-119v88zM382 934l135 -143l-60 -54l-123 106l-123 -106l-60 54l135 143h96z" />
    <glyph glyph-name="uni1EAA" unicode="&#x1eaa;" horiz-adv-x="672" 
d="M514 0l-56 178h-248l-55 -178h-134l234 698h164l232 -698h-137zM336 578h-5l-89 -287h184zM260 1089q23 0 41.5 -7t36.5 -15q23 -11 40.5 -17t34.5 -6t30 6.5t29 19.5l45 -56q-17 -25 -44 -43t-65 -18q-23 0 -41.5 7t-36.5 15q-23 11 -40.5 17t-34.5 6t-30 -6.5
t-29 -19.5l-45 56q17 25 44 43t65 18zM383 925l132 -134l-58 -54l-123 100l-123 -100l-58 54l132 134h98z" />
    <glyph glyph-name="AE" unicode="&#xc6;" horiz-adv-x="950" 
d="M432 178h-214l-85 -178h-133l346 698h546v-117h-329v-169h291v-117h-291v-178h329v-117h-460v178zM412 581l-141 -291h161v291h-20z" />
    <glyph glyph-name="AEacute" unicode="&#x1fc;" horiz-adv-x="950" 
d="M432 178h-214l-85 -178h-133l346 698h546v-117h-329v-169h291v-117h-291v-178h329v-117h-460v178zM412 581l-141 -291h161v291h-20zM623 744l-77 38l95 187l108 -54z" />
    <glyph glyph-name="Cacute" unicode="&#x106;" horiz-adv-x="642" 
d="M353 -12q-69 0 -124.5 22.5t-95 67.5t-60.5 111.5t-21 154.5t21 156.5t60.5 115t95 70.5t124.5 24q94 0 156 -40t99 -121l-113 -60q-15 47 -49 75.5t-93 28.5q-74 0 -117.5 -50t-43.5 -140v-110q0 -91 43.5 -139.5t117.5 -48.5q59 0 96.5 32t54.5 79l107 -63
q-38 -78 -101 -121.5t-157 -43.5zM363 744l-77 38l95 187l108 -54z" />
    <glyph glyph-name="Ccaron" unicode="&#x10c;" horiz-adv-x="642" 
d="M353 -12q-69 0 -124.5 22.5t-95 67.5t-60.5 111.5t-21 154.5t21 156.5t60.5 115t95 70.5t124.5 24q94 0 156 -40t99 -121l-113 -60q-15 47 -49 75.5t-93 28.5q-74 0 -117.5 -50t-43.5 -140v-110q0 -91 43.5 -139.5t117.5 -48.5q59 0 96.5 32t54.5 79l107 -63
q-38 -78 -101 -121.5t-157 -43.5zM292 754l-126 154l64 51l120 -116l120 116l64 -51l-126 -154h-116z" />
    <glyph glyph-name="Ccedilla" unicode="&#xc7;" horiz-adv-x="642" 
d="M353 593q-74 0 -117.5 -50t-43.5 -140v-110q0 -91 43.5 -139.5t117.5 -48.5q59 0 96.5 32t54.5 79l107 -63q-37 -77 -98 -120t-150 -45l-9 -45l4 -3q22 6 45 6q30 0 50.5 -16.5t20.5 -51.5q0 -24 -10.5 -41t-27.5 -27.5t-40 -15.5t-47 -5q-49 0 -77 14.5t-40 29.5l44 51
q9 -12 25 -20.5t39 -8.5q19 0 31.5 6.5t12.5 20.5q0 12 -14 24t-59 17l-23 2l14 67q-117 15 -183.5 103.5t-66.5 248.5q0 88 21 156.5t60.5 115t95 70.5t124.5 24q94 0 156 -40t99 -121l-113 -60q-15 47 -49 75.5t-93 28.5z" />
    <glyph glyph-name="Ccircumflex" unicode="&#x108;" horiz-adv-x="642" 
d="M353 -12q-69 0 -124.5 22.5t-95 67.5t-60.5 111.5t-21 154.5t21 156.5t60.5 115t95 70.5t124.5 24q94 0 156 -40t99 -121l-113 -60q-15 47 -49 75.5t-93 28.5q-74 0 -117.5 -50t-43.5 -140v-110q0 -91 43.5 -139.5t117.5 -48.5q59 0 96.5 32t54.5 79l107 -63
q-38 -78 -101 -121.5t-157 -43.5zM408 950l126 -154l-64 -51l-120 116l-120 -116l-64 51l126 154h116z" />
    <glyph glyph-name="Cdotaccent" unicode="&#x10a;" horiz-adv-x="642" 
d="M350 760q-44 0 -61.5 18.5t-17.5 46.5v25q0 28 17.5 46.5t61.5 18.5t61.5 -18.5t17.5 -46.5v-25q0 -28 -17.5 -46.5t-61.5 -18.5zM353 -12q-69 0 -124.5 22.5t-95 67.5t-60.5 111.5t-21 154.5t21 156.5t60.5 115t95 70.5t124.5 24q94 0 156 -40t99 -121l-113 -60
q-15 47 -49 75.5t-93 28.5q-74 0 -117.5 -50t-43.5 -140v-110q0 -91 43.5 -139.5t117.5 -48.5q59 0 96.5 32t54.5 79l107 -63q-38 -78 -101 -121.5t-157 -43.5z" />
    <glyph glyph-name="Dcaron" unicode="&#x10e;" horiz-adv-x="689" 
d="M82 698h254q68 0 123.5 -22t95 -65.5t61 -109t21.5 -152.5t-21.5 -152.5t-61 -109t-95 -65.5t-123.5 -22h-254v698zM336 117q74 0 117.5 43.5t43.5 133.5v110q0 90 -43.5 133.5t-117.5 43.5h-122v-464h122zM260 754l-126 154l64 51l120 -116l120 116l64 -51l-126 -154
h-116z" />
    <glyph glyph-name="Dcroat" unicode="&#x110;" horiz-adv-x="694" 
d="M86 309h-76v99h76v290h255q68 0 123.5 -22t94.5 -65.5t60.5 -109t21.5 -152.5t-21.5 -152.5t-60.5 -109t-94.5 -65.5t-123.5 -22h-255v309zM341 117q73 0 116.5 43.5t43.5 133.5v110q0 90 -43.5 133.5t-116.5 43.5h-123v-173h124v-99h-124v-192h123z" />
    <glyph glyph-name="Eth" unicode="&#xd0;" horiz-adv-x="694" 
d="M86 309h-76v99h76v290h255q68 0 123.5 -22t94.5 -65.5t60.5 -109t21.5 -152.5t-21.5 -152.5t-60.5 -109t-94.5 -65.5t-123.5 -22h-255v309zM341 117q73 0 116.5 43.5t43.5 133.5v110q0 90 -43.5 133.5t-116.5 43.5h-123v-173h124v-99h-124v-192h123z" />
    <glyph glyph-name="Eacute" unicode="&#xc9;" 
d="M82 0v698h460v-117h-328v-169h290v-117h-290v-178h328v-117h-460zM325 744l-77 38l95 187l108 -54z" />
    <glyph glyph-name="Ebreve" unicode="&#x114;" 
d="M82 0v698h460v-117h-328v-169h290v-117h-290v-178h328v-117h-460zM312 748q-43 0 -73.5 15t-51 38t-33.5 50.5t-21 52.5l71 36l19 -32q20 -32 39 -50.5t50 -18.5t50.5 18.5t39.5 50.5l19 32l70 -36q-8 -25 -21.5 -52.5t-34.5 -50.5t-51 -38t-72 -15z" />
    <glyph glyph-name="Ecaron" unicode="&#x11a;" 
d="M82 0v698h460v-117h-328v-169h290v-117h-290v-178h328v-117h-460zM254 754l-126 154l64 51l120 -116l120 116l64 -51l-126 -154h-116z" />
    <glyph glyph-name="Ecircumflex" unicode="&#xca;" 
d="M370 950l126 -154l-64 -51l-120 116l-120 -116l-64 51l126 154h116zM82 0v698h460v-117h-328v-169h290v-117h-290v-178h328v-117h-460z" />
    <glyph glyph-name="Edieresis" unicode="&#xcb;" 
d="M82 0v698h460v-117h-328v-169h290v-117h-290v-178h328v-117h-460zM207 769q-39 0 -55 16.5t-16 41.5v21q0 25 16 42t55 17t55 -17t16 -42v-21q0 -25 -16 -41.5t-55 -16.5zM417 769q-39 0 -55 16.5t-16 41.5v21q0 25 16 42t55 17t55 -17t16 -42v-21q0 -25 -16 -41.5
t-55 -16.5z" />
    <glyph glyph-name="Edotaccent" unicode="&#x116;" 
d="M312 760q-44 0 -61.5 18.5t-17.5 46.5v25q0 28 17.5 46.5t61.5 18.5t61.5 -18.5t17.5 -46.5v-25q0 -28 -17.5 -46.5t-61.5 -18.5zM82 0v698h460v-117h-328v-169h290v-117h-290v-178h328v-117h-460z" />
    <glyph glyph-name="uni1EB8" unicode="&#x1eb8;" 
d="M82 0v698h460v-117h-328v-169h290v-117h-290v-178h328v-117h-460zM312 -194q-39 0 -55.5 16.5t-16.5 41.5v22q0 25 16.5 41.5t55.5 16.5t55.5 -16.5t16.5 -41.5v-22q0 -25 -16.5 -41.5t-55.5 -16.5z" />
    <glyph glyph-name="Egrave" unicode="&#xc8;" 
d="M173 915l108 54l95 -187l-77 -38zM82 0v698h460v-117h-328v-169h290v-117h-290v-178h328v-117h-460z" />
    <glyph glyph-name="uni1EBA" unicode="&#x1eba;" 
d="M82 0v698h460v-117h-328v-169h290v-117h-290v-178h328v-117h-460zM203 955h133q51 0 70 -20.5t19 -47.5t-15 -58t-39 -61l-27 -33l-67 31l46 96h-120v93z" />
    <glyph glyph-name="Emacron" unicode="&#x112;" 
d="M82 0v698h460v-117h-328v-169h290v-117h-290v-178h328v-117h-460zM163 884h298v-93h-298v93z" />
    <glyph glyph-name="Eogonek" unicode="&#x118;" 
d="M82 698h460v-117h-328v-169h290v-117h-290v-178h328v-117q-35 -24 -56.5 -41t-33 -29.5t-15 -21.5t-3.5 -18q0 -18 10.5 -25t25.5 -7q17 0 29.5 7.5t23.5 18.5l49 -47q-12 -22 -40 -35t-72 -13q-23 0 -44 4.5t-37 14t-25.5 25.5t-9.5 39q0 41 31.5 69.5t82.5 54.5l-1 4
h-375v698z" />
    <glyph glyph-name="uni1EBC" unicode="&#x1ebc;" 
d="M82 0v698h460v-117h-328v-169h290v-117h-290v-178h328v-117h-460zM387 768q-23 0 -41.5 7t-36.5 15q-23 10 -40.5 16t-34.5 6t-30 -6t-29 -19l-47 59q17 26 44 43.5t65 17.5q23 0 41.5 -7t36.5 -15q23 -10 40.5 -16t34.5 -6t30 6t29 19l47 -59q-17 -26 -44 -43.5
t-65 -17.5z" />
    <glyph glyph-name="uni1EBE" unicode="&#x1ebe;" 
d="M82 0v698h460v-117h-328v-169h290v-117h-290v-178h328v-117h-460zM479 886l-70 35l95 187l101 -51zM360 934l135 -143l-60 -54l-123 106l-123 -106l-60 54l135 143h96z" />
    <glyph glyph-name="uni1EC6" unicode="&#x1ec6;" 
d="M370 950l126 -154l-64 -51l-120 116l-120 -116l-64 51l126 154h116zM82 0v698h460v-117h-328v-169h290v-117h-290v-178h328v-117h-460zM312 -194q-39 0 -55.5 16.5t-16.5 41.5v22q0 25 16.5 41.5t55.5 16.5t55.5 -16.5t16.5 -41.5v-22q0 -25 -16.5 -41.5t-55.5 -16.5z
" />
    <glyph glyph-name="uni1EC0" unicode="&#x1ec0;" 
d="M19 1057l101 51l95 -187l-70 -35zM360 934l135 -143l-60 -54l-123 106l-123 -106l-60 54l135 143h96zM82 0v698h460v-117h-328v-169h290v-117h-290v-178h328v-117h-460z" />
    <glyph glyph-name="uni1EC2" unicode="&#x1ec2;" 
d="M354 1094h126q50 0 70 -20t20 -47t-17.5 -58.5t-41.5 -60.5l-26 -33l-60 31l48 100h-119v88zM360 934l135 -143l-60 -54l-123 106l-123 -106l-60 54l135 143h96zM82 0v698h460v-117h-328v-169h290v-117h-290v-178h328v-117h-460z" />
    <glyph glyph-name="uni1EC4" unicode="&#x1ec4;" 
d="M82 0v698h460v-117h-328v-169h290v-117h-290v-178h328v-117h-460zM238 1089q23 0 41.5 -7t36.5 -15q23 -11 40.5 -17t34.5 -6t30 6.5t29 19.5l45 -56q-17 -25 -44 -43t-65 -18q-23 0 -41.5 7t-36.5 15q-23 11 -40.5 17t-34.5 6t-30 -6.5t-29 -19.5l-45 56q17 25 44 43
t65 18zM361 925l132 -134l-58 -54l-123 100l-123 -100l-58 54l132 134h98z" />
    <glyph glyph-name="uni018F" unicode="&#x18f;" horiz-adv-x="712" 
d="M52 391h468v11q0 91 -43.5 140.5t-118.5 49.5q-68 0 -106 -31.5t-56 -86.5l-118 45q14 40 38.5 74.5t59.5 60.5t80.5 41t101.5 15q70 0 126 -23.5t95 -69.5t60 -113.5t21 -154.5t-21.5 -154.5t-61 -113.5t-96 -69.5t-125.5 -23.5q-70 0 -126 23t-95.5 68.5t-61 113
t-21.5 156.5v42zM356 106q70 0 115 46t49 130h-328q4 -84 48.5 -130t115.5 -46z" />
    <glyph glyph-name="Gbreve" unicode="&#x11e;" horiz-adv-x="712" 
d="M527 108h-4q-9 -51 -56.5 -85.5t-126.5 -34.5q-62 0 -114.5 23t-91 68.5t-60.5 112.5t-22 155t22.5 155.5t63.5 113.5t98 70t127 24q94 0 160 -41t104 -118l-107 -63q-19 45 -56.5 75t-100.5 30q-78 0 -124.5 -47.5t-46.5 -140.5v-112q0 -92 47 -140t126 -48q31 0 58 7.5
t47 22.5t32 37t12 52v45h-137v111h264v-380h-114v108zM357 748q-43 0 -73.5 15t-51 38t-33.5 50.5t-21 52.5l71 36l19 -32q20 -32 39 -50.5t50 -18.5t50.5 18.5t39.5 50.5l19 32l70 -36q-8 -25 -21.5 -52.5t-34.5 -50.5t-51 -38t-72 -15z" />
    <glyph glyph-name="Gcircumflex" unicode="&#x11c;" horiz-adv-x="712" 
d="M527 108h-4q-9 -51 -56.5 -85.5t-126.5 -34.5q-62 0 -114.5 23t-91 68.5t-60.5 112.5t-22 155t22.5 155.5t63.5 113.5t98 70t127 24q94 0 160 -41t104 -118l-107 -63q-19 45 -56.5 75t-100.5 30q-78 0 -124.5 -47.5t-46.5 -140.5v-112q0 -92 47 -140t126 -48q31 0 58 7.5
t47 22.5t32 37t12 52v45h-137v111h264v-380h-114v108zM415 950l126 -154l-64 -51l-120 116l-120 -116l-64 51l126 154h116z" />
    <glyph glyph-name="Gcommaaccent" unicode="&#x122;" horiz-adv-x="712" 
d="M527 108h-4q-9 -51 -56.5 -85.5t-126.5 -34.5q-62 0 -114.5 23t-91 68.5t-60.5 112.5t-22 155t22.5 155.5t63.5 113.5t98 70t127 24q94 0 160 -41t104 -118l-107 -63q-19 45 -56.5 75t-100.5 30q-78 0 -124.5 -47.5t-46.5 -140.5v-112q0 -92 47 -140t126 -48q31 0 58 7.5
t47 22.5t32 37t12 52v45h-137v111h264v-380h-114v108zM348 -49q31 0 48 -15t17 -43v-13q0 -43 -19 -82.5t-46 -63.5h-77q24 22 37.5 43t20.5 50q-25 2 -35 19t-10 37v10q0 28 17 43t47 15z" />
    <glyph glyph-name="Gdotaccent" unicode="&#x120;" horiz-adv-x="712" 
d="M527 108h-4q-9 -51 -56.5 -85.5t-126.5 -34.5q-62 0 -114.5 23t-91 68.5t-60.5 112.5t-22 155t22.5 155.5t63.5 113.5t98 70t127 24q94 0 160 -41t104 -118l-107 -63q-19 45 -56.5 75t-100.5 30q-78 0 -124.5 -47.5t-46.5 -140.5v-112q0 -92 47 -140t126 -48q31 0 58 7.5
t47 22.5t32 37t12 52v45h-137v111h264v-380h-114v108zM357 760q-44 0 -61.5 18.5t-17.5 46.5v25q0 28 17.5 46.5t61.5 18.5t61.5 -18.5t17.5 -46.5v-25q0 -28 -17.5 -46.5t-61.5 -18.5z" />
    <glyph glyph-name="Hbar" unicode="&#x126;" horiz-adv-x="728" 
d="M510 295h-292v-295h-132v510h-72v99h72v89h132v-89h292v89h132v-89h72v-99h-72v-510h-132v295zM510 412v98h-292v-98h292z" />
    <glyph glyph-name="Hcircumflex" unicode="&#x124;" horiz-adv-x="719" 
d="M505 295h-291v-295h-132v698h132v-286h291v286h132v-698h-132v295zM418 950l126 -154l-64 -51l-120 116l-120 -116l-64 51l126 154h116z" />
    <glyph glyph-name="Iacute" unicode="&#xcd;" horiz-adv-x="423" 
d="M53 0v106h92v486h-92v106h317v-106h-93v-486h93v-106h-317zM225 744l-77 38l95 187l108 -54z" />
    <glyph glyph-name="Ibreve" unicode="&#x12c;" horiz-adv-x="423" 
d="M53 0v106h92v486h-92v106h317v-106h-93v-486h93v-106h-317zM212 748q-43 0 -73.5 15t-51 38t-33.5 50.5t-21 52.5l71 36l19 -32q20 -32 39 -50.5t50 -18.5t50.5 18.5t39.5 50.5l19 32l70 -36q-8 -25 -21.5 -52.5t-34.5 -50.5t-51 -38t-72 -15z" />
    <glyph glyph-name="uni01CF" unicode="&#x1cf;" horiz-adv-x="423" 
d="M53 0v106h92v486h-92v106h317v-106h-93v-486h93v-106h-317zM154 754l-126 154l64 51l120 -116l120 116l64 -51l-126 -154h-116z" />
    <glyph glyph-name="Icircumflex" unicode="&#xce;" horiz-adv-x="423" 
d="M53 0v106h92v486h-92v106h317v-106h-93v-486h93v-106h-317zM270 950l126 -154l-64 -51l-120 116l-120 -116l-64 51l126 154h116z" />
    <glyph glyph-name="Idieresis" unicode="&#xcf;" horiz-adv-x="423" 
d="M53 0v106h92v486h-92v106h317v-106h-93v-486h93v-106h-317zM107 769q-39 0 -55 16.5t-16 41.5v21q0 25 16 42t55 17t55 -17t16 -42v-21q0 -25 -16 -41.5t-55 -16.5zM317 769q-39 0 -55 16.5t-16 41.5v21q0 25 16 42t55 17t55 -17t16 -42v-21q0 -25 -16 -41.5t-55 -16.5z
" />
    <glyph glyph-name="Idotaccent" unicode="&#x130;" horiz-adv-x="423" 
d="M53 0v106h92v486h-92v106h317v-106h-93v-486h93v-106h-317zM212 760q-44 0 -61.5 18.5t-17.5 46.5v25q0 28 17.5 46.5t61.5 18.5t61.5 -18.5t17.5 -46.5v-25q0 -28 -17.5 -46.5t-61.5 -18.5z" />
    <glyph glyph-name="uni1ECA" unicode="&#x1eca;" horiz-adv-x="423" 
d="M53 0v106h92v486h-92v106h317v-106h-93v-486h93v-106h-317zM211 -194q-39 0 -55.5 16.5t-16.5 41.5v22q0 25 16.5 41.5t55.5 16.5t55.5 -16.5t16.5 -41.5v-22q0 -25 -16.5 -41.5t-55.5 -16.5z" />
    <glyph glyph-name="Igrave" unicode="&#xcc;" horiz-adv-x="423" 
d="M53 0v106h92v486h-92v106h317v-106h-93v-486h93v-106h-317zM73 915l108 54l95 -187l-77 -38z" />
    <glyph glyph-name="uni1EC8" unicode="&#x1ec8;" horiz-adv-x="423" 
d="M53 0v106h92v486h-92v106h317v-106h-93v-486h93v-106h-317zM102 955h133q51 0 70 -20.5t19 -47.5t-15 -58t-39 -61l-27 -33l-67 31l46 96h-120v93z" />
    <glyph glyph-name="Imacron" unicode="&#x12a;" horiz-adv-x="423" 
d="M53 0v106h92v486h-92v106h317v-106h-93v-486h93v-106h-317zM63 884h298v-93h-298v93z" />
    <glyph glyph-name="Iogonek" unicode="&#x12e;" horiz-adv-x="423" 
d="M53 106h92v486h-92v106h317v-106h-93v-486h93v-106q-35 -24 -56.5 -41t-33 -29.5t-15.5 -21.5t-4 -18q0 -18 11 -25t25 -7q17 0 29.5 7.5t23.5 18.5l49 -47q-11 -22 -39.5 -35t-72.5 -13q-23 0 -44 4.5t-37 14t-25 25.5t-9 39q0 41 30 68.5t83 55.5l-1 4h-231v106z" />
    <glyph glyph-name="Itilde" unicode="&#x128;" horiz-adv-x="423" 
d="M53 0v106h92v486h-92v106h317v-106h-93v-486h93v-106h-317zM287 768q-23 0 -41.5 7t-36.5 15q-23 10 -40.5 16t-34.5 6t-30 -6t-29 -19l-47 59q17 26 44 43.5t65 17.5q23 0 41.5 -7t36.5 -15q23 -10 40.5 -16t34.5 -6t30 6t29 19l47 -59q-17 -26 -44 -43.5t-65 -17.5z
" />
    <glyph glyph-name="IJ" unicode="&#x132;" horiz-adv-x="653" 
d="M575 698v-484q0 -52 -17.5 -93.5t-50 -71t-78 -45t-102.5 -15.5q-54 0 -96 13.5t-72 38.5t-49 59t-26 76l122 25q10 -45 40 -70.5t81 -25.5q48 0 82 26t34 85v374h-106v108h238zM77 698h132v-395h-132v395z" />
    <glyph glyph-name="Jcircumflex" unicode="&#x134;" horiz-adv-x="545" 
d="M467 698v-502q0 -47 -15.5 -85t-44 -65t-69.5 -42t-92 -15q-97 0 -151 50.5t-69 134.5l122 25q9 -45 32.5 -69.5t64.5 -24.5q39 0 64.5 24.5t25.5 75.5v385h-220v108h352zM350 950l126 -154l-64 -51l-120 116l-120 -116l-64 51l126 154h116z" />
    <glyph glyph-name="Kcommaaccent" unicode="&#x136;" horiz-adv-x="678" 
d="M355 -49q31 0 48 -15t17 -43v-13q0 -43 -19 -82.5t-46 -63.5h-77q24 22 37.5 43t20.5 50q-25 2 -35 19t-10 37v10q0 28 17 43t47 15zM307 316l-93 -110v-206h-132v698h132v-344h5l99 131l173 213h152l-243 -291l263 -407h-157z" />
    <glyph glyph-name="Lacute" unicode="&#x139;" horiz-adv-x="521" 
d="M162 744l-77 38l95 187l108 -54zM82 0v698h132v-581h275v-117h-407z" />
    <glyph glyph-name="Lcaron" unicode="&#x13d;" horiz-adv-x="521" 
d="M371 534h-84l8 206h138zM82 0v698h132v-581h275v-117h-407z" />
    <glyph glyph-name="Lcommaaccent" unicode="&#x13b;" horiz-adv-x="521" 
d="M289 -49q31 0 48 -15t17 -43v-13q0 -43 -19 -82.5t-46 -63.5h-77q24 22 37.5 43t20.5 50q-25 2 -35 19t-10 37v10q0 28 17 43t47 15zM82 0v698h132v-581h275v-117h-407z" />
    <glyph glyph-name="Ldot" unicode="&#x13f;" horiz-adv-x="521" 
d="M82 0v698h132v-581h275v-117h-407zM405 313q-43 0 -60.5 18.5t-17.5 44.5v24q0 27 17.5 45t60.5 18t60.5 -18t17.5 -45v-24q0 -26 -17.5 -44.5t-60.5 -18.5z" />
    <glyph glyph-name="Lslash" unicode="&#x141;" horiz-adv-x="531" 
d="M493 0h-407v251l-93 -30v99l93 31v347h132v-305l165 54v-101l-165 -53v-176h275v-117z" />
    <glyph glyph-name="Nacute" unicode="&#x143;" horiz-adv-x="719" 
d="M372 744l-77 38l95 187l108 -54zM282 358l-72 145h-3v-503h-125v698h145l210 -358l72 -145h3v503h125v-698h-145z" />
    <glyph glyph-name="Ncaron" unicode="&#x147;" horiz-adv-x="719" 
d="M282 358l-72 145h-3v-503h-125v698h145l210 -358l72 -145h3v503h125v-698h-145zM301 754l-126 154l64 51l120 -116l120 116l64 -51l-126 -154h-116z" />
    <glyph glyph-name="Ncommaaccent" unicode="&#x145;" horiz-adv-x="719" 
d="M358 -49q31 0 48 -15t17 -43v-13q0 -43 -19 -82.5t-46 -63.5h-77q24 22 37.5 43t20.5 50q-25 2 -35 19t-10 37v10q0 28 17 43t47 15zM282 358l-72 145h-3v-503h-125v698h145l210 -358l72 -145h3v503h125v-698h-145z" />
    <glyph glyph-name="Ntilde" unicode="&#xd1;" horiz-adv-x="719" 
d="M434 768q-23 0 -41.5 7t-36.5 15q-23 10 -40.5 16t-34.5 6t-30 -6t-29 -19l-47 59q17 26 44 43.5t65 17.5q23 0 41.5 -7t36.5 -15q23 -10 40.5 -16t34.5 -6t30 6t29 19l47 -59q-17 -26 -44 -43.5t-65 -17.5zM282 358l-72 145h-3v-503h-125v698h145l210 -358l72 -145h3
v503h125v-698h-145z" />
    <glyph glyph-name="Eng" unicode="&#x14a;" horiz-adv-x="719" 
d="M82 0v698h145l210 -358l72 -145h3v503h125v-760q0 -66 -33 -102t-105 -36h-71v103h84v97h-20l-210 358l-72 145h-3v-503h-125z" />
    <glyph glyph-name="Oacute" unicode="&#xd3;" horiz-adv-x="712" 
d="M356 -12q-69 0 -125 23t-95.5 69t-61.5 113t-22 156q0 88 22 155.5t61.5 113.5t95.5 69t125 23t125 -23t96 -69t61.5 -113.5t21.5 -155.5q0 -89 -21.5 -156t-61.5 -113t-96 -69t-125 -23zM356 105q75 0 119.5 50t44.5 140v108q0 90 -44.5 140t-119.5 50t-119.5 -50
t-44.5 -140v-108q0 -90 44.5 -140t119.5 -50zM369 744l-77 38l95 187l108 -54z" />
    <glyph glyph-name="Obreve" unicode="&#x14e;" horiz-adv-x="712" 
d="M356 -12q-69 0 -125 23t-95.5 69t-61.5 113t-22 156q0 88 22 155.5t61.5 113.5t95.5 69t125 23t125 -23t96 -69t61.5 -113.5t21.5 -155.5q0 -89 -21.5 -156t-61.5 -113t-96 -69t-125 -23zM356 105q75 0 119.5 50t44.5 140v108q0 90 -44.5 140t-119.5 50t-119.5 -50
t-44.5 -140v-108q0 -90 44.5 -140t119.5 -50zM356 748q-43 0 -73.5 15t-51 38t-33.5 50.5t-21 52.5l71 36l19 -32q20 -32 39 -50.5t50 -18.5t50.5 18.5t39.5 50.5l19 32l70 -36q-8 -25 -21.5 -52.5t-34.5 -50.5t-51 -38t-72 -15z" />
    <glyph glyph-name="uni01D1" unicode="&#x1d1;" horiz-adv-x="712" 
d="M356 -12q-69 0 -125 23t-95.5 69t-61.5 113t-22 156q0 88 22 155.5t61.5 113.5t95.5 69t125 23t125 -23t96 -69t61.5 -113.5t21.5 -155.5q0 -89 -21.5 -156t-61.5 -113t-96 -69t-125 -23zM356 105q75 0 119.5 50t44.5 140v108q0 90 -44.5 140t-119.5 50t-119.5 -50
t-44.5 -140v-108q0 -90 44.5 -140t119.5 -50zM298 754l-126 154l64 51l120 -116l120 116l64 -51l-126 -154h-116z" />
    <glyph glyph-name="Ocircumflex" unicode="&#xd4;" horiz-adv-x="712" 
d="M356 -12q-69 0 -125 23t-95.5 69t-61.5 113t-22 156q0 88 22 155.5t61.5 113.5t95.5 69t125 23t125 -23t96 -69t61.5 -113.5t21.5 -155.5q0 -89 -21.5 -156t-61.5 -113t-96 -69t-125 -23zM356 105q75 0 119.5 50t44.5 140v108q0 90 -44.5 140t-119.5 50t-119.5 -50
t-44.5 -140v-108q0 -90 44.5 -140t119.5 -50zM414 950l126 -154l-64 -51l-120 116l-120 -116l-64 51l126 154h116z" />
    <glyph glyph-name="Odieresis" unicode="&#xd6;" horiz-adv-x="712" 
d="M356 -12q-69 0 -125 23t-95.5 69t-61.5 113t-22 156q0 88 22 155.5t61.5 113.5t95.5 69t125 23t125 -23t96 -69t61.5 -113.5t21.5 -155.5q0 -89 -21.5 -156t-61.5 -113t-96 -69t-125 -23zM356 105q75 0 119.5 50t44.5 140v108q0 90 -44.5 140t-119.5 50t-119.5 -50
t-44.5 -140v-108q0 -90 44.5 -140t119.5 -50zM251 769q-39 0 -55 16.5t-16 41.5v21q0 25 16 42t55 17t55 -17t16 -42v-21q0 -25 -16 -41.5t-55 -16.5zM461 769q-39 0 -55 16.5t-16 41.5v21q0 25 16 42t55 17t55 -17t16 -42v-21q0 -25 -16 -41.5t-55 -16.5z" />
    <glyph glyph-name="uni1ECC" unicode="&#x1ecc;" horiz-adv-x="712" 
d="M356 -12q-69 0 -125 23t-95.5 69t-61.5 113t-22 156q0 88 22 155.5t61.5 113.5t95.5 69t125 23t125 -23t96 -69t61.5 -113.5t21.5 -155.5q0 -89 -21.5 -156t-61.5 -113t-96 -69t-125 -23zM356 105q75 0 119.5 50t44.5 140v108q0 90 -44.5 140t-119.5 50t-119.5 -50
t-44.5 -140v-108q0 -90 44.5 -140t119.5 -50zM356 -194q-39 0 -55.5 16.5t-16.5 41.5v22q0 25 16.5 41.5t55.5 16.5t55.5 -16.5t16.5 -41.5v-22q0 -25 -16.5 -41.5t-55.5 -16.5z" />
    <glyph glyph-name="Ograve" unicode="&#xd2;" horiz-adv-x="712" 
d="M356 -12q-69 0 -125 23t-95.5 69t-61.5 113t-22 156q0 88 22 155.5t61.5 113.5t95.5 69t125 23t125 -23t96 -69t61.5 -113.5t21.5 -155.5q0 -89 -21.5 -156t-61.5 -113t-96 -69t-125 -23zM356 105q75 0 119.5 50t44.5 140v108q0 90 -44.5 140t-119.5 50t-119.5 -50
t-44.5 -140v-108q0 -90 44.5 -140t119.5 -50zM217 915l108 54l95 -187l-77 -38z" />
    <glyph glyph-name="uni1ECE" unicode="&#x1ece;" horiz-adv-x="712" 
d="M356 -12q-69 0 -125 23t-95.5 69t-61.5 113t-22 156q0 88 22 155.5t61.5 113.5t95.5 69t125 23t125 -23t96 -69t61.5 -113.5t21.5 -155.5q0 -89 -21.5 -156t-61.5 -113t-96 -69t-125 -23zM356 105q75 0 119.5 50t44.5 140v108q0 90 -44.5 140t-119.5 50t-119.5 -50
t-44.5 -140v-108q0 -90 44.5 -140t119.5 -50zM247 955h133q51 0 70 -20.5t19 -47.5t-15 -58t-39 -61l-27 -33l-67 31l46 96h-120v93z" />
    <glyph glyph-name="Ohungarumlaut" unicode="&#x150;" horiz-adv-x="712" 
d="M356 -12q-69 0 -125 23t-95.5 69t-61.5 113t-22 156q0 88 22 155.5t61.5 113.5t95.5 69t125 23t125 -23t96 -69t61.5 -113.5t21.5 -155.5q0 -89 -21.5 -156t-61.5 -113t-96 -69t-125 -23zM356 105q75 0 119.5 50t44.5 140v108q0 90 -44.5 140t-119.5 50t-119.5 -50
t-44.5 -140v-108q0 -90 44.5 -140t119.5 -50zM271 745l-71 34l95 187l102 -50zM463 745l-72 34l95 187l102 -50z" />
    <glyph glyph-name="Omacron" unicode="&#x14c;" horiz-adv-x="712" 
d="M356 -12q-69 0 -125 23t-95.5 69t-61.5 113t-22 156q0 88 22 155.5t61.5 113.5t95.5 69t125 23t125 -23t96 -69t61.5 -113.5t21.5 -155.5q0 -89 -21.5 -156t-61.5 -113t-96 -69t-125 -23zM356 105q75 0 119.5 50t44.5 140v108q0 90 -44.5 140t-119.5 50t-119.5 -50
t-44.5 -140v-108q0 -90 44.5 -140t119.5 -50zM207 884h298v-93h-298v93z" />
    <glyph glyph-name="Oslash" unicode="&#xd8;" horiz-adv-x="712" 
d="M356 -12q-88 0 -157 40l-55 -81l-81 53l63 92q-74 92 -74 257q0 88 22 155.5t61.5 113.5t95.5 69t125 23q89 0 157 -40l55 81l82 -53l-63 -92q35 -45 54 -109t19 -148q0 -89 -21.5 -156t-61.5 -113t-96 -69t-125 -23zM188 293q0 -55 18 -97l245 377q-38 27 -95 27
q-78 0 -123 -51.5t-45 -143.5v-112zM525 405q0 28 -5 52t-13 45l-246 -377q37 -27 95 -27q78 0 123.5 51.5t45.5 143.5v112z" />
    <glyph glyph-name="Oslashacute" unicode="&#x1fe;" horiz-adv-x="712" 
d="M356 -12q-88 0 -157 40l-55 -81l-81 53l63 92q-74 92 -74 257q0 88 22 155.5t61.5 113.5t95.5 69t125 23q89 0 157 -40l55 81l82 -53l-63 -92q35 -45 54 -109t19 -148q0 -89 -21.5 -156t-61.5 -113t-96 -69t-125 -23zM188 293q0 -55 18 -97l245 377q-38 27 -95 27
q-78 0 -123 -51.5t-45 -143.5v-112zM525 405q0 28 -5 52t-13 45l-246 -377q37 -27 95 -27q78 0 123.5 51.5t45.5 143.5v112zM369 744l-77 38l95 187l108 -54z" />
    <glyph glyph-name="Otilde" unicode="&#xd5;" horiz-adv-x="712" 
d="M356 -12q-69 0 -125 23t-95.5 69t-61.5 113t-22 156q0 88 22 155.5t61.5 113.5t95.5 69t125 23t125 -23t96 -69t61.5 -113.5t21.5 -155.5q0 -89 -21.5 -156t-61.5 -113t-96 -69t-125 -23zM356 105q75 0 119.5 50t44.5 140v108q0 90 -44.5 140t-119.5 50t-119.5 -50
t-44.5 -140v-108q0 -90 44.5 -140t119.5 -50zM431 768q-23 0 -41.5 7t-36.5 15q-23 10 -40.5 16t-34.5 6t-30 -6t-29 -19l-47 59q17 26 44 43.5t65 17.5q23 0 41.5 -7t36.5 -15q23 -10 40.5 -16t34.5 -6t30 6t29 19l47 -59q-17 -26 -44 -43.5t-65 -17.5z" />
    <glyph glyph-name="Ohorn" unicode="&#x1a0;" horiz-adv-x="712" 
d="M677 812v-102q0 -21 -4.5 -38t-15.5 -28t-31.5 -17t-51.5 -6q86 -95 86 -272q0 -89 -21.5 -156t-61.5 -113t-96 -69t-125 -23t-125 23t-95.5 69t-61.5 113t-22 156q0 88 22 155.5t61.5 113.5t95.5 69t125 23q50 0 92 -12h120v114h109zM356 106q75 0 119.5 49.5
t44.5 139.5v108q0 90 -44.5 139.5t-119.5 49.5t-119 -49.5t-44 -139.5v-108q0 -90 44 -139.5t119 -49.5z" />
    <glyph glyph-name="uni1EDA" unicode="&#x1eda;" horiz-adv-x="712" 
d="M677 812v-102q0 -21 -4.5 -38t-15.5 -28t-31.5 -17t-51.5 -6q86 -95 86 -272q0 -89 -21.5 -156t-61.5 -113t-96 -69t-125 -23t-125 23t-95.5 69t-61.5 113t-22 156q0 88 22 155.5t61.5 113.5t95.5 69t125 23q50 0 92 -12h120v114h109zM356 106q75 0 119.5 49.5
t44.5 139.5v108q0 90 -44.5 139.5t-119.5 49.5t-119 -49.5t-44 -139.5v-108q0 -90 44 -139.5t119 -49.5zM369 744l-77 38l95 187l108 -54z" />
    <glyph glyph-name="uni1EE2" unicode="&#x1ee2;" horiz-adv-x="712" 
d="M677 812v-102q0 -21 -4.5 -38t-15.5 -28t-31.5 -17t-51.5 -6q86 -95 86 -272q0 -89 -21.5 -156t-61.5 -113t-96 -69t-125 -23t-125 23t-95.5 69t-61.5 113t-22 156q0 88 22 155.5t61.5 113.5t95.5 69t125 23q50 0 92 -12h120v114h109zM356 106q75 0 119.5 49.5
t44.5 139.5v108q0 90 -44.5 139.5t-119.5 49.5t-119 -49.5t-44 -139.5v-108q0 -90 44 -139.5t119 -49.5zM356 -194q-39 0 -55.5 16.5t-16.5 41.5v22q0 25 16.5 41.5t55.5 16.5t55.5 -16.5t16.5 -41.5v-22q0 -25 -16.5 -41.5t-55.5 -16.5z" />
    <glyph glyph-name="uni1EDC" unicode="&#x1edc;" horiz-adv-x="712" 
d="M677 812v-102q0 -21 -4.5 -38t-15.5 -28t-31.5 -17t-51.5 -6q86 -95 86 -272q0 -89 -21.5 -156t-61.5 -113t-96 -69t-125 -23t-125 23t-95.5 69t-61.5 113t-22 156q0 88 22 155.5t61.5 113.5t95.5 69t125 23q50 0 92 -12h120v114h109zM356 106q75 0 119.5 49.5
t44.5 139.5v108q0 90 -44.5 139.5t-119.5 49.5t-119 -49.5t-44 -139.5v-108q0 -90 44 -139.5t119 -49.5zM217 915l108 54l95 -187l-77 -38z" />
    <glyph glyph-name="uni1EDE" unicode="&#x1ede;" horiz-adv-x="712" 
d="M677 812v-102q0 -21 -4.5 -38t-15.5 -28t-31.5 -17t-51.5 -6q86 -95 86 -272q0 -89 -21.5 -156t-61.5 -113t-96 -69t-125 -23t-125 23t-95.5 69t-61.5 113t-22 156q0 88 22 155.5t61.5 113.5t95.5 69t125 23q50 0 92 -12h120v114h109zM356 106q75 0 119.5 49.5
t44.5 139.5v108q0 90 -44.5 139.5t-119.5 49.5t-119 -49.5t-44 -139.5v-108q0 -90 44 -139.5t119 -49.5zM247 955h133q51 0 70 -20.5t19 -47.5t-15 -58t-39 -61l-27 -33l-67 31l46 96h-120v93z" />
    <glyph glyph-name="uni1EE0" unicode="&#x1ee0;" horiz-adv-x="712" 
d="M677 812v-102q0 -21 -4.5 -38t-15.5 -28t-31.5 -17t-51.5 -6q86 -95 86 -272q0 -89 -21.5 -156t-61.5 -113t-96 -69t-125 -23t-125 23t-95.5 69t-61.5 113t-22 156q0 88 22 155.5t61.5 113.5t95.5 69t125 23q50 0 92 -12h120v114h109zM356 106q75 0 119.5 49.5
t44.5 139.5v108q0 90 -44.5 139.5t-119.5 49.5t-119 -49.5t-44 -139.5v-108q0 -90 44 -139.5t119 -49.5zM421 769q-20 0 -36 6.5t-32 14.5q-19 9 -33.5 15t-30.5 6q-27 0 -51 -23l-46 56q16 26 40 44t59 18q20 0 36 -6.5t32 -14.5q19 -9 33.5 -15t30.5 -6q27 0 51 23l46 -56
q-16 -26 -40 -44t-59 -18z" />
    <glyph glyph-name="uni1ED0" unicode="&#x1ed0;" horiz-adv-x="712" 
d="M356 -12q-69 0 -125 23t-95.5 69t-61.5 113t-22 156q0 88 22 155.5t61.5 113.5t95.5 69t125 23t125 -23t96 -69t61.5 -113.5t21.5 -155.5q0 -89 -21.5 -156t-61.5 -113t-96 -69t-125 -23zM356 105q75 0 119.5 50t44.5 140v108q0 90 -44.5 140t-119.5 50t-119.5 -50
t-44.5 -140v-108q0 -90 44.5 -140t119.5 -50zM523 886l-70 35l95 187l101 -51zM404 934l135 -143l-60 -54l-123 106l-123 -106l-60 54l135 143h96z" />
    <glyph glyph-name="uni1ED8" unicode="&#x1ed8;" horiz-adv-x="712" 
d="M356 -12q-69 0 -125 23t-95.5 69t-61.5 113t-22 156q0 88 22 155.5t61.5 113.5t95.5 69t125 23t125 -23t96 -69t61.5 -113.5t21.5 -155.5q0 -89 -21.5 -156t-61.5 -113t-96 -69t-125 -23zM356 105q75 0 119.5 50t44.5 140v108q0 90 -44.5 140t-119.5 50t-119.5 -50
t-44.5 -140v-108q0 -90 44.5 -140t119.5 -50zM414 950l126 -154l-64 -51l-120 116l-120 -116l-64 51l126 154h116zM356 -194q-39 0 -55.5 16.5t-16.5 41.5v22q0 25 16.5 41.5t55.5 16.5t55.5 -16.5t16.5 -41.5v-22q0 -25 -16.5 -41.5t-55.5 -16.5z" />
    <glyph glyph-name="uni1ED2" unicode="&#x1ed2;" horiz-adv-x="712" 
d="M356 -12q-69 0 -125 23t-95.5 69t-61.5 113t-22 156q0 88 22 155.5t61.5 113.5t95.5 69t125 23t125 -23t96 -69t61.5 -113.5t21.5 -155.5q0 -89 -21.5 -156t-61.5 -113t-96 -69t-125 -23zM356 105q75 0 119.5 50t44.5 140v108q0 90 -44.5 140t-119.5 50t-119.5 -50
t-44.5 -140v-108q0 -90 44.5 -140t119.5 -50zM63 1057l101 51l95 -187l-70 -35zM404 934l135 -143l-60 -54l-123 106l-123 -106l-60 54l135 143h96z" />
    <glyph glyph-name="uni1ED4" unicode="&#x1ed4;" horiz-adv-x="712" 
d="M356 -12q-69 0 -125 23t-95.5 69t-61.5 113t-22 156q0 88 22 155.5t61.5 113.5t95.5 69t125 23t125 -23t96 -69t61.5 -113.5t21.5 -155.5q0 -89 -21.5 -156t-61.5 -113t-96 -69t-125 -23zM356 105q75 0 119.5 50t44.5 140v108q0 90 -44.5 140t-119.5 50t-119.5 -50
t-44.5 -140v-108q0 -90 44.5 -140t119.5 -50zM398 1094h126q50 0 70 -20t20 -47t-17.5 -58.5t-41.5 -60.5l-26 -33l-60 31l48 100h-119v88zM404 934l135 -143l-60 -54l-123 106l-123 -106l-60 54l135 143h96z" />
    <glyph glyph-name="uni1ED6" unicode="&#x1ed6;" horiz-adv-x="712" 
d="M356 -12q-69 0 -125 23t-95.5 69t-61.5 113t-22 156q0 88 22 155.5t61.5 113.5t95.5 69t125 23t125 -23t96 -69t61.5 -113.5t21.5 -155.5q0 -89 -21.5 -156t-61.5 -113t-96 -69t-125 -23zM356 105q75 0 119.5 50t44.5 140v108q0 90 -44.5 140t-119.5 50t-119.5 -50
t-44.5 -140v-108q0 -90 44.5 -140t119.5 -50zM282 1089q23 0 41.5 -7t36.5 -15q23 -11 40.5 -17t34.5 -6t30 6.5t29 19.5l45 -56q-17 -25 -44 -43t-65 -18q-23 0 -41.5 7t-36.5 15q-23 11 -40.5 17t-34.5 6t-30 -6.5t-29 -19.5l-45 56q17 25 44 43t65 18zM405 925l132 -134
l-58 -54l-123 100l-123 -100l-58 54l132 134h98z" />
    <glyph glyph-name="OE" unicode="&#x152;" horiz-adv-x="994" 
d="M479 0q-24 -6 -55.5 -9t-63.5 -3q-70 0 -127 23t-97 69t-62 113t-22 156q0 88 22 155.5t62 113.5t97 69t127 23q32 0 64 -3t60 -9h453v-117h-330v-169h291v-117h-291v-178h330v-117h-458zM363 105q59 0 112 12v463q-26 6 -54.5 9.5t-57.5 3.5q-83 0 -127 -50t-44 -140
v-108q0 -90 44 -140t127 -50z" />
    <glyph glyph-name="Racute" unicode="&#x154;" horiz-adv-x="664" 
d="M214 0h-132v698h315q48 0 86 -15t64.5 -43.5t41 -68.5t14.5 -89q0 -72 -32.5 -124t-97.5 -74l143 -284h-147l-130 269h-125v-269zM384 380q38 0 60 20.5t22 58.5v46q0 38 -22 58t-60 20h-170v-203h170zM332 744l-77 38l95 187l108 -54z" />
    <glyph glyph-name="Rcaron" unicode="&#x158;" horiz-adv-x="664" 
d="M214 0h-132v698h315q48 0 86 -15t64.5 -43.5t41 -68.5t14.5 -89q0 -72 -32.5 -124t-97.5 -74l143 -284h-147l-130 269h-125v-269zM384 380q38 0 60 20.5t22 58.5v46q0 38 -22 58t-60 20h-170v-203h170zM261 754l-126 154l64 51l120 -116l120 116l64 -51l-126 -154h-116z
" />
    <glyph glyph-name="Rcommaaccent" unicode="&#x156;" horiz-adv-x="664" 
d="M344 -49q31 0 48 -15t17 -43v-13q0 -43 -19 -82.5t-46 -63.5h-77q24 22 37.5 43t20.5 50q-25 2 -35 19t-10 37v10q0 28 17 43t47 15zM214 0h-132v698h315q48 0 86 -15t64.5 -43.5t41 -68.5t14.5 -89q0 -72 -32.5 -124t-97.5 -74l143 -284h-147l-130 269h-125v-269z
M384 380q38 0 60 20.5t22 58.5v46q0 38 -22 58t-60 20h-170v-203h170z" />
    <glyph glyph-name="Sacute" unicode="&#x15a;" horiz-adv-x="611" 
d="M299 -12q-90 0 -152.5 32t-107.5 84l89 86q36 -42 80.5 -64t98.5 -22q61 0 92 26.5t31 71.5q0 35 -20 57t-75 32l-66 10q-209 33 -209 203q0 47 17.5 85t50.5 65t79.5 41.5t105.5 14.5q79 0 138 -26t101 -77l-90 -85q-26 32 -63 52t-93 20q-57 0 -85.5 -21.5t-28.5 -60.5
q0 -40 23 -59t74 -28l65 -12q106 -19 156.5 -67.5t50.5 -135.5q0 -50 -17.5 -90.5t-51 -70t-82 -45.5t-111.5 -16zM317 744l-77 38l95 187l108 -54z" />
    <glyph glyph-name="Scaron" unicode="&#x160;" horiz-adv-x="611" 
d="M299 -12q-90 0 -152.5 32t-107.5 84l89 86q36 -42 80.5 -64t98.5 -22q61 0 92 26.5t31 71.5q0 35 -20 57t-75 32l-66 10q-209 33 -209 203q0 47 17.5 85t50.5 65t79.5 41.5t105.5 14.5q79 0 138 -26t101 -77l-90 -85q-26 32 -63 52t-93 20q-57 0 -85.5 -21.5t-28.5 -60.5
q0 -40 23 -59t74 -28l65 -12q106 -19 156.5 -67.5t50.5 -135.5q0 -50 -17.5 -90.5t-51 -70t-82 -45.5t-111.5 -16zM246 754l-126 154l64 51l120 -116l120 116l64 -51l-126 -154h-116z" />
    <glyph glyph-name="Scedilla" unicode="&#x15e;" horiz-adv-x="611" 
d="M306 594q-57 0 -85.5 -21.5t-28.5 -60.5q0 -40 23 -59t74 -28l65 -12q106 -19 156.5 -67.5t50.5 -135.5q0 -94 -60.5 -153.5t-172.5 -67.5l-10 -46l4 -3q22 6 45 6q30 0 51 -16.5t21 -51.5q0 -24 -10.5 -41t-28 -27.5t-40.5 -15.5t-47 -5q-48 0 -76 14.5t-41 29.5l44 51
q10 -12 26 -20.5t39 -8.5q19 0 31.5 6.5t12.5 20.5q0 12 -14 24t-59 17l-23 2l13 64q-77 6 -132 36.5t-95 78.5l89 86q36 -42 80.5 -64t98.5 -22q61 0 92 26.5t31 71.5q0 35 -20 57t-75 32l-66 10q-209 33 -209 203q0 47 17.5 85t50.5 65t79.5 41.5t105.5 14.5q79 0 138 -26
t101 -77l-90 -85q-26 32 -63 52t-93 20z" />
    <glyph glyph-name="Scircumflex" unicode="&#x15c;" horiz-adv-x="611" 
d="M299 -12q-90 0 -152.5 32t-107.5 84l89 86q36 -42 80.5 -64t98.5 -22q61 0 92 26.5t31 71.5q0 35 -20 57t-75 32l-66 10q-209 33 -209 203q0 47 17.5 85t50.5 65t79.5 41.5t105.5 14.5q79 0 138 -26t101 -77l-90 -85q-26 32 -63 52t-93 20q-57 0 -85.5 -21.5t-28.5 -60.5
q0 -40 23 -59t74 -28l65 -12q106 -19 156.5 -67.5t50.5 -135.5q0 -50 -17.5 -90.5t-51 -70t-82 -45.5t-111.5 -16zM362 950l126 -154l-64 -51l-120 116l-120 -116l-64 51l126 154h116z" />
    <glyph glyph-name="Scommaaccent" unicode="&#x218;" horiz-adv-x="611" 
d="M302 -49q31 0 48 -15t17 -43v-13q0 -43 -19 -82.5t-46 -63.5h-77q24 22 37.5 43t20.5 50q-25 2 -35 19t-10 37v10q0 28 17 43t47 15zM299 -12q-90 0 -152.5 32t-107.5 84l89 86q36 -42 80.5 -64t98.5 -22q61 0 92 26.5t31 71.5q0 35 -20 57t-75 32l-66 10
q-209 33 -209 203q0 47 17.5 85t50.5 65t79.5 41.5t105.5 14.5q79 0 138 -26t101 -77l-90 -85q-26 32 -63 52t-93 20q-57 0 -85.5 -21.5t-28.5 -60.5q0 -40 23 -59t74 -28l65 -12q106 -19 156.5 -67.5t50.5 -135.5q0 -50 -17.5 -90.5t-51 -70t-82 -45.5t-111.5 -16z" />
    <glyph glyph-name="uni1E9E" unicode="&#x1e9e;" horiz-adv-x="722" 
d="M685 210q0 -49 -15.5 -89.5t-45 -70t-71.5 -46t-94 -16.5q-66 0 -115.5 21.5t-82.5 61.5l84 83q23 -26 49.5 -41t64.5 -15q44 0 68 26t24 65v34q0 39 -25.5 63.5t-80.5 24.5h-95v105l146 170h-282v-586h-132v698h545v-122l-141 -164v-4q37 -2 73 -14.5t64 -36.5t45 -60.5
t17 -86.5z" />
    <glyph glyph-name="Tbar" unicode="&#x166;" horiz-adv-x="590" 
d="M361 293v-293h-132v293h-146v99h146v189h-198v117h528v-117h-198v-189h146v-99h-146z" />
    <glyph glyph-name="Tcaron" unicode="&#x164;" horiz-adv-x="580" 
d="M356 581v-581h-132v581h-198v117h528v-117h-198zM233 754l-126 154l64 51l120 -116l120 116l64 -51l-126 -154h-116z" />
    <glyph glyph-name="uni021A" unicode="&#x21a;" horiz-adv-x="580" 
d="M289 -49q31 0 48 -15t17 -43v-13q0 -43 -19 -82.5t-46 -63.5h-77q24 22 37.5 43t20.5 50q-25 2 -35 19t-10 37v10q0 28 17 43t47 15zM356 581v-581h-132v581h-198v117h528v-117h-198z" />
    <glyph glyph-name="uni0162" unicode="&#x162;" horiz-adv-x="580" 
d="M303 -211q-48 0 -76 14.5t-40 29.5l43 51q10 -12 26 -20.5t39 -8.5q19 0 31.5 6.5t12.5 20.5q0 12 -14 24t-59 17l-23 2l15 75h-34v581h-198v117h528v-117h-198v-581h-36l-11 -57l3 -3q22 6 46 6q29 0 50 -16.5t21 -51.5q0 -24 -10.5 -41t-28 -27.5t-40 -15.5t-47.5 -5z
" />
    <glyph glyph-name="Thorn" unicode="&#xde;" horiz-adv-x="641" 
d="M82 0v698h132v-127h182q48 0 86.5 -16t65.5 -44.5t41 -68t14 -87.5t-14 -88t-41 -68.5t-65.5 -44.5t-86.5 -16h-182v-138h-132zM214 254h170q38 0 60 20t22 58v46q0 38 -22 58t-60 20h-170v-202z" />
    <glyph glyph-name="Uacute" unicode="&#xda;" horiz-adv-x="690" 
d="M207 698v-429q0 -82 31.5 -123t106.5 -41t106.5 41t31.5 123v429h130v-412q0 -77 -14.5 -133t-46.5 -93t-83.5 -54.5t-124.5 -17.5q-74 0 -124.5 17.5t-82.5 54.5t-46 93t-14 133v412h130zM357 744l-77 38l95 187l108 -54z" />
    <glyph glyph-name="Ubreve" unicode="&#x16c;" horiz-adv-x="690" 
d="M207 698v-429q0 -82 31.5 -123t106.5 -41t106.5 41t31.5 123v429h130v-412q0 -77 -14.5 -133t-46.5 -93t-83.5 -54.5t-124.5 -17.5q-74 0 -124.5 17.5t-82.5 54.5t-46 93t-14 133v412h130zM344 748q-43 0 -73.5 15t-51 38t-33.5 50.5t-21 52.5l71 36l19 -32
q20 -32 39 -50.5t50 -18.5t50.5 18.5t39.5 50.5l19 32l70 -36q-8 -25 -21.5 -52.5t-34.5 -50.5t-51 -38t-72 -15z" />
    <glyph glyph-name="uni01D3" unicode="&#x1d3;" horiz-adv-x="690" 
d="M207 698v-429q0 -82 31.5 -123t106.5 -41t106.5 41t31.5 123v429h130v-412q0 -77 -14.5 -133t-46.5 -93t-83.5 -54.5t-124.5 -17.5q-74 0 -124.5 17.5t-82.5 54.5t-46 93t-14 133v412h130zM286 754l-126 154l64 51l120 -116l120 116l64 -51l-126 -154h-116z" />
    <glyph glyph-name="Ucircumflex" unicode="&#xdb;" horiz-adv-x="690" 
d="M207 698v-429q0 -82 31.5 -123t106.5 -41t106.5 41t31.5 123v429h130v-412q0 -77 -14.5 -133t-46.5 -93t-83.5 -54.5t-124.5 -17.5q-74 0 -124.5 17.5t-82.5 54.5t-46 93t-14 133v412h130zM402 950l126 -154l-64 -51l-120 116l-120 -116l-64 51l126 154h116z" />
    <glyph glyph-name="Udieresis" unicode="&#xdc;" horiz-adv-x="690" 
d="M207 698v-429q0 -82 31.5 -123t106.5 -41t106.5 41t31.5 123v429h130v-412q0 -77 -14.5 -133t-46.5 -93t-83.5 -54.5t-124.5 -17.5q-74 0 -124.5 17.5t-82.5 54.5t-46 93t-14 133v412h130zM239 769q-39 0 -55 16.5t-16 41.5v21q0 25 16 42t55 17t55 -17t16 -42v-21
q0 -25 -16 -41.5t-55 -16.5zM449 769q-39 0 -55 16.5t-16 41.5v21q0 25 16 42t55 17t55 -17t16 -42v-21q0 -25 -16 -41.5t-55 -16.5z" />
    <glyph glyph-name="uni1EE4" unicode="&#x1ee4;" horiz-adv-x="690" 
d="M207 698v-429q0 -82 31.5 -123t106.5 -41t106.5 41t31.5 123v429h130v-412q0 -77 -14.5 -133t-46.5 -93t-83.5 -54.5t-124.5 -17.5q-74 0 -124.5 17.5t-82.5 54.5t-46 93t-14 133v412h130zM344 -194q-39 0 -55.5 16.5t-16.5 41.5v22q0 25 16.5 41.5t55.5 16.5t55.5 -16.5
t16.5 -41.5v-22q0 -25 -16.5 -41.5t-55.5 -16.5z" />
    <glyph glyph-name="Ugrave" unicode="&#xd9;" horiz-adv-x="690" 
d="M207 698v-429q0 -82 31.5 -123t106.5 -41t106.5 41t31.5 123v429h130v-412q0 -77 -14.5 -133t-46.5 -93t-83.5 -54.5t-124.5 -17.5q-74 0 -124.5 17.5t-82.5 54.5t-46 93t-14 133v412h130zM205 915l108 54l95 -187l-77 -38z" />
    <glyph glyph-name="uni1EE6" unicode="&#x1ee6;" horiz-adv-x="690" 
d="M207 698v-429q0 -82 31.5 -123t106.5 -41t106.5 41t31.5 123v429h130v-412q0 -77 -14.5 -133t-46.5 -93t-83.5 -54.5t-124.5 -17.5q-74 0 -124.5 17.5t-82.5 54.5t-46 93t-14 133v412h130zM235 955h133q51 0 70 -20.5t19 -47.5t-15 -58t-39 -61l-27 -33l-67 31l46 96
h-120v93z" />
    <glyph glyph-name="Uhungarumlaut" unicode="&#x170;" horiz-adv-x="690" 
d="M207 698v-429q0 -82 31.5 -123t106.5 -41t106.5 41t31.5 123v429h130v-412q0 -77 -14.5 -133t-46.5 -93t-83.5 -54.5t-124.5 -17.5q-74 0 -124.5 17.5t-82.5 54.5t-46 93t-14 133v412h130zM259 745l-71 34l95 187l102 -50zM451 745l-72 34l95 187l102 -50z" />
    <glyph glyph-name="Umacron" unicode="&#x16a;" horiz-adv-x="690" 
d="M207 698v-429q0 -82 31.5 -123t106.5 -41t106.5 41t31.5 123v429h130v-412q0 -77 -14.5 -133t-46.5 -93t-83.5 -54.5t-124.5 -17.5q-74 0 -124.5 17.5t-82.5 54.5t-46 93t-14 133v412h130zM195 884h298v-93h-298v93z" />
    <glyph glyph-name="Uogonek" unicode="&#x172;" horiz-adv-x="690" 
d="M207 698v-429q0 -82 31.5 -123t106.5 -41t106.5 41t31.5 123v429h130v-412q0 -51 -5.5 -92.5t-19.5 -77t-37.5 -65.5t-58.5 -59q-19 -16 -36.5 -29t-31 -25t-21.5 -24t-8 -25q0 -17 10.5 -24t25.5 -7q17 0 29 7.5t23 18.5l49 -47q-12 -22 -40 -35t-71 -13q-23 0 -44 4.5
t-37 14.5t-25 25.5t-9 37.5q0 41 32.5 67t85.5 52l-3 6q-17 -5 -36.5 -6.5t-40.5 -1.5q-74 0 -124.5 17.5t-82.5 54.5t-46 93t-14 133v412h130z" />
    <glyph glyph-name="Uring" unicode="&#x16e;" horiz-adv-x="690" 
d="M207 698v-429q0 -82 31.5 -123t106.5 -41t106.5 41t31.5 123v429h130v-412q0 -77 -14.5 -133t-46.5 -93t-83.5 -54.5t-124.5 -17.5q-74 0 -124.5 17.5t-82.5 54.5t-46 93t-14 133v412h130zM344 727q-29 0 -54.5 10t-44.5 28t-29.5 43t-10.5 54t10.5 53.5t29.5 42.5
t44.5 28t54.5 10t54.5 -10t44 -28t29.5 -42.5t11 -53.5t-11 -54t-29.5 -43t-44 -28t-54.5 -10zM344 794q26 0 39.5 14t13.5 38v31q0 24 -13.5 38t-39.5 14t-39.5 -14t-13.5 -38v-31q0 -24 13.5 -38t39.5 -14z" />
    <glyph glyph-name="Utilde" unicode="&#x168;" horiz-adv-x="690" 
d="M207 698v-429q0 -82 31.5 -123t106.5 -41t106.5 41t31.5 123v429h130v-412q0 -77 -14.5 -133t-46.5 -93t-83.5 -54.5t-124.5 -17.5q-74 0 -124.5 17.5t-82.5 54.5t-46 93t-14 133v412h130zM419 768q-23 0 -41.5 7t-36.5 15q-23 10 -40.5 16t-34.5 6t-30 -6t-29 -19
l-47 59q17 26 44 43.5t65 17.5q23 0 41.5 -7t36.5 -15q23 -10 40.5 -16t34.5 -6t30 6t29 19l47 -59q-17 -26 -44 -43.5t-65 -17.5z" />
    <glyph glyph-name="Uhorn" unicode="&#x1af;" horiz-adv-x="690" 
d="M207 698v-429q0 -82 31.5 -123t106.5 -41t106.5 41t31.5 123v429h82v108h108v-97q0 -32 -13.5 -55t-46.5 -29v-339q0 -77 -14.5 -133t-46.5 -93t-83.5 -54.5t-124.5 -17.5q-74 0 -124.5 17.5t-82.5 54.5t-46 93t-14 133v412h130z" />
    <glyph glyph-name="uni1EE8" unicode="&#x1ee8;" horiz-adv-x="690" 
d="M207 698v-429q0 -82 31.5 -123t106.5 -41t106.5 41t31.5 123v429h82v108h108v-97q0 -32 -13.5 -55t-46.5 -29v-339q0 -77 -14.5 -133t-46.5 -93t-83.5 -54.5t-124.5 -17.5q-74 0 -124.5 17.5t-82.5 54.5t-46 93t-14 133v412h130zM357 744l-77 38l95 187l108 -54z" />
    <glyph glyph-name="uni1EF0" unicode="&#x1ef0;" horiz-adv-x="690" 
d="M207 698v-429q0 -82 31.5 -123t106.5 -41t106.5 41t31.5 123v429h82v108h108v-97q0 -32 -13.5 -55t-46.5 -29v-339q0 -77 -14.5 -133t-46.5 -93t-83.5 -54.5t-124.5 -17.5q-74 0 -124.5 17.5t-82.5 54.5t-46 93t-14 133v412h130zM344 -194q-39 0 -55.5 16.5t-16.5 41.5
v22q0 25 16.5 41.5t55.5 16.5t55.5 -16.5t16.5 -41.5v-22q0 -25 -16.5 -41.5t-55.5 -16.5z" />
    <glyph glyph-name="uni1EEA" unicode="&#x1eea;" horiz-adv-x="690" 
d="M207 698v-429q0 -82 31.5 -123t106.5 -41t106.5 41t31.5 123v429h82v108h108v-97q0 -32 -13.5 -55t-46.5 -29v-339q0 -77 -14.5 -133t-46.5 -93t-83.5 -54.5t-124.5 -17.5q-74 0 -124.5 17.5t-82.5 54.5t-46 93t-14 133v412h130zM205 915l108 54l95 -187l-77 -38z" />
    <glyph glyph-name="uni1EEC" unicode="&#x1eec;" horiz-adv-x="690" 
d="M207 698v-429q0 -82 31.5 -123t106.5 -41t106.5 41t31.5 123v429h82v108h108v-97q0 -32 -13.5 -55t-46.5 -29v-339q0 -77 -14.5 -133t-46.5 -93t-83.5 -54.5t-124.5 -17.5q-74 0 -124.5 17.5t-82.5 54.5t-46 93t-14 133v412h130zM235 955h133q51 0 70 -20.5t19 -47.5
t-15 -58t-39 -61l-27 -33l-67 31l46 96h-120v93z" />
    <glyph glyph-name="uni1EEE" unicode="&#x1eee;" horiz-adv-x="690" 
d="M207 698v-429q0 -82 31.5 -123t106.5 -41t106.5 41t31.5 123v429h82v108h108v-97q0 -32 -13.5 -55t-46.5 -29v-339q0 -77 -14.5 -133t-46.5 -93t-83.5 -54.5t-124.5 -17.5q-74 0 -124.5 17.5t-82.5 54.5t-46 93t-14 133v412h130zM397 769q-20 0 -36 6.5t-32 14.5
q-19 9 -33.5 15t-30.5 6q-27 0 -51 -23l-46 56q16 26 40 44t59 18q20 0 36 -6.5t32 -14.5q19 -9 33.5 -15t30.5 -6q27 0 51 23l46 -56q-16 -26 -40 -44t-59 -18z" />
    <glyph glyph-name="uni01D5" unicode="&#x1d5;" horiz-adv-x="690" 
d="M207 698v-429q0 -82 31.5 -123t106.5 -41t106.5 41t31.5 123v429h130v-412q0 -77 -14.5 -133t-46.5 -93t-83.5 -54.5t-124.5 -17.5q-74 0 -124.5 17.5t-82.5 54.5t-46 93t-14 133v412h130zM195 1031h298v-92h-298v92zM237 754q-39 0 -55 16.5t-16 41.5v21q0 25 16 41.5
t55 16.5q40 0 55.5 -16.5t15.5 -41.5v-21q0 -25 -15.5 -41.5t-55.5 -16.5zM451 754q-40 0 -55.5 16.5t-15.5 41.5v21q0 25 15.5 41.5t55.5 16.5q39 0 55 -16.5t16 -41.5v-21q0 -25 -16 -41.5t-55 -16.5z" />
    <glyph glyph-name="uni01D7" unicode="&#x1d7;" horiz-adv-x="690" 
d="M207 698v-429q0 -82 31.5 -123t106.5 -41t106.5 41t31.5 123v429h130v-412q0 -77 -14.5 -133t-46.5 -93t-83.5 -54.5t-124.5 -17.5q-74 0 -124.5 17.5t-82.5 54.5t-46 93t-14 133v412h130zM355 886l-71 35l95 187l101 -51zM237 754q-39 0 -55 16.5t-16 41.5v21
q0 25 16 41.5t55 16.5q40 0 55.5 -16.5t15.5 -41.5v-21q0 -25 -15.5 -41.5t-55.5 -16.5zM451 754q-40 0 -55.5 16.5t-15.5 41.5v21q0 25 15.5 41.5t55.5 16.5q39 0 55 -16.5t16 -41.5v-21q0 -25 -16 -41.5t-55 -16.5z" />
    <glyph glyph-name="uni01DB" unicode="&#x1db;" horiz-adv-x="690" 
d="M207 698v-429q0 -82 31.5 -123t106.5 -41t106.5 41t31.5 123v429h130v-412q0 -77 -14.5 -133t-46.5 -93t-83.5 -54.5t-124.5 -17.5q-74 0 -124.5 17.5t-82.5 54.5t-46 93t-14 133v412h130zM208 1057l101 51l95 -187l-71 -35zM237 754q-39 0 -55 16.5t-16 41.5v21
q0 25 16 41.5t55 16.5q40 0 55.5 -16.5t15.5 -41.5v-21q0 -25 -15.5 -41.5t-55.5 -16.5zM451 754q-40 0 -55.5 16.5t-15.5 41.5v21q0 25 15.5 41.5t55.5 16.5q39 0 55 -16.5t16 -41.5v-21q0 -25 -16 -41.5t-55 -16.5z" />
    <glyph glyph-name="uni01D9" unicode="&#x1d9;" horiz-adv-x="690" 
d="M207 698v-429q0 -82 31.5 -123t106.5 -41t106.5 41t31.5 123v429h130v-412q0 -77 -14.5 -133t-46.5 -93t-83.5 -54.5t-124.5 -17.5q-74 0 -124.5 17.5t-82.5 54.5t-46 93t-14 133v412h130zM296 911l-135 143l60 54l123 -106l123 106l60 -54l-135 -143h-96zM237 754
q-39 0 -55 16.5t-16 41.5v21q0 25 16 41.5t55 16.5q40 0 55.5 -16.5t15.5 -41.5v-21q0 -25 -15.5 -41.5t-55.5 -16.5zM451 754q-40 0 -55.5 16.5t-15.5 41.5v21q0 25 15.5 41.5t55.5 16.5q39 0 55 -16.5t16 -41.5v-21q0 -25 -16 -41.5t-55 -16.5z" />
    <glyph glyph-name="Wacute" unicode="&#x1e82;" horiz-adv-x="949" 
d="M488 744l-77 38l95 187l108 -54zM188 0l-162 698h132l69 -335l43 -214h3l50 214l80 335h146l80 -335l49 -214h3l44 214l71 335h126l-167 -698h-149l-89 369l-43 184h-2l-45 -184l-89 -369h-150z" />
    <glyph glyph-name="Wcircumflex" unicode="&#x174;" horiz-adv-x="949" 
d="M533 950l126 -154l-64 -51l-120 116l-120 -116l-64 51l126 154h116zM188 0l-162 698h132l69 -335l43 -214h3l50 214l80 335h146l80 -335l49 -214h3l44 214l71 335h126l-167 -698h-149l-89 369l-43 184h-2l-45 -184l-89 -369h-150z" />
    <glyph glyph-name="Wdieresis" unicode="&#x1e84;" horiz-adv-x="949" 
d="M188 0l-162 698h132l69 -335l43 -214h3l50 214l80 335h146l80 -335l49 -214h3l44 214l71 335h126l-167 -698h-149l-89 369l-43 184h-2l-45 -184l-89 -369h-150zM370 769q-39 0 -55 16.5t-16 41.5v21q0 25 16 42t55 17t55 -17t16 -42v-21q0 -25 -16 -41.5t-55 -16.5z
M580 769q-39 0 -55 16.5t-16 41.5v21q0 25 16 42t55 17t55 -17t16 -42v-21q0 -25 -16 -41.5t-55 -16.5z" />
    <glyph glyph-name="Wgrave" unicode="&#x1e80;" horiz-adv-x="949" 
d="M336 915l108 54l95 -187l-77 -38zM188 0l-162 698h132l69 -335l43 -214h3l50 214l80 335h146l80 -335l49 -214h3l44 214l71 335h126l-167 -698h-149l-89 369l-43 184h-2l-45 -184l-89 -369h-150z" />
    <glyph glyph-name="Yacute" unicode="&#xdd;" horiz-adv-x="632" 
d="M249 0v274l-239 424h148l161 -295h2l157 295h144l-240 -423v-275h-133zM330 744l-77 38l95 187l108 -54z" />
    <glyph glyph-name="Ycircumflex" unicode="&#x176;" horiz-adv-x="632" 
d="M249 0v274l-239 424h148l161 -295h2l157 295h144l-240 -423v-275h-133zM375 950l126 -154l-64 -51l-120 116l-120 -116l-64 51l126 154h116z" />
    <glyph glyph-name="uni1EF4" unicode="&#x1ef4;" horiz-adv-x="632" 
d="M249 0v274l-239 424h148l161 -295h2l157 295h144l-240 -423v-275h-133zM315 -194q-39 0 -55.5 16.5t-16.5 41.5v22q0 25 16.5 41.5t55.5 16.5t55.5 -16.5t16.5 -41.5v-22q0 -25 -16.5 -41.5t-55.5 -16.5z" />
    <glyph glyph-name="Ydieresis" unicode="&#x178;" horiz-adv-x="632" 
d="M249 0v274l-239 424h148l161 -295h2l157 295h144l-240 -423v-275h-133zM212 769q-39 0 -55 16.5t-16 41.5v21q0 25 16 42t55 17t55 -17t16 -42v-21q0 -25 -16 -41.5t-55 -16.5zM422 769q-39 0 -55 16.5t-16 41.5v21q0 25 16 42t55 17t55 -17t16 -42v-21q0 -25 -16 -41.5
t-55 -16.5z" />
    <glyph glyph-name="Ygrave" unicode="&#x1ef2;" horiz-adv-x="632" 
d="M249 0v274l-239 424h148l161 -295h2l157 295h144l-240 -423v-275h-133zM178 915l108 54l95 -187l-77 -38z" />
    <glyph glyph-name="uni1EF6" unicode="&#x1ef6;" horiz-adv-x="632" 
d="M249 0v274l-239 424h148l161 -295h2l157 295h144l-240 -423v-275h-133zM208 955h133q51 0 70 -20.5t19 -47.5t-15 -58t-39 -61l-27 -33l-67 31l46 96h-120v93z" />
    <glyph glyph-name="uni1EF8" unicode="&#x1ef8;" horiz-adv-x="632" 
d="M249 0v274l-239 424h148l161 -295h2l157 295h144l-240 -423v-275h-133zM392 768q-23 0 -41.5 7t-36.5 15q-23 10 -40.5 16t-34.5 6t-30 -6t-29 -19l-47 59q17 26 44 43.5t65 17.5q23 0 41.5 -7t36.5 -15q23 -10 40.5 -16t34.5 -6t30 6t29 19l47 -59q-17 -26 -44 -43.5
t-65 -17.5z" />
    <glyph glyph-name="Zacute" unicode="&#x179;" horiz-adv-x="599" 
d="M561 0h-523v118l361 463h-343v117h495v-118l-362 -463h372v-117zM314 744l-77 38l95 187l108 -54z" />
    <glyph glyph-name="Zcaron" unicode="&#x17d;" horiz-adv-x="599" 
d="M561 0h-523v118l361 463h-343v117h495v-118l-362 -463h372v-117zM243 754l-126 154l64 51l120 -116l120 116l64 -51l-126 -154h-116z" />
    <glyph glyph-name="Zdotaccent" unicode="&#x17b;" horiz-adv-x="599" 
d="M301 760q-44 0 -61.5 18.5t-17.5 46.5v25q0 28 17.5 46.5t61.5 18.5t61.5 -18.5t17.5 -46.5v-25q0 -28 -17.5 -46.5t-61.5 -18.5zM561 0h-523v118l361 463h-343v117h495v-118l-362 -463h372v-117z" />
    <glyph glyph-name="mu" unicode="&#xb5;" horiz-adv-x="593" 
d="M74 -200v722h128v-317q0 -54 21 -82.5t67 -28.5q19 0 37.5 5t32.5 15.5t23 26t9 36.5v345h128v-522h-128v87h-5q-14 -40 -44 -69.5t-80 -29.5q-31 0 -50.5 12.5t-29.5 32.5h-5l23 -121v-112h-127z" />
    <glyph glyph-name="Delta" unicode="&#x2206;" horiz-adv-x="672" 
d="M48 107l206 591h164l206 -591v-107h-576v107zM336 578h-5l-149 -461h303z" />
    <glyph glyph-name="product" unicode="&#x220f;" horiz-adv-x="720" 
d="M125 -200v781h-94v117h658v-117h-94v-781h-132v781h-206v-781h-132z" />
    <glyph glyph-name="summation" unicode="&#x2211;" horiz-adv-x="542" 
d="M505 -200h-465v122l228 325v4l-228 325v122h465v-117h-322l208 -289v-86l-208 -289h322v-117z" />
    <glyph glyph-name="Omega" unicode="&#x2126;" horiz-adv-x="721" 
d="M52 117h159v10q-71 34 -113 99.5t-42 167.5q0 64 20 121t58.5 100.5t95.5 69t131 25.5t131 -25.5t95.5 -69t58 -100.5t19.5 -121q0 -102 -42 -167.5t-113 -99.5v-10h159v-117h-257v178q23 7 43.5 24t36 39.5t24.5 49.5t9 56v84q0 30 -11.5 59.5t-32.5 52t-51.5 36.5
t-68.5 14q-39 0 -69.5 -14t-51.5 -36.5t-32.5 -52t-11.5 -59.5v-84q0 -29 9 -56t24.5 -49.5t36 -39.5t43.5 -24v-178h-257v117z" />
    <glyph glyph-name="alpha" unicode="&#x3b1;" horiz-adv-x="660" 
d="M626 0h-55q-53 0 -80 21.5t-38 76.5l-11 61h-3q-23 -85 -66.5 -128t-119.5 -43q-96 0 -152 71t-56 202t56 202t152 71q75 0 121.5 -41t69.5 -129h4l21 83l24 75h130l-114 -258l61 -162h56v-102zM262 94q30 0 53 21.5t42 75.5l25 71l-25 69q-19 54 -42 76t-53 22
q-38 0 -60.5 -31.5t-22.5 -97.5v-77q0 -67 22.5 -98t60.5 -31z" />
    <glyph glyph-name="alpha.alt01" horiz-adv-x="611" 
d="M578 0h-51q-58 0 -88 25t-38 67h-4q-17 -49 -56.5 -76.5t-91.5 -27.5q-99 0 -151.5 71t-52.5 203q0 131 52.5 201.5t151.5 70.5q52 0 91 -26.5t53 -71.5h5v86h128v-420h52v-102zM290 94q46 0 77 22t31 63v166q0 38 -31 61t-77 23q-50 0 -80.5 -33.5t-30.5 -89.5v-90
q0 -56 30.5 -89t80.5 -33z" />
    <glyph glyph-name="beta" unicode="&#x3b2;" horiz-adv-x="602" 
d="M74 491q0 125 56.5 193t169.5 68q56 0 98 -14.5t69.5 -39.5t41 -59.5t13.5 -74.5q0 -70 -34 -112.5t-89 -57.5v-4q34 -5 62.5 -17.5t49.5 -34t32.5 -52.5t11.5 -71q0 -49 -13.5 -90.5t-39.5 -72t-64 -47.5t-87 -17q-54 0 -92.5 25t-52.5 67h-4v-280h-128v691zM268 436h37
q40 0 63.5 24.5t23.5 64.5v28q0 43 -22.5 69t-71.5 26q-45 0 -70.5 -29.5t-25.5 -88.5v-359q0 -38 30 -58.5t78 -20.5q54 0 84 28t30 81v31q0 48 -30 75t-83 27h-43v102z" />
    <glyph glyph-name="gamma" unicode="&#x3b3;" horiz-adv-x="529" 
d="M199 0l-140 420h-50v102h50q51 0 79 -19.5t43 -72.5l44 -147l37 -153h8l44 153l82 239h121l-190 -522v-200h-128v200z" />
    <glyph glyph-name="delta" unicode="&#x3b4;" horiz-adv-x="563" 
d="M304 638l-86 10v-4l116 -79q52 -35 88.5 -70.5t59 -72.5t32.5 -77t10 -83q0 -63 -17 -113.5t-48.5 -86.5t-76.5 -55t-101 -19t-100.5 19.5t-76 54t-48.5 83t-17 105.5q0 60 16 106.5t42.5 78t61.5 48t74 16.5v6l-135 109v126h377v-102h-171zM390 247q0 34 -4 60.5
t-14.5 50.5t-29.5 47t-48 49q-57 -8 -89 -49t-32 -110v-82q0 -60 29 -91t79 -31q51 0 80 31t29 91v34z" />
    <glyph glyph-name="epsilon" unicode="&#x3b5;" horiz-adv-x="525" 
d="M501 82q-37 -45 -94.5 -69.5t-137.5 -24.5q-106 0 -164.5 42.5t-58.5 114.5q0 55 33 86t92 40v4q-113 15 -113 110q0 32 14 59t41.5 47t67.5 31.5t91 11.5q76 0 129.5 -22.5t91.5 -64.5l-77 -75q-24 29 -58 44.5t-78 15.5q-48 0 -69.5 -16t-21.5 -41v-10q0 -54 70 -54
h109v-89h-118q-74 0 -74 -55v-11q0 -32 25 -49t82 -17q51 0 86.5 17.5t62.5 50.5z" />
    <glyph glyph-name="zeta" unicode="&#x3b6;" horiz-adv-x="435" 
d="M60 740h367v-99l-171 -226q-47 -61 -65 -103.5t-18 -78.5v-14q0 -39 22 -64t70 -38l73 -20q40 -11 59.5 -36t19.5 -57q0 -23 -10 -49l-47 -125l-107 38l44 120l-73 19q-51 13 -86.5 32t-57.5 44t-31.5 56.5t-9.5 69.5q0 31 5 59t18.5 59t38 68t64.5 85l134 162v5l-77 -9
h-162v102z" />
    <glyph glyph-name="eta" unicode="&#x3b7;" horiz-adv-x="599" 
d="M85 0v420h-52v102h74q96 0 105 -91h5q16 45 51 74t96 29q81 0 124 -53t43 -151v-530h-128v517q0 56 -20 84t-66 28q-20 0 -38.5 -5.5t-33 -16t-23.5 -26t-9 -36.5v-345h-128z" />
    <glyph glyph-name="theta" unicode="&#x3b8;" horiz-adv-x="572" 
d="M286 752q56 0 100.5 -19.5t75.5 -64t47.5 -117.5t16.5 -181t-16.5 -181t-47.5 -117.5t-75.5 -64t-100.5 -19.5t-100.5 19.5t-75.5 64t-47.5 117.5t-16.5 181t16.5 181t47.5 117.5t75.5 64t100.5 19.5zM180 421h212v55q0 50 -7 83t-20.5 53t-33.5 28.5t-45 8.5
q-26 0 -45.5 -8.5t-33 -28.5t-20.5 -53t-7 -83v-55zM286 91q25 0 45 8.5t33.5 28.5t20.5 53t7 83v55h-212v-55q0 -50 7 -83t20.5 -53t33 -28.5t45.5 -8.5z" />
    <glyph glyph-name="iota" unicode="&#x3b9;" horiz-adv-x="320" 
d="M301 0h-92q-66 0 -100.5 34.5t-34.5 98.5v389h128v-420h99v-102z" />
    <glyph glyph-name="kappa" unicode="&#x3ba;" horiz-adv-x="564" 
d="M268 227l-66 -68v-159h-128v522h128v-233h5l62 80l101 111q23 25 44 33.5t56 8.5h52v-101h-61l-107 -111l195 -310h-150z" />
    <glyph glyph-name="lambda" unicode="&#x3bb;" horiz-adv-x="529" 
d="M160 638h-91v102h90q52 0 78 -19t41 -67l180 -552h62v-102h-61q-52 0 -78 19t-41 67l-49 151l-34 140h-9l-37 -140l-84 -237h-122l193 522z" />
    <glyph glyph-name="uni03BC" unicode="&#x3bc;" horiz-adv-x="605" 
d="M74 -200v722h128v-317q0 -54 21 -82.5t67 -28.5q19 0 37.5 5t32.5 15.5t23 26t9 36.5v345h128v-420h52v-102h-52q-57 0 -87 25t-38 67h-4q-28 -104 -114 -104q-36 0 -61 16.5t-42 51.5h-5l33 -143v-113h-128z" />
    <glyph glyph-name="nu" unicode="&#x3bd;" horiz-adv-x="531" 
d="M188 0l-129 420h-50v102h50q51 0 79.5 -20t42.5 -74l45 -158l38 -159h7l45 159l82 252h122l-180 -522h-152z" />
    <glyph glyph-name="xi" unicode="&#x3be;" horiz-adv-x="445" 
d="M304 638q-48 0 -74.5 -25t-26.5 -75v-16q0 -42 27 -67t76 -25h60v-101h-93q-45 0 -70.5 -25t-25.5 -67v-22q0 -40 21 -62.5t70 -35.5l72 -20q39 -11 59 -36t20 -57q0 -11 -2.5 -23t-7.5 -26l-47 -125l-107 38l44 120l-72 19q-51 13 -85.5 32t-55.5 44t-30 57.5t-9 73.5
q0 32 10 60.5t29.5 51t47.5 37.5t63 20v5q-121 24 -121 129q0 40 21.5 70t60.5 44v7h-121v102h399v-102h-132z" />
    <glyph glyph-name="omicron" unicode="&#x3bf;" horiz-adv-x="563" 
d="M281 -12q-56 0 -100.5 19t-76 55t-48.5 86.5t-17 113.5t17 113t48.5 85.5t76 54.5t100.5 19t101 -19t76.5 -54.5t48.5 -85.5t17 -113t-17 -113.5t-48.5 -86.5t-76.5 -55t-101 -19zM281 91q51 0 80 31t29 91v97q0 59 -29 90t-80 31q-50 0 -79 -31t-29 -90v-97
q0 -60 29 -91t79 -31z" />
    <glyph glyph-name="pi" unicode="&#x3c0;" horiz-adv-x="645" 
d="M514 102h66v-102h-59q-66 0 -100.5 34.5t-34.5 98.5v287h-150v-420h-128v420h-85v102h589v-102h-98v-318z" />
    <glyph glyph-name="rho" unicode="&#x3c1;" horiz-adv-x="570" 
d="M51 273q0 122 57.5 191.5t177.5 69.5q125 0 182 -70t57 -201q0 -134 -52 -204.5t-148 -70.5q-50 0 -88.5 25.5t-52.5 65.5h-5v-279h-128v473zM283 92q49 0 78.5 32t29.5 94v92q0 58 -27.5 89.5t-78.5 31.5t-78.5 -31.5t-27.5 -89.5v-139q0 -38 30.5 -58.5t73.5 -20.5z
" />
    <glyph glyph-name="sigma1" unicode="&#x3c2;" horiz-adv-x="500" 
d="M318 -12l-80 21q-52 14 -89.5 35t-62 52.5t-36 75t-11.5 103.5q0 58 16 106t47 82t75 52.5t100 18.5q76 0 127.5 -34.5t74.5 -97.5l-104 -47q-9 33 -34 54.5t-65 21.5q-50 0 -76.5 -33.5t-26.5 -89.5v-61q0 -49 27.5 -81.5t87.5 -48.5l71 -20q40 -11 59.5 -36t19.5 -57
q0 -23 -10 -49l-47 -125l-107 38z" />
    <glyph glyph-name="sigma" unicode="&#x3c3;" horiz-adv-x="585" 
d="M440 421v-8q43 -24 63.5 -63t20.5 -102q0 -58 -17 -105.5t-48.5 -82t-76.5 -53.5t-101 -19t-100.5 19t-76 54t-48.5 84.5t-17 110.5q0 62 16.5 111t48 83.5t77.5 53t104 18.5h277v-101h-122zM285 421q-53 0 -82.5 -29.5t-29.5 -89.5v-89q0 -60 29 -91t79 -31q51 0 80 31
t29 91v89q0 40 -13 68.5t-38 50.5h-54z" />
    <glyph glyph-name="tau" unicode="&#x3c4;" horiz-adv-x="493" 
d="M305 0q-66 0 -100.5 34.5t-34.5 98.5v287h-150v102h444v-102h-166v-318h108v-102h-101z" />
    <glyph glyph-name="upsilon" unicode="&#x3c5;" horiz-adv-x="578" 
d="M193 217q0 -64 22.5 -95t73.5 -31t73.5 31t22.5 95v305h128v-281q0 -253 -224 -253t-224 253v281h128v-305z" />
    <glyph glyph-name="phi" unicode="&#x3c6;" horiz-adv-x="756" 
d="M310 -12q-60 0 -108.5 18.5t-83.5 54t-54 86t-19 114.5q0 96 32.5 166.5t101.5 106.5l80 -79q-42 -28 -61 -69t-19 -96v-64q0 -69 38 -102.5t93 -33.5v209q0 113 48 174t148 61q101 0 152.5 -60t51.5 -201q0 -139 -71.5 -212t-202.5 -73v-188h-126v188zM436 90
q63 0 101.5 32.5t38.5 103.5v95q0 62 -18 86.5t-52 24.5q-35 0 -52.5 -24.5t-17.5 -86.5v-231z" />
    <glyph glyph-name="chi" unicode="&#x3c7;" horiz-adv-x="531" 
d="M83 522q51 0 76.5 -18t42.5 -62l68 -175h4l108 255h136l-173 -350l112 -270h67v-102h-66q-51 0 -76.5 18.5t-41.5 61.5l-73 194h-4l-114 -274h-136l180 368l-109 252h-67v102h66z" />
    <glyph glyph-name="psi" unicode="&#x3c8;" horiz-adv-x="749" 
d="M312 -200v188q-121 0 -184 66t-63 200v268h128v-296q0 -70 29.5 -103t89.5 -33v620h126v-620q59 0 88.5 33t29.5 103v296h128v-268q0 -134 -63 -200t-183 -66v-188h-126z" />
    <glyph glyph-name="omega" unicode="&#x3c9;" horiz-adv-x="760" 
d="M444 203q0 -63 17 -87.5t51 -24.5q35 0 51.5 24.5t16.5 87.5v87q0 109 -80 165l79 79q68 -34 101.5 -103t33.5 -184q0 -133 -50.5 -196t-134.5 -63q-60 0 -96.5 34.5t-50.5 99.5h-4q-14 -65 -50.5 -99.5t-96.5 -34.5q-84 0 -134.5 63t-50.5 196q0 112 34.5 182.5
t100.5 104.5l79 -79q-42 -28 -61 -69t-19 -96v-87q0 -63 16.5 -87.5t51.5 -24.5q34 0 51 24.5t17 87.5v160h128v-160z" />
    <glyph glyph-name="Alpha" unicode="&#x391;" horiz-adv-x="672" 
d="M514 0l-56 178h-248l-55 -178h-134l234 698h164l232 -698h-137zM336 578h-5l-89 -287h184z" />
    <glyph glyph-name="Beta" unicode="&#x392;" horiz-adv-x="663" 
d="M82 698h323q43 0 77.5 -13t58.5 -36t36.5 -56.5t12.5 -73.5t-10.5 -67.5t-28 -45.5t-40 -27t-46.5 -10v-6q23 0 49.5 -9t49 -28.5t37.5 -50t15 -75.5q0 -42 -13.5 -78.5t-37.5 -63.5t-57 -42.5t-72 -15.5h-354v698zM214 112h184q38 0 59 19.5t21 56.5v34q0 37 -21 57
t-59 20h-184v-187zM214 407h163q36 0 56 19.5t20 54.5v31q0 35 -20 54.5t-56 19.5h-163v-179z" />
    <glyph glyph-name="Gamma" unicode="&#x393;" horiz-adv-x="510" 
d="M82 698h401v-117h-269v-581h-132v698z" />
    <glyph glyph-name="uni0394" unicode="&#x394;" horiz-adv-x="672" 
d="M48 107l206 591h164l206 -591v-107h-576v107zM336 578h-5l-149 -461h303z" />
    <glyph glyph-name="Epsilon" unicode="&#x395;" 
d="M82 0v698h460v-117h-328v-169h290v-117h-290v-178h328v-117h-460z" />
    <glyph glyph-name="Zeta" unicode="&#x396;" horiz-adv-x="599" 
d="M561 0h-523v118l361 463h-343v117h495v-118l-362 -463h372v-117z" />
    <glyph glyph-name="Eta" unicode="&#x397;" horiz-adv-x="719" 
d="M505 295h-291v-295h-132v698h132v-286h291v286h132v-698h-132v295z" />
    <glyph glyph-name="Theta" unicode="&#x398;" horiz-adv-x="719" 
d="M360 -12q-71 0 -127.5 23t-97 69t-62 113t-21.5 156q0 88 21.5 155.5t62 113.5t97 69t127.5 23q70 0 127 -23t97 -69t61.5 -113.5t21.5 -155.5q0 -89 -21.5 -156t-61.5 -113t-97 -69t-127 -23zM359 105q78 0 123 50t45 140v108q0 90 -45 140t-123 50t-122.5 -50
t-44.5 -140v-108q0 -90 44.5 -140t122.5 -50zM247 295v117h225v-117h-225z" />
    <glyph glyph-name="Iota" unicode="&#x399;" horiz-adv-x="423" 
d="M53 0v106h92v486h-92v106h317v-106h-93v-486h93v-106h-317z" />
    <glyph glyph-name="Kappa" unicode="&#x39a;" horiz-adv-x="678" 
d="M307 316l-93 -110v-206h-132v698h132v-344h5l99 131l173 213h152l-243 -291l263 -407h-157z" />
    <glyph glyph-name="Lambda" unicode="&#x39b;" horiz-adv-x="659" 
d="M408 698l230 -698h-138l-107 340l-64 233h-3l-64 -233l-107 -340h-134l230 698h157z" />
    <glyph glyph-name="Mu" unicode="&#x39c;" horiz-adv-x="816" 
d="M609 501h-4l-54 -111l-143 -264l-143 264l-54 111h-4v-501h-125v698h149l179 -341h4l177 341h143v-698h-125v501z" />
    <glyph glyph-name="Nu" unicode="&#x39d;" horiz-adv-x="719" 
d="M282 358l-72 145h-3v-503h-125v698h145l210 -358l72 -145h3v503h125v-698h-145z" />
    <glyph glyph-name="Xi" unicode="&#x39e;" horiz-adv-x="599" 
d="M58 698h483v-117h-483v117zM112 412h375v-117h-375v117zM58 117h483v-117h-483v117z" />
    <glyph glyph-name="Omicron" unicode="&#x39f;" horiz-adv-x="712" 
d="M356 -12q-69 0 -125 23t-95.5 69t-61.5 113t-22 156q0 88 22 155.5t61.5 113.5t95.5 69t125 23t125 -23t96 -69t61.5 -113.5t21.5 -155.5q0 -89 -21.5 -156t-61.5 -113t-96 -69t-125 -23zM356 105q75 0 119.5 50t44.5 140v108q0 90 -44.5 140t-119.5 50t-119.5 -50
t-44.5 -140v-108q0 -90 44.5 -140t119.5 -50z" />
    <glyph glyph-name="Pi" unicode="&#x3a0;" horiz-adv-x="704" 
d="M82 698h540v-698h-132v581h-276v-581h-132v698z" />
    <glyph glyph-name="Rho" unicode="&#x3a1;" horiz-adv-x="641" 
d="M82 0v698h314q48 0 86.5 -15.5t65.5 -44t41 -68.5t14 -88q0 -49 -14 -88.5t-41 -68t-65.5 -44t-86.5 -15.5h-182v-266h-132zM214 380h170q38 0 60 20.5t22 58.5v46q0 38 -22 58t-60 20h-170v-203z" />
    <glyph glyph-name="Sigma" unicode="&#x3a3;" horiz-adv-x="598" 
d="M43 0v118l229 233l-220 229v118h492v-116h-330l218 -227l-235 -239h347v-116h-501z" />
    <glyph glyph-name="Tau" unicode="&#x3a4;" horiz-adv-x="580" 
d="M356 581v-581h-132v581h-198v117h528v-117h-198z" />
    <glyph glyph-name="Upsilon" unicode="&#x3a5;" horiz-adv-x="632" 
d="M249 0v274l-239 424h148l161 -295h2l157 295h144l-240 -423v-275h-133z" />
    <glyph glyph-name="Phi" unicode="&#x3a6;" horiz-adv-x="849" 
d="M358 32h-12q-71 0 -127 23t-95 65.5t-59.5 101.5t-20.5 131q0 73 20.5 132.5t59.5 102t95 65.5t127 23h12v60h133v-60h13q70 0 126 -23t95 -65.5t59.5 -101.5t20.5 -131q0 -73 -20.5 -132.5t-59.5 -102t-95 -65.5t-126 -23h-13v-72h-133v72zM360 568h-13q-35 0 -65 -13
t-53 -37t-36 -58t-13 -75v-62q0 -41 13 -75t36 -58t53 -37t65 -13h13v428zM502 140q34 0 64.5 13t53.5 37t36 58t13 75v62q0 41 -13 75t-36 58t-53.5 37t-64.5 13h-13v-428h13z" />
    <glyph glyph-name="Chi" unicode="&#x3a7;" horiz-adv-x="655" 
d="M637 0h-154l-160 268h-3l-158 -268h-144l226 358l-216 340h154l148 -248h3l150 248h144l-218 -340z" />
    <glyph glyph-name="Psi" unicode="&#x3a8;" horiz-adv-x="825" 
d="M346 184q-139 0 -209 74t-70 211v229h132v-229q0 -50 10 -83.5t29 -54t46.5 -29.5t61.5 -9v405h133v-405q34 0 61.5 9t46.5 29.5t29 54t10 83.5v229h132v-229q0 -137 -70 -211t-209 -74v-184h-133v184z" />
    <glyph glyph-name="uni03A9" unicode="&#x3a9;" horiz-adv-x="721" 
d="M52 117h159v10q-71 34 -113 99.5t-42 167.5q0 64 20 121t58.5 100.5t95.5 69t131 25.5t131 -25.5t95.5 -69t58 -100.5t19.5 -121q0 -102 -42 -167.5t-113 -99.5v-10h159v-117h-257v178q23 7 43.5 24t36 39.5t24.5 49.5t9 56v84q0 30 -11.5 59.5t-32.5 52t-51.5 36.5
t-68.5 14q-39 0 -69.5 -14t-51.5 -36.5t-32.5 -52t-11.5 -59.5v-84q0 -29 9 -56t24.5 -49.5t36 -39.5t43.5 -24v-178h-257v117z" />
    <glyph glyph-name="alphatonos" unicode="&#x3ac;" horiz-adv-x="660" 
d="M626 0h-55q-53 0 -80 21.5t-38 76.5l-11 61h-3q-23 -85 -66.5 -128t-119.5 -43q-96 0 -152 71t-56 202t56 202t152 71q75 0 121.5 -41t69.5 -129h4l21 83l24 75h130l-114 -258l61 -162h56v-102zM262 94q30 0 53 21.5t42 75.5l25 71l-25 69q-19 54 -42 76t-53 22
q-38 0 -60.5 -31.5t-22.5 -97.5v-77q0 -67 22.5 -98t60.5 -31zM321 581l-84 12l34 212l117 -17z" />
    <glyph glyph-name="alphatonos.alt01" horiz-adv-x="611" 
d="M578 0h-51q-58 0 -88 25t-38 67h-4q-17 -49 -56.5 -76.5t-91.5 -27.5q-99 0 -151.5 71t-52.5 203q0 131 52.5 201.5t151.5 70.5q52 0 91 -26.5t53 -71.5h5v86h128v-420h52v-102zM290 94q46 0 77 22t31 63v166q0 38 -31 61t-77 23q-50 0 -80.5 -33.5t-30.5 -89.5v-90
q0 -56 30.5 -89t80.5 -33zM343 581l-84 12l34 212l117 -17z" />
    <glyph glyph-name="epsilontonos" unicode="&#x3ad;" horiz-adv-x="525" 
d="M501 82q-37 -45 -94.5 -69.5t-137.5 -24.5q-106 0 -164.5 42.5t-58.5 114.5q0 55 33 86t92 40v4q-113 15 -113 110q0 32 14 59t41.5 47t67.5 31.5t91 11.5q76 0 129.5 -22.5t91.5 -64.5l-77 -75q-24 29 -58 44.5t-78 15.5q-48 0 -69.5 -16t-21.5 -41v-10q0 -54 70 -54
h109v-89h-118q-74 0 -74 -55v-11q0 -32 25 -49t82 -17q51 0 86.5 17.5t62.5 50.5zM311 581l-84 12l34 212l117 -17z" />
    <glyph glyph-name="etatonos" unicode="&#x3ae;" horiz-adv-x="599" 
d="M85 0v420h-52v102h74q96 0 105 -91h5q16 45 51 74t96 29q81 0 124 -53t43 -151v-530h-128v517q0 56 -20 84t-66 28q-20 0 -38.5 -5.5t-33 -16t-23.5 -26t-9 -36.5v-345h-128zM347 581l-84 12l34 212l117 -17z" />
    <glyph glyph-name="iotatonos" unicode="&#x3af;" horiz-adv-x="320" 
d="M301 0h-92q-66 0 -100.5 34.5t-34.5 98.5v389h128v-420h99v-102zM183 581l-84 12l34 212l117 -17z" />
    <glyph glyph-name="iotadieresis" unicode="&#x3ca;" horiz-adv-x="320" 
d="M301 0h-92q-66 0 -100.5 34.5t-34.5 98.5v389h128v-420h99v-102zM40 605q-39 0 -55 16.5t-16 41.5v21q0 25 16 41.5t55 16.5t55 -16.5t16 -41.5v-21q0 -25 -16 -41.5t-55 -16.5zM250 605q-39 0 -55 16.5t-16 41.5v21q0 25 16 41.5t55 16.5t55 -16.5t16 -41.5v-21
q0 -25 -16 -41.5t-55 -16.5z" />
    <glyph glyph-name="iotadieresistonos" unicode="&#x390;" horiz-adv-x="320" 
d="M301 0h-92q-66 0 -100.5 34.5t-34.5 98.5v389h128v-420h99v-102zM13 609q-29 0 -43.5 14t-14.5 40v20q0 56 58 56t58 -55v-20q0 -55 -58 -55zM158 581l-59 10l34 214l92 -15zM289 609q-29 0 -43.5 14t-14.5 40v20q0 56 58 56q59 0 59 -55v-20q0 -55 -59 -55z" />
    <glyph glyph-name="omicrontonos" unicode="&#x3cc;" horiz-adv-x="563" 
d="M281 -12q-56 0 -100.5 19t-76 55t-48.5 86.5t-17 113.5t17 113t48.5 85.5t76 54.5t100.5 19t101 -19t76.5 -54.5t48.5 -85.5t17 -113t-17 -113.5t-48.5 -86.5t-76.5 -55t-101 -19zM281 91q51 0 80 31t29 91v97q0 59 -29 90t-80 31q-50 0 -79 -31t-29 -90v-97
q0 -60 29 -91t79 -31zM320 581l-84 12l34 212l117 -17z" />
    <glyph glyph-name="upsilontonos" unicode="&#x3cd;" horiz-adv-x="578" 
d="M193 217q0 -64 22.5 -95t73.5 -31t73.5 31t22.5 95v305h128v-281q0 -253 -224 -253t-224 253v281h128v-305zM332 581l-84 12l34 212l117 -17z" />
    <glyph glyph-name="upsilondieresis" unicode="&#x3cb;" horiz-adv-x="578" 
d="M193 217q0 -64 22.5 -95t73.5 -31t73.5 31t22.5 95v305h128v-281q0 -253 -224 -253t-224 253v281h128v-305zM190 605q-39 0 -55 16.5t-16 41.5v21q0 25 16 41.5t55 16.5t55 -16.5t16 -41.5v-21q0 -25 -16 -41.5t-55 -16.5zM400 605q-39 0 -55 16.5t-16 41.5v21
q0 25 16 41.5t55 16.5t55 -16.5t16 -41.5v-21q0 -25 -16 -41.5t-55 -16.5z" />
    </font>
</defs>
</svg>
