<?xml version="1.0" standalone="no"?>
<!DOCTYPE svg PUBLIC "-//W3C//DTD SVG 1.1//EN" "http://www.w3.org/Graphics/SVG/1.1/DTD/svg11.dtd" >
<svg xmlns="http://www.w3.org/2000/svg" xmlns:xlink="http://www.w3.org/1999/xlink" version="1.1">
<metadata>
Created by FontForge 20190801 at Fri Nov 14 19:10:37 2014
 By root
Copyright \(c\) 2011 by Laura Worthington. All rights reserved.
</metadata>
<defs>
<font id="Shelby" horiz-adv-x="397" >
  <font-face 
    font-family="Shelby"
    font-weight="400"
    font-stretch="normal"
    units-per-em="1000"
    panose-1="2 0 5 6 0 0 0 2 0 2"
    ascent="800"
    descent="-200"
    x-height="231"
    cap-height="544"
    bbox="-444 -527 1745 752"
    underline-thickness="50"
    underline-position="-100"
    unicode-range="U+000D-FB02"
  />
<missing-glyph horiz-adv-x="213" 
 />
    <glyph glyph-name="d_j" unicode="dj" horiz-adv-x="444" 
d="M145 236c34 0 42 -9 44 -13c0 141 73 327 163 327c28 0 44 -20 44 -48c0 -83 -41 -196 -170 -358c-10 -19 -12 -45 -12 -72c0 -24 1 -53 14 -53c8 0 15 -3 15 -8c0 -9 -15 -19 -33 -19c-38 0 -39 39 -39 89c-45 -56 -106 -91 -140 -91c-19 0 -50 15 -50 55
c0 72 99 191 164 191zM357 246c6 0 26 -10 26 -22c0 -18 -10 -81 -10 -104c0 -5 0 -9 2 -9c8 0 41 31 93 65c12 8 26 14 36 14c11 0 16 -11 16 -18c0 -10 -16 -15 -36 -28c-43 -29 -107 -65 -126 -109c-8 -18 -10 -120 -62 -248c-53 -128 -117 -174 -152 -174
c-19 0 -49 19 -49 57c0 37 14 97 71 191c63 105 149 181 155 194s17 155 17 169s5 22 19 22zM303 -13c0 0 -45 -55 -107 -151c-45 -71 -60 -145 -60 -162c0 -16 10 -21 16 -21c20 0 59 40 105 151c23 55 46 120 46 183zM346 513c-48 0 -117 -170 -117 -297
c77 108 128 214 128 278c0 8 0 19 -11 19zM145 195c-47 -3 -120 -102 -120 -140c0 -16 12 -23 23 -23c34 0 135 107 134 132c-4 0 -14 2 -15 14c-1 11 -12 17 -22 17zM409 382c18 0 31 -19 31 -32c0 -12 -3 -28 -22 -28c-18 0 -38 14 -38 27s11 33 29 33z" />
    <glyph glyph-name="d_t" unicode="dt" horiz-adv-x="425" 
d="M202 218c11 46 30 115 72 204s89 128 124 128c28 0 44 -20 44 -48s-9 -76 -65 -166c-67 -107 -138 -169 -150 -193c-9 -19 -13 -44 -13 -71c0 -57 22 -64 29 -66c8 -3 15 -3 15 -8c0 -9 -15 -20 -35 -20c-45 0 -52 41 -52 81v22c-45 -56 -106 -91 -140 -91
c-19 0 -50 15 -50 55c0 72 99 191 164 191c37 0 52 -18 57 -18zM392 513c-10 0 -42 -23 -85 -108s-66 -193 -66 -193s59 61 107 147c44 78 55 106 55 135c0 8 0 18 -11 19zM145 195c-47 -3 -120 -102 -120 -140c0 -16 12 -23 23 -23c34 0 135 107 134 132c-4 0 -14 2 -15 14
c-1 11 -12 17 -22 17zM370 280c0 12 16 20 40 26c30 53 60 103 84 135c16 22 28 35 40 35c13 0 22 -6 22 -19c0 -12 -2 -20 -22 -35c-17 -14 -36 -43 -70 -100c21 6 43 11 64 11c35 0 53 -12 53 -32c0 -18 -17 -39 -30 -39c-10 0 -12 3 -12 9s2 10 2 15c0 8 -13 10 -28 10
c-22 0 -49 -13 -77 -23c-54 -97 -115 -244 -115 -295c0 -23 14 -24 14 -43c0 -8 -7 -20 -22 -20c-14 0 -32 17 -32 55c0 63 57 199 106 294c-10 0 -17 3 -17 16z" />
    <glyph glyph-name="f_b" unicode="fb" horiz-adv-x="487" 
d="M225 205c-63 -17 -130 -19 -148 -19c-45 -101 -89 -235 -89 -305c0 -17 5 -17 5 -35c0 -8 -11 -18 -21 -18s-22 10 -22 38c0 80 42 227 81 316c-16 0 -31 0 -31 12c0 15 8 29 24 29h25c44 118 143 323 241 323c29 0 54 -15 54 -32c0 -20 -14 -37 -26 -37
c-9 0 -16 5 -16 13c0 9 -2 14 -13 14c-78 0 -159 -192 -195 -281c25 0 88 1 146 23c23 58 51 115 80 167c61 113 118 158 163 158c22 0 38 -20 38 -40c0 -82 -96 -236 -242 -312c-9 -12 -32 -82 -32 -95c0 -2 0 -4 1 -4c6 0 11 6 18 15c47 57 102 107 158 107
c24 0 40 -19 40 -46c0 -84 -77 -194 -148 -194c-34 0 -44 16 -44 32c0 10 8 20 22 20c17 0 19 -6 28 -6c39 0 97 85 97 133c0 8 -7 16 -19 16c-22 0 -64 -41 -116 -97c-19 -21 -43 -56 -43 -72s-19 -33 -29 -33s-20 5 -20 37c0 54 13 114 33 173zM467 532
c-17 0 -61 -42 -107 -128c-42 -80 -54 -116 -58 -131c97 53 180 204 180 244c0 10 -5 15 -15 15z" />
    <glyph glyph-name="f_h" unicode="fh" horiz-adv-x="553" 
d="M450 35c37 0 99 74 135 122c12 15 20 25 31 25c9 0 14 -6 14 -14c0 -9 -4 -15 -16 -29c-47 -57 -126 -144 -176 -144c-39 0 -56 23 -56 62c0 26 15 74 15 84s-2 18 -15 18c-45 0 -140 -99 -156 -151c-6 -21 -17 -28 -28 -28c-12 0 -20 12 -20 30c0 26 21 104 58 193
c-57 -14 -116 -17 -144 -17c-45 -101 -104 -235 -104 -305c0 -17 5 -17 5 -35c0 -8 -11 -18 -21 -18s-22 10 -22 38c0 80 58 227 96 316c-16 0 -31 0 -31 12c0 15 9 29 24 29h25c29 68 48 106 89 178c47 82 113 145 153 145c28 0 54 -15 54 -32c0 -20 -15 -37 -27 -37
c-9 0 -16 5 -16 13c0 9 -2 14 -13 14c-21 0 -60 -32 -108 -112c-30 -50 -48 -85 -87 -169c24 0 87 1 144 23c23 51 50 104 80 153c67 106 131 162 173 162c18 0 43 -16 43 -41c0 -30 -12 -92 -85 -177c-48 -55 -102 -101 -170 -130c-12 -24 -45 -104 -46 -111
c48 59 113 100 157 100c30 0 41 -16 41 -40c0 -25 -16 -78 -16 -99c0 -18 6 -28 20 -28zM497 519c-27 0 -77 -51 -126 -133c-49 -83 -64 -123 -64 -123s61 18 123 94c70 86 83 130 83 148c0 11 -7 14 -16 14z" />
    <glyph glyph-name="f_k" unicode="fk" horiz-adv-x="504" 
d="M393 35c47 0 107 74 144 122c11 15 20 25 30 25s14 -6 14 -14c0 -9 -4 -15 -15 -29c-46 -57 -113 -142 -183 -142c-54 0 -90 68 -90 90c0 12 37 14 84 48c20 14 40 32 40 44c0 8 -6 16 -14 16c-12 0 -49 -18 -103 -82c-34 -38 -61 -74 -61 -98c0 -8 -16 -24 -26 -24
s-26 5 -26 28s25 101 56 184c-56 -14 -122 -17 -151 -17c-45 -101 -104 -235 -104 -305c0 -17 5 -17 5 -35c0 -8 -11 -18 -21 -18s-22 10 -22 38c0 80 58 227 96 316c-16 0 -31 0 -31 12c0 15 9 29 24 29h25c29 68 48 106 89 178c47 82 113 145 153 145c28 0 54 -15 54 -32
c0 -20 -15 -37 -27 -37c-9 0 -16 5 -16 13c0 9 -2 14 -13 14c-21 0 -60 -32 -108 -112c-30 -50 -48 -85 -87 -169c16 0 91 2 151 23c23 57 47 113 66 151c56 107 107 163 160 163c18 0 41 -21 41 -39c0 -27 -16 -91 -80 -177c-59 -78 -137 -125 -157 -135
c-5 -5 -30 -71 -30 -82c0 -1 0 -1 1 -2c5 0 11 2 25 17c67 75 112 94 144 94c15 0 31 -17 31 -38c0 -67 -122 -113 -122 -121c0 -12 21 -42 54 -42zM475 521c-24 0 -70 -60 -110 -139c-39 -77 -53 -119 -55 -123c14 9 60 39 110 111c51 74 69 127 69 137c0 11 -6 14 -14 14z
" />
    <glyph glyph-name="ff" unicode="ff" horiz-adv-x="303" 
d="M205 190c-29 -1 -104 -2 -128 -4c-45 -101 -73 -212 -73 -281c0 -17 4 -18 4 -36c0 -8 -10 -18 -20 -18s-23 10 -23 38c0 80 27 204 66 293c-16 0 -31 0 -31 12c0 15 8 29 24 29h25c54 135 163 323 249 323c28 0 54 -15 54 -32c0 -20 -15 -37 -26 -37c-10 0 -16 5 -16 13
c0 9 -3 14 -14 14c-61 0 -162 -178 -202 -281h128c29 68 47 106 89 178c47 82 121 145 160 145c29 0 54 -15 54 -32c0 -20 -14 -37 -26 -37c-9 0 -16 5 -16 13c0 9 -3 14 -13 14c-22 0 -68 -32 -117 -112c-30 -50 -47 -85 -86 -169h111c10 0 17 -8 17 -16s-7 -14 -15 -14
c-44 0 -92 0 -130 -4c-45 -100 -104 -238 -104 -308c0 -17 5 -17 5 -35c0 -8 -11 -18 -21 -18s-22 10 -22 38c0 80 58 236 97 324z" />
    <glyph glyph-name="fi" unicode="fi" horiz-adv-x="318" 
d="M205 36c29 0 101 73 138 121c11 15 20 25 30 25s14 -6 14 -14c0 -9 -4 -15 -15 -29c-48 -57 -138 -142 -188 -142c-17 0 -41 18 -41 51c0 37 36 114 53 145c-38 -1 -77 -4 -108 -7c-46 -101 -104 -235 -104 -305c0 -17 4 -17 4 -35c0 -8 -10 -18 -20 -18s-23 10 -23 38
c0 80 58 227 97 316c-17 0 -31 0 -31 12c0 15 8 29 24 29h24c30 68 48 106 90 178c47 82 120 145 160 145c28 0 54 -15 54 -32c0 -20 -15 -37 -27 -37c-9 0 -16 5 -16 13c0 9 -2 14 -13 14c-21 0 -68 -32 -116 -112c-30 -50 -48 -85 -86 -169h108c6 10 13 17 22 17
s24 -7 24 -18s-10 -21 -20 -36c-22 -38 -52 -108 -52 -130c0 -9 5 -20 18 -20zM340 419c10 0 22 -8 22 -28c0 -24 -26 -38 -39 -38c-12 0 -17 21 -17 35s14 31 34 31z" />
    <glyph glyph-name="fl" unicode="fl" 
d="M259 31c43 0 119 78 155 126c12 15 20 25 31 25c9 0 14 -6 14 -14c0 -9 -4 -15 -15 -29c-48 -57 -135 -145 -192 -145c-33 0 -72 27 -72 73c0 28 13 77 34 132c-56 -12 -112 -13 -126 -13c-46 -101 -104 -235 -104 -305c0 -17 4 -17 4 -35c0 -8 -10 -18 -20 -18
s-23 10 -23 38c0 80 58 227 97 316c-17 0 -31 0 -31 12c0 15 8 29 24 29h24c43 99 144 323 242 323c29 0 54 -15 54 -32c0 -20 -15 -37 -26 -37c-9 0 -16 5 -16 13c0 9 -3 14 -13 14c-78 0 -153 -195 -195 -281c14 0 72 2 125 16c63 147 170 319 248 319c19 0 39 -21 39 -41
c0 -66 -101 -237 -252 -308c-16 -29 -39 -109 -39 -131c0 -29 11 -47 33 -47zM459 512c-36 0 -153 -196 -172 -249c93 41 187 208 187 235c0 10 -5 14 -15 14z" />
    <glyph glyph-name="o_f" unicode="of" horiz-adv-x="381" 
d="M282 182c-10 -1 -20 -1 -30 -1c-17 0 -35 1 -52 5c1 -1 3 -5 3 -11c0 -8 -3 -21 -10 -43c-20 -60 -67 -139 -137 -139c-28 0 -56 21 -56 64c0 93 78 182 148 182c37 0 54 -12 75 -16c9 -1 17 -2 28 -2c12 0 29 1 49 2c29 68 47 106 89 178c47 82 121 145 160 145
c28 0 54 -15 54 -32c0 -20 -15 -37 -26 -37c-10 0 -16 5 -16 13c0 9 -3 14 -14 14c-21 0 -67 -32 -116 -112c-30 -50 -48 -85 -86 -169h111c10 0 17 -8 17 -16s-7 -14 -15 -14c-44 0 -92 -4 -130 -7c-45 -101 -104 -235 -104 -305c0 -17 5 -17 5 -35c0 -8 -11 -18 -21 -18
s-22 10 -22 38c0 80 57 227 96 316zM142 194c-43 0 -100 -72 -100 -137c0 -18 12 -29 25 -29c39 0 90 90 90 120c0 3 -15 8 -15 21c0 10 3 18 3 22c0 2 -1 3 -3 3z" />
    <glyph glyph-name="o_x" unicode="ox" horiz-adv-x="507" 
d="M312 234c41 0 42 -78 47 -78c4 0 43 37 68 76c16 23 25 37 37 37c9 0 18 -7 18 -16c0 -12 -14 -26 -25 -41c-23 -33 -86 -100 -86 -107c0 -6 19 -68 42 -68c31 0 91 72 127 120c11 15 20 25 31 25c9 0 13 -6 13 -14c0 -9 -3 -15 -15 -29c-48 -57 -119 -145 -164 -145
c-40 0 -62 66 -70 66c-7 0 -66 -65 -108 -102c-15 -13 -22 -21 -35 -21c-12 0 -19 8 -19 20c0 8 9 16 23 27c42 32 124 119 124 135c0 15 -14 67 -24 67c-27 0 -41 -45 -98 -47c-21 -60 -72 -146 -142 -146c-28 0 -56 21 -56 64c0 93 78 182 148 182c37 0 54 -18 54 -33
c0 -8 6 -15 22 -15c32 0 59 43 88 43zM142 194c-43 0 -100 -72 -100 -137c0 -18 12 -29 25 -29c39 0 90 90 90 120c0 3 -15 8 -15 21c0 10 3 18 3 22c0 2 -1 3 -3 3z" />
    <glyph glyph-name="o_z" unicode="oz" 
d="M336 231c30 0 44 -21 44 -37c0 -50 -69 -120 -69 -126c0 -9 70 -14 70 -112c0 -13 -1 -23 -1 -28c7 3 26 8 50 8c25 0 55 -15 55 -32c0 -16 -12 -23 -22 -23c-17 0 -18 20 -41 20c-40 0 -49 -18 -52 -28c-11 -45 -30 -108 -70 -175c-41 -66 -97 -125 -156 -125
c-46 0 -62 34 -62 57c0 40 17 90 84 159c66 68 143 111 167 123c2 1 6 15 6 38c0 32 -9 74 -51 77c-19 1 -45 6 -45 25c0 18 19 20 37 38c19 18 53 67 53 84c0 8 -6 13 -14 13c-23 0 -59 -45 -121 -47c-21 -60 -72 -147 -142 -147c-28 0 -56 21 -56 64c0 93 78 182 148 182
c37 0 54 -18 54 -33c0 -8 4 -24 21 -24c40 0 77 49 113 49zM142 194c-43 0 -100 -72 -100 -137c0 -18 12 -29 25 -29c39 0 90 90 90 120c0 3 -15 8 -15 21c0 10 3 18 3 22c0 2 -1 3 -3 3zM323 -143c0 0 -70 -28 -131 -93c-60 -67 -68 -104 -68 -131c0 -16 10 -23 20 -23
c48 0 82 43 122 108c40 66 52 108 57 139z" />
    <glyph glyph-name="q_j" unicode="qj" horiz-adv-x="444" 
d="M387 413c19 0 32 -20 32 -32s-4 -28 -22 -28c-19 0 -38 14 -38 27s11 33 28 33zM356 246c7 0 26 -10 26 -22c0 -18 -9 -81 -9 -104c0 -5 0 -9 1 -9c8 0 41 31 93 65c13 8 27 14 36 14c11 0 16 -11 16 -18c0 -10 -16 -15 -35 -28c-44 -29 -107 -65 -127 -109
c-7 -18 -10 -120 -62 -248s-117 -174 -152 -174c-19 0 -48 19 -48 57c0 37 13 97 70 191c64 105 149 181 155 194s17 155 17 169s5 22 19 22zM303 -13c0 0 -46 -55 -107 -151c-46 -71 -60 -145 -60 -162c0 -16 9 -21 15 -21c20 0 59 40 105 151c24 55 47 120 47 183z
M166 171c0 13 -7 22 -20 22c-43 0 -124 -85 -124 -136c0 -13 9 -22 18 -22c25 0 126 102 126 136zM70 -293c0 -28 -9 -45 -24 -45c-8 0 -20 7 -20 17c0 52 44 175 79 264c35 88 76 179 75 179c-48 -60 -116 -125 -153 -125c-24 0 -46 28 -46 55c0 84 111 177 168 177
c28 0 49 -30 54 -30c0 0 43 66 52 66c8 0 21 -12 21 -19c0 -8 -10 -20 -34 -73c-53 -116 -69 -146 -111 -257c-13 -34 -61 -184 -61 -209z" />
    <glyph glyph-name="t_b" unicode="tb" horiz-adv-x="460" 
d="M439 532c-32 0 -109 -105 -160 -233c102 26 175 178 175 218c0 10 -5 15 -15 15zM131 281c8 -2 25 -4 45 -4c18 0 37 2 54 5c54 145 139 289 225 289c22 0 39 -20 39 -40c0 -82 -79 -228 -231 -278c-9 -11 -37 -116 -37 -129v-4c7 0 12 6 19 15c46 57 101 107 158 107
c24 0 40 -19 40 -46c0 -84 -77 -194 -149 -194c-34 0 -44 16 -44 32c0 10 9 20 23 20c17 0 18 -6 27 -6c40 0 97 85 97 133c0 8 -7 16 -18 16c-22 0 -65 -41 -116 -97c-20 -21 -44 -56 -44 -72s-19 -33 -29 -33s-19 5 -19 37c0 47 17 127 45 211c-18 -3 -37 -4 -54 -4
s-33 1 -46 3c-35 -93 -61 -182 -61 -234c0 -13 7 -18 7 -27c0 -8 -7 -20 -22 -20s-25 15 -25 40c0 58 21 148 60 249c-13 0 -50 12 -50 33c0 13 10 25 26 25c18 0 24 -19 41 -19c17 46 50 103 77 137c18 24 28 34 40 34c14 0 22 -6 22 -18s-2 -20 -22 -35
c-17 -14 -63 -81 -78 -126z" />
    <glyph glyph-name="t_h" unicode="th" horiz-adv-x="514" 
d="M213 241c-13 -2 -24 -2 -36 -2c-20 0 -38 2 -54 4c-44 -83 -79 -183 -79 -235c0 -13 6 -18 6 -27c0 -8 -7 -20 -22 -20c-14 0 -24 15 -24 40c0 58 34 154 83 249c-13 0 -50 12 -50 33c0 13 10 25 25 25c19 0 27 -17 44 -19c23 47 63 103 90 137c18 24 28 34 40 34
c13 0 22 -6 22 -18s-2 -20 -22 -35c-17 -14 -66 -74 -90 -125c10 -2 27 -6 48 -6c12 0 24 1 36 4c19 40 41 81 65 119c66 106 131 162 172 162c19 0 44 -16 44 -41c0 -56 -57 -213 -247 -274c-11 -19 -53 -137 -55 -144c48 59 114 100 158 100c30 0 40 -16 40 -40
c0 -25 -15 -78 -15 -99c0 -18 5 -28 20 -28c36 0 99 74 135 122c11 15 20 25 30 25s14 -6 14 -14c0 -9 -3 -15 -15 -29c-48 -57 -126 -144 -176 -144c-40 0 -57 23 -57 62c0 26 15 74 15 84s-1 18 -15 18c-44 0 -140 -99 -155 -151c-6 -21 -17 -28 -29 -28
c-11 0 -20 12 -20 30c0 30 28 126 74 231zM459 519c-27 0 -76 -52 -126 -133c-28 -46 -56 -98 -56 -98c144 54 197 191 197 217c0 11 -7 14 -15 14z" />
    <glyph glyph-name="t_k" unicode="tk" horiz-adv-x="445" 
d="M194 240c-10 -1 -22 -1 -33 -1c-18 0 -31 0 -46 3c-40 -90 -69 -182 -69 -234c0 -13 6 -18 6 -27c0 -8 -7 -20 -21 -20c-15 0 -25 15 -25 40c0 58 22 146 68 249c-13 0 -50 12 -50 33c0 13 10 25 25 25c19 0 26 -19 44 -19c22 47 47 98 73 137c17 24 29 34 41 34
c13 0 24 -7 24 -19s-5 -24 -26 -39c-18 -13 -50 -72 -75 -123c9 -3 23 -4 39 -4c13 0 27 1 41 3c16 37 33 73 49 105c57 104 114 177 168 177c18 0 40 -21 40 -39c0 -64 -77 -231 -227 -278c-4 -10 -39 -105 -39 -116c0 -1 0 -1 1 -2c4 0 11 2 24 17c67 75 113 94 144 94
c16 0 32 -17 32 -38c0 -67 -122 -113 -122 -121c0 -12 21 -42 53 -42c47 0 108 74 144 122c12 15 20 25 31 25c9 0 14 -6 14 -14c0 -9 -4 -15 -15 -29c-47 -57 -114 -142 -183 -142c-55 0 -91 68 -91 90c0 12 38 14 84 48c20 14 41 32 41 44c0 8 -6 16 -15 16
c-11 0 -48 -18 -103 -82c-33 -38 -60 -74 -60 -98c0 -8 -16 -24 -26 -24s-26 5 -26 28c0 29 28 124 66 221zM416 521c-26 0 -100 -109 -154 -233c104 39 168 190 168 219c0 11 -7 14 -14 14z" />
    <glyph glyph-name="t_l" unicode="tl" horiz-adv-x="355" 
d="M197 240c-10 -1 -23 -1 -35 -1c-17 0 -30 0 -46 3c-40 -90 -68 -182 -68 -234c0 -13 6 -18 6 -27c0 -8 -7 -20 -22 -20c-14 0 -24 15 -24 40c0 58 21 146 67 249c-13 0 -50 12 -50 33c0 13 10 25 26 25c18 0 26 -19 44 -19c22 47 47 98 73 137c17 24 28 34 41 34
s24 -7 24 -19s-5 -24 -27 -39c-17 -13 -50 -72 -74 -123c8 -3 23 -4 39 -4c12 0 28 1 42 3c20 45 41 90 63 126c60 103 105 154 161 154c19 0 39 -21 39 -41c0 -60 -82 -228 -231 -271c-15 -26 -45 -103 -45 -168c0 -29 11 -47 33 -47c43 0 119 78 155 126
c12 15 20 25 31 25c9 0 14 -6 14 -14c0 -9 -4 -15 -16 -29c-47 -57 -134 -145 -191 -145c-33 0 -72 27 -72 73c0 45 18 109 43 173zM417 512c-31 0 -111 -114 -160 -224c114 33 175 188 175 210c0 10 -5 14 -15 14z" />
    <glyph glyph-name="t_t" unicode="tt" horiz-adv-x="272" 
d="M230 259c-30 -11 -77 -17 -104 -17c-5 0 -9 1 -12 1c-41 -82 -84 -183 -84 -235c0 -13 6 -18 6 -27c0 -8 -7 -20 -21 -20c-15 0 -25 15 -25 40c0 58 35 154 83 249c-13 0 -50 12 -50 33c0 13 10 25 26 25c18 0 26 -19 43 -19c23 47 64 103 90 137c18 24 28 34 41 34
s21 -6 21 -18s-2 -20 -21 -35c-17 -14 -67 -74 -91 -125c2 -1 4 -1 8 -1c26 0 85 11 116 24c29 52 60 104 84 136c17 22 29 35 41 35c13 0 22 -6 22 -19c0 -12 -3 -20 -22 -35c-17 -14 -36 -43 -70 -100c21 6 42 11 64 11c35 0 53 -12 53 -32c0 -18 -18 -39 -31 -39
c-9 0 -11 3 -11 9s2 10 2 15c0 8 -13 10 -28 10c-22 0 -49 -13 -77 -23c-54 -97 -115 -242 -115 -311c0 -22 14 -24 14 -43c0 -8 -7 -19 -22 -19c-14 0 -32 17 -32 55c0 81 54 208 102 304z" />
    <glyph glyph-name="y_t" unicode="yt" horiz-adv-x="377" 
d="M297 308c16 0 19 -7 31 -7c10 0 22 2 32 4c30 52 61 104 85 136c16 22 29 35 41 35c13 0 21 -6 21 -19c0 -12 -2 -20 -21 -35c-17 -14 -36 -43 -70 -100c21 6 42 11 64 11c34 0 53 -12 53 -32c0 -18 -18 -39 -31 -39c-9 0 -12 3 -12 9s3 10 3 15c0 8 -13 10 -29 10
c-21 0 -48 -13 -77 -23c-44 -84 -72 -167 -72 -218c0 -23 14 -24 14 -43c0 -8 -7 -20 -22 -20c-14 0 -32 17 -32 55c0 63 21 129 60 212c-7 -2 -14 -2 -21 -2c-30 0 -42 12 -42 26c0 13 10 25 25 25zM87 233c15 0 25 -8 25 -17c0 -8 -3 -19 -16 -38
c-21 -32 -46 -114 -46 -123c0 -10 2 -14 8 -14c24 0 96 100 115 129c14 21 28 42 35 49c8 9 29 16 37 16s17 -3 17 -16s-15 -32 -18 -86s-12 -168 -12 -178c0 -7 2 -12 7 -12c43 0 112 -2 112 -59c0 -20 -11 -42 -31 -42c-19 0 -24 11 -24 22c0 10 10 16 10 26
c0 17 -49 17 -64 17c-8 0 -13 -5 -16 -19c-3 -18 -23 -117 -74 -214c-47 -90 -100 -131 -158 -131c-36 0 -71 30 -71 73c0 45 25 109 99 188c74 80 160 127 160 127c10 88 17 186 17 191s0 18 -4 18c-1 0 -3 -1 -4 -3c-26 -38 -105 -143 -156 -143c-17 0 -33 13 -33 40
s30 118 43 149c14 32 27 50 42 50zM165 -131c-6 0 -56 -25 -119 -99c-62 -74 -81 -120 -81 -157c0 -20 16 -33 32 -33c45 0 82 52 116 113c50 88 58 169 58 169s-1 7 -6 7z" />
    <glyph glyph-name="z_f" unicode="zf" horiz-adv-x="331" 
d="M209 194c0 15 8 29 24 29h40c41 120 127 323 226 323c28 0 54 -15 54 -32c0 -20 -15 -37 -26 -37c-10 0 -16 5 -16 13c0 9 -3 14 -14 14c-67 0 -154 -184 -184 -281h100c10 0 17 -8 17 -16s-7 -14 -14 -14c-44 0 -77 -3 -115 -7c-21 -50 -50 -144 -50 -174
c0 -17 5 -17 5 -35c0 -9 -11 -18 -21 -18s-25 10 -25 38c0 61 26 130 45 185c-32 0 -46 0 -46 12zM20 134c0 6 5 15 13 25c47 57 73 72 99 72c30 0 44 -21 44 -37c0 -50 -69 -120 -69 -126c0 -9 70 -14 70 -112c0 -13 -1 -23 -1 -28c7 3 26 8 50 8c25 0 55 -15 55 -32
c0 -16 -12 -23 -22 -23c-17 0 -18 20 -41 20c-40 0 -49 -18 -52 -28c-11 -45 -30 -108 -71 -175c-40 -66 -96 -125 -155 -125c-46 0 -62 34 -62 57c0 40 17 90 83 159c67 68 144 111 168 123c2 1 6 15 6 38c0 32 -9 74 -51 77c-19 1 -45 6 -45 25c0 18 19 20 37 38
c19 18 53 67 53 84c0 8 -6 13 -14 13c-15 0 -27 -14 -61 -56c-5 -7 -10 -12 -20 -12c-8 0 -14 8 -14 15zM119 -143c0 0 -70 -28 -131 -93c-60 -67 -68 -104 -68 -131c0 -16 10 -23 20 -23c48 0 82 43 122 108c40 66 52 108 57 139z" />
    <glyph glyph-name=".notdef" horiz-adv-x="213" 
 />
    <glyph glyph-name=".null" horiz-adv-x="0" 
 />
    <glyph glyph-name=".null" horiz-adv-x="0" 
 />
    <glyph glyph-name="CR" unicode="&#xd;" horiz-adv-x="139" 
 />
    <glyph glyph-name="space" unicode=" " horiz-adv-x="150" 
 />
    <glyph glyph-name="Abreve" unicode="&#x102;" horiz-adv-x="597" 
d="M286 232c-92 0 -127 -19 -134 -26c-6 -7 -12 -19 -24 -19c-16 0 -23 11 -23 23c0 21 27 53 180 53c40 0 81 -2 118 -4c95 88 174 175 198 199c49 49 82 86 100 86c19 0 33 -9 33 -27c0 -17 -5 -21 -35 -62c-34 -45 -87 -137 -123 -212l67 -9c18 -2 33 -8 33 -21
c0 -10 -2 -21 -18 -21c-17 0 -39 12 -97 19c-31 -73 -54 -152 -54 -206c0 -17 5 -18 5 -36c0 -8 -11 -18 -21 -18s-37 10 -37 38c0 47 25 141 62 228c-29 3 -59 7 -93 9c-123 -116 -252 -230 -361 -230c-81 0 -114 44 -114 75c0 19 11 35 30 35c20 0 24 -14 24 -27
c0 -24 14 -44 57 -44c98 0 204 97 313 194c-28 2 -56 3 -86 3zM647 457c-29 -31 -104 -114 -194 -201c27 -3 54 -5 78 -8c35 75 78 142 116 209zM698 574c-36 0 -77 27 -77 65c0 13 10 29 26 29c10 0 22 -4 22 -21c0 -6 -5 -11 -5 -18c0 -11 16 -22 37 -22c31 0 54 17 54 28
c0 23 15 33 27 33c10 0 21 -7 21 -19c0 -13 -7 -26 -15 -35c-21 -24 -43 -40 -90 -40z" />
    <glyph glyph-name="Acircumflex" unicode="&#xc2;" horiz-adv-x="597" 
d="M286 232c-92 0 -127 -19 -134 -26c-6 -7 -12 -19 -24 -19c-16 0 -23 11 -23 23c0 21 27 53 180 53c40 0 81 -2 118 -4c95 88 174 175 198 199c49 49 82 86 100 86c19 0 33 -9 33 -27c0 -17 -5 -21 -35 -62c-34 -45 -87 -137 -123 -212l67 -9c18 -2 33 -8 33 -21
c0 -10 -2 -21 -18 -21c-17 0 -39 12 -97 19c-31 -73 -54 -152 -54 -206c0 -17 5 -18 5 -36c0 -8 -11 -18 -21 -18s-37 10 -37 38c0 47 25 141 62 228c-29 3 -59 7 -93 9c-123 -116 -252 -230 -361 -230c-81 0 -114 44 -114 75c0 19 11 35 30 35c20 0 24 -14 24 -27
c0 -24 14 -44 57 -44c98 0 204 97 313 194c-28 2 -56 3 -86 3zM647 457c-29 -31 -104 -114 -194 -201c27 -3 54 -5 78 -8c35 75 78 142 116 209zM698 600c-29 -16 -70 -37 -78 -37c-6 0 -10 3 -10 8s4 8 11 13c19 11 32 22 53 47c9 11 15 20 31 20c17 0 18 -10 24 -23
c9 -20 19 -35 28 -44c5 -7 11 -8 11 -13c0 -6 -3 -8 -9 -8c-7 0 -27 5 -61 37z" />
    <glyph glyph-name="Adieresis" unicode="&#xc4;" horiz-adv-x="597" 
d="M286 232c-92 0 -127 -19 -134 -26c-6 -7 -12 -19 -24 -19c-16 0 -23 11 -23 23c0 21 27 53 180 53c40 0 81 -2 118 -4c95 88 174 175 198 199c49 49 82 86 100 86c19 0 33 -9 33 -27c0 -17 -5 -21 -35 -62c-34 -45 -87 -137 -123 -212l67 -9c18 -2 33 -8 33 -21
c0 -10 -2 -21 -18 -21c-17 0 -39 12 -97 19c-31 -73 -54 -152 -54 -206c0 -17 5 -18 5 -36c0 -8 -11 -18 -21 -18s-37 10 -37 38c0 47 25 141 62 228c-29 3 -59 7 -93 9c-123 -116 -252 -230 -361 -230c-81 0 -114 44 -114 75c0 19 11 35 30 35c20 0 24 -14 24 -27
c0 -24 14 -44 57 -44c98 0 204 97 313 194c-28 2 -56 3 -86 3zM647 457c-29 -31 -104 -114 -194 -201c27 -3 54 -5 78 -8c35 75 78 142 116 209zM653 588c0 18 19 48 44 48c11 0 15 -8 15 -18c0 -20 -16 -48 -42 -48c-12 0 -17 8 -17 18zM738 588c0 18 19 48 44 48
c11 0 15 -8 15 -18c0 -20 -16 -48 -42 -48c-12 0 -17 8 -17 18z" />
    <glyph glyph-name="Agrave" unicode="&#xc0;" horiz-adv-x="597" 
d="M286 232c-92 0 -127 -19 -134 -26c-6 -7 -12 -19 -24 -19c-16 0 -23 11 -23 23c0 21 27 53 180 53c40 0 81 -2 118 -4c95 88 174 175 198 199c49 49 82 86 100 86c19 0 33 -9 33 -27c0 -17 -5 -21 -35 -62c-34 -45 -87 -137 -123 -212l67 -9c18 -2 33 -8 33 -21
c0 -10 -2 -21 -18 -21c-17 0 -39 12 -97 19c-31 -73 -54 -152 -54 -206c0 -17 5 -18 5 -36c0 -8 -11 -18 -21 -18s-37 10 -37 38c0 47 25 141 62 228c-29 3 -59 7 -93 9c-123 -116 -252 -230 -361 -230c-81 0 -114 44 -114 75c0 19 11 35 30 35c20 0 24 -14 24 -27
c0 -24 14 -44 57 -44c98 0 204 97 313 194c-28 2 -56 3 -86 3zM647 457c-29 -31 -104 -114 -194 -201c27 -3 54 -5 78 -8c35 75 78 142 116 209zM675 662c6 0 11 -2 16 -10c18 -31 44 -62 61 -67c8 -2 10 -6 10 -10s-4 -11 -13 -11c-18 0 -55 19 -81 44
c-11 11 -15 16 -15 26c0 12 13 28 22 28z" />
    <glyph glyph-name="Aogonek" unicode="&#x104;" horiz-adv-x="597" 
d="M494 -13c-9 0 -23 -5 -37 -14c-2 5 -3 10 -3 16c0 47 25 141 62 228c-29 3 -59 7 -93 9c-123 -116 -252 -230 -361 -230c-81 0 -114 44 -114 75c0 19 11 35 30 35c20 0 24 -14 24 -27c0 -24 14 -44 57 -44c98 0 204 97 313 194c-28 2 -56 3 -86 3
c-92 0 -127 -19 -134 -26c-6 -7 -12 -19 -24 -19c-16 0 -23 11 -23 23c0 21 27 53 180 53c40 0 81 -2 118 -4c95 88 174 175 198 199c49 49 82 86 100 86c19 0 33 -9 33 -27c0 -17 -5 -21 -35 -62c-34 -45 -87 -137 -123 -212l67 -9c18 -2 33 -8 33 -21
c0 -10 -2 -21 -18 -21c-17 0 -39 12 -97 19c-31 -73 -54 -152 -54 -206c0 -17 5 -18 5 -36c0 -8 -11 -18 -21 -18c-4 0 -13 3 -20 7c8 7 16 11 21 13c5 1 10 4 10 9s-3 7 -8 7zM647 457c-29 -31 -104 -114 -194 -201c27 -3 54 -5 78 -8c35 75 78 142 116 209zM471 -42
c-5 4 -11 9 -14 15c-23 -15 -48 -40 -48 -71c0 -35 41 -59 58 -59c18 0 27 28 27 31c0 4 -2 6 -9 6c-17 0 -43 12 -43 34c0 16 15 33 29 44z" />
    <glyph glyph-name="Aring" unicode="&#xc5;" horiz-adv-x="597" 
d="M286 232c-92 0 -127 -19 -134 -26c-6 -7 -12 -19 -24 -19c-16 0 -23 11 -23 23c0 21 27 53 180 53c40 0 81 -2 118 -4c95 88 174 175 198 199c49 49 82 86 100 86c19 0 33 -9 33 -27c0 -17 -5 -21 -35 -62c-34 -45 -87 -137 -123 -212l67 -9c18 -2 33 -8 33 -21
c0 -10 -2 -21 -18 -21c-17 0 -39 12 -97 19c-31 -73 -54 -152 -54 -206c0 -17 5 -18 5 -36c0 -8 -11 -18 -21 -18s-37 10 -37 38c0 47 25 141 62 228c-29 3 -59 7 -93 9c-123 -116 -252 -230 -361 -230c-81 0 -114 44 -114 75c0 19 11 35 30 35c20 0 24 -14 24 -27
c0 -24 14 -44 57 -44c98 0 204 97 313 194c-28 2 -56 3 -86 3zM647 457c-29 -31 -104 -114 -194 -201c27 -3 54 -5 78 -8c35 75 78 142 116 209zM674 611c0 36 32 70 68 70c28 0 47 -20 47 -47c0 -34 -32 -70 -68 -70c-28 0 -47 17 -47 47zM739 651c-14 0 -34 -21 -34 -39
c0 -11 9 -18 19 -18c14 0 33 22 33 41c0 9 -8 16 -18 16z" />
    <glyph glyph-name="Atilde" unicode="&#xc3;" horiz-adv-x="597" 
d="M286 232c-92 0 -127 -19 -134 -26c-6 -7 -12 -19 -24 -19c-16 0 -23 11 -23 23c0 21 27 53 180 53c40 0 81 -2 118 -4c95 88 174 175 198 199c49 49 82 86 100 86c19 0 33 -9 33 -27c0 -17 -5 -21 -35 -62c-34 -45 -87 -137 -123 -212l67 -9c18 -2 33 -8 33 -21
c0 -10 -2 -21 -18 -21c-17 0 -39 12 -97 19c-31 -73 -54 -152 -54 -206c0 -17 5 -18 5 -36c0 -8 -11 -18 -21 -18s-37 10 -37 38c0 47 25 141 62 228c-29 3 -59 7 -93 9c-123 -116 -252 -230 -361 -230c-81 0 -114 44 -114 75c0 19 11 35 30 35c20 0 24 -14 24 -27
c0 -24 14 -44 57 -44c98 0 204 97 313 194c-28 2 -56 3 -86 3zM647 457c-29 -31 -104 -114 -194 -201c27 -3 54 -5 78 -8c35 75 78 142 116 209zM741 569c-26 0 -49 21 -76 21c-14 0 -27 -11 -34 -11c-5 0 -9 2 -9 9c0 9 30 43 53 43c26 0 47 -21 75 -21c13 0 32 14 38 14
s8 -2 8 -7c0 -9 -28 -48 -55 -48z" />
    <glyph glyph-name="B" unicode="B" horiz-adv-x="566" 
d="M383 455c14 0 27 -13 27 -25c0 -23 -69 -53 -137 -174c-37 -65 -59 -115 -71 -156c12 7 25 13 38 20c66 33 142 56 208 72c-17 21 -46 30 -86 30c-18 0 -36 -5 -49 -5c-10 0 -17 3 -17 15c0 23 19 27 57 37c74 19 186 94 186 186c0 42 -39 52 -85 52
c-180 0 -452 -180 -452 -281c0 -9 8 -17 8 -27c0 -15 -14 -26 -29 -26c-16 0 -26 9 -26 32c0 150 285 339 521 339c88 0 114 -43 114 -83c0 -68 -66 -155 -160 -206c5 -4 41 -17 64 -53c61 11 110 17 131 17c19 0 34 -6 34 -19s-11 -20 -38 -20c-17 0 -59 -3 -112 -12
c3 -12 5 -26 5 -40c0 -168 -254 -376 -442 -376c-74 0 -115 47 -115 95c0 81 85 158 195 225c12 48 36 115 79 193c80 145 135 190 152 190zM468 126c0 12 -1 23 -4 33c-67 -14 -146 -37 -215 -74c-20 -10 -40 -22 -60 -33c-4 -25 -4 -46 -4 -64c0 -9 0 -23 -13 -23
s-34 11 -34 30c0 4 1 13 2 27c-87 -58 -145 -118 -145 -171c0 -43 40 -60 81 -60c162 0 392 207 392 335z" />
    <glyph glyph-name="C" unicode="C" horiz-adv-x="470" 
d="M461 544c46 0 86 -23 86 -72c0 -92 -120 -203 -163 -203c-18 0 -25 8 -25 19s3 25 31 32c46 10 107 87 107 150c0 20 -10 34 -35 34c-146 0 -426 -275 -426 -490c0 -61 36 -105 91 -105c152 0 306 169 366 248c11 15 20 25 31 25c9 0 13 -6 13 -14c0 -9 -3 -15 -15 -29
c-82 -97 -244 -273 -397 -273c-83 0 -138 52 -138 138c0 245 295 540 474 540z" />
    <glyph glyph-name="Cacute" unicode="&#x106;" horiz-adv-x="470" 
d="M461 544c46 0 86 -23 86 -72c0 -92 -120 -203 -163 -203c-18 0 -25 8 -25 19s3 25 31 32c46 10 107 87 107 150c0 20 -10 34 -35 34c-146 0 -426 -275 -426 -490c0 -61 36 -105 91 -105c152 0 306 169 366 248c11 15 20 25 31 25c9 0 13 -6 13 -14c0 -9 -3 -15 -15 -29
c-82 -97 -244 -273 -397 -273c-83 0 -138 52 -138 138c0 245 295 540 474 540zM533 673c9 0 22 -16 22 -29c0 -10 -4 -14 -15 -26c-26 -24 -63 -43 -81 -43c-9 0 -13 4 -13 9c0 4 2 10 11 12c16 5 42 36 60 67c5 8 10 10 16 10z" />
    <glyph glyph-name="Ccaron" unicode="&#x10c;" horiz-adv-x="470" 
d="M461 544c46 0 86 -23 86 -72c0 -92 -120 -203 -163 -203c-18 0 -25 8 -25 19s3 25 31 32c46 10 107 87 107 150c0 20 -10 34 -35 34c-146 0 -426 -275 -426 -490c0 -61 36 -105 91 -105c152 0 306 169 366 248c11 15 20 25 31 25c9 0 13 -6 13 -14c0 -9 -3 -15 -15 -29
c-82 -97 -244 -273 -397 -273c-83 0 -138 52 -138 138c0 245 295 540 474 540zM474 569c-17 0 -31 22 -45 41s-19 35 -19 42c0 9 3 12 8 12s9 -5 17 -13c13 -14 37 -37 45 -37c15 0 42 19 61 37c6 7 11 12 18 12c4 0 8 -2 8 -9c0 -8 -5 -13 -34 -45c-19 -21 -46 -40 -59 -40
z" />
    <glyph glyph-name="Ccedilla" unicode="&#xc7;" horiz-adv-x="470" 
d="M139 -129h-39l-1 -3c-69 10 -112 60 -112 136c0 245 295 540 474 540c46 0 86 -23 86 -72c0 -92 -120 -203 -163 -203c-18 0 -25 8 -25 19s3 25 31 32c46 10 107 87 107 150c0 20 -10 34 -35 34c-146 0 -426 -275 -426 -490c0 -61 36 -105 91 -105c152 0 306 169 366 248
c11 15 20 25 31 25c9 0 13 -6 13 -14c0 -9 -3 -15 -15 -29c-80 -94 -234 -261 -383 -272v4zM125 -134c-10 0 -18 1 -26 2c-3 -7 -9 -27 -9 -34c0 -8 8 -18 19 -18c17 0 45 5 61 11c-1 -25 -34 -46 -60 -46c-29 0 -32 20 -46 20c-12 0 -25 -14 -25 -27c0 -21 37 -25 57 -25
c47 0 112 35 112 86c0 14 -7 24 -20 24c-9 0 -25 -3 -36 -3c-6 0 -11 5 -13 11c-5 0 -10 -1 -14 -1z" />
    <glyph glyph-name="D" unicode="D" horiz-adv-x="562" 
d="M346 455c17 0 27 -13 27 -25c0 -10 -14 -20 -33 -39c-26 -24 -60 -67 -94 -139c-26 -53 -44 -100 -58 -139c129 66 245 88 329 96c34 64 54 127 54 185c0 69 -60 114 -143 114c-190 0 -433 -152 -433 -266c0 -9 5 -22 5 -32s-12 -21 -27 -21s-26 10 -26 31
c0 162 278 327 502 327c120 0 172 -78 172 -154c0 -57 -18 -119 -48 -180c27 2 48 2 60 2c18 0 34 -6 34 -19s-11 -18 -38 -18c-12 0 -41 0 -78 -3c-105 -180 -312 -344 -479 -344c-60 0 -105 27 -105 77c0 54 59 111 165 174c14 50 37 113 69 179c42 89 82 133 112 169
c14 18 27 25 33 25zM74 -132c139 0 318 142 419 301c-81 -10 -186 -33 -321 -105c-13 -46 -18 -81 -18 -106c0 -10 0 -23 -13 -23s-36 10 -36 29c0 8 4 31 12 65c-75 -51 -105 -84 -105 -117c0 -31 20 -44 62 -44z" />
    <glyph glyph-name="Dcaron" unicode="&#x10e;" horiz-adv-x="562" 
d="M346 455c17 0 27 -13 27 -25c0 -10 -14 -20 -33 -39c-26 -24 -60 -67 -94 -139c-26 -53 -44 -100 -58 -139c129 66 245 88 329 96c34 64 54 127 54 185c0 69 -60 114 -143 114c-190 0 -433 -152 -433 -266c0 -9 5 -22 5 -32s-12 -21 -27 -21s-26 10 -26 31
c0 162 278 327 502 327c120 0 172 -78 172 -154c0 -57 -18 -119 -48 -180c27 2 48 2 60 2c18 0 34 -6 34 -19s-11 -18 -38 -18c-12 0 -41 0 -78 -3c-105 -180 -312 -344 -479 -344c-60 0 -105 27 -105 77c0 54 59 111 165 174c14 50 37 113 69 179c42 89 82 133 112 169
c14 18 27 25 33 25zM74 -132c139 0 318 142 419 301c-81 -10 -186 -33 -321 -105c-13 -46 -18 -81 -18 -106c0 -10 0 -23 -13 -23s-36 10 -36 29c0 8 4 31 12 65c-75 -51 -105 -84 -105 -117c0 -31 20 -44 62 -44zM445 575c-16 0 -31 22 -45 41c-13 19 -19 35 -19 42
c0 9 4 12 9 12c4 0 8 -5 17 -13c13 -14 37 -36 45 -36c15 0 42 18 60 37c7 7 12 11 19 11c3 0 8 -1 8 -8c0 -9 -5 -14 -35 -46c-19 -21 -45 -40 -59 -40z" />
    <glyph glyph-name="Delta" unicode="&#x2206;" horiz-adv-x="345" 
d="M301 4l-277 1c-13 0 -19 9 -19 20c0 9 3 17 7 24c25 57 72 184 133 342c6 16 17 22 27 22c14 0 19 -8 25 -22c137 -355 137 -357 137 -360c0 -19 -15 -27 -33 -27zM71 57h202c-45 115 -75 195 -102 261c-29 -75 -73 -193 -100 -261z" />
    <glyph glyph-name="E" unicode="E" horiz-adv-x="425" 
d="M183 316c0 -21 21 -33 52 -33s68 18 81 18c14 0 24 -4 24 -28s-41 -20 -110 -57c-68 -37 -187 -142 -187 -229c0 -33 19 -75 81 -75c105 0 239 130 330 245c13 15 20 25 31 25c9 0 14 -6 14 -14c0 -9 -4 -15 -15 -29c-111 -128 -240 -268 -367 -268
c-77 0 -120 49 -120 110c0 109 111 205 198 265c-26 0 -66 21 -66 57c0 104 207 247 335 247c33 0 56 -16 56 -56c0 -38 -77 -133 -120 -133c-19 0 -26 9 -26 19c0 11 6 19 32 32c33 16 68 55 68 84c0 9 -7 15 -17 15c-100 0 -274 -126 -274 -195z" />
    <glyph glyph-name="Eacute" unicode="&#xc9;" horiz-adv-x="425" 
d="M183 316c0 -21 21 -33 52 -33s68 18 81 18c14 0 24 -4 24 -28s-41 -20 -110 -57c-68 -37 -187 -142 -187 -229c0 -33 19 -75 81 -75c105 0 239 130 330 245c13 15 20 25 31 25c9 0 14 -6 14 -14c0 -9 -4 -15 -15 -29c-111 -128 -240 -268 -367 -268
c-77 0 -120 49 -120 110c0 109 111 205 198 265c-26 0 -66 21 -66 57c0 104 207 247 335 247c33 0 56 -16 56 -56c0 -38 -77 -133 -120 -133c-19 0 -26 9 -26 19c0 11 6 19 32 32c33 16 68 55 68 84c0 9 -7 15 -17 15c-100 0 -274 -126 -274 -195zM493 669
c9 0 22 -16 22 -28c0 -10 -4 -15 -15 -27c-26 -24 -63 -43 -81 -43c-9 0 -13 4 -13 9c0 4 2 10 11 12c16 5 42 36 60 67c5 8 10 10 16 10z" />
    <glyph glyph-name="Ebreve" unicode="&#x114;" horiz-adv-x="425" 
d="M183 316c0 -21 21 -33 52 -33s68 18 81 18c14 0 24 -4 24 -28s-41 -20 -110 -57c-68 -37 -187 -142 -187 -229c0 -33 19 -75 81 -75c105 0 239 130 330 245c13 15 20 25 31 25c9 0 14 -6 14 -14c0 -9 -4 -15 -15 -29c-111 -128 -240 -268 -367 -268
c-77 0 -120 49 -120 110c0 109 111 205 198 265c-26 0 -66 21 -66 57c0 104 207 247 335 247c33 0 56 -16 56 -56c0 -38 -77 -133 -120 -133c-19 0 -26 9 -26 19c0 11 6 19 32 32c33 16 68 55 68 84c0 9 -7 15 -17 15c-100 0 -274 -126 -274 -195zM464 576
c-36 0 -77 27 -77 65c0 13 10 30 26 30c10 0 22 -5 22 -22c0 -6 -5 -11 -5 -18c0 -10 16 -22 37 -22c31 0 54 18 54 29c0 22 15 33 26 33s22 -7 22 -20s-7 -26 -15 -35c-21 -24 -43 -40 -90 -40z" />
    <glyph glyph-name="Ecircumflex" unicode="&#xca;" horiz-adv-x="425" 
d="M183 316c0 -21 21 -33 52 -33s68 18 81 18c14 0 24 -4 24 -28s-41 -20 -110 -57c-68 -37 -187 -142 -187 -229c0 -33 19 -75 81 -75c105 0 239 130 330 245c13 15 20 25 31 25c9 0 14 -6 14 -14c0 -9 -4 -15 -15 -29c-111 -128 -240 -268 -367 -268
c-77 0 -120 49 -120 110c0 109 111 205 198 265c-26 0 -66 21 -66 57c0 104 207 247 335 247c33 0 56 -16 56 -56c0 -38 -77 -133 -120 -133c-19 0 -26 9 -26 19c0 11 6 19 32 32c33 16 68 55 68 84c0 9 -7 15 -17 15c-100 0 -274 -126 -274 -195zM473 602
c-29 -16 -70 -37 -78 -37c-6 0 -10 3 -10 9c0 4 4 7 12 12c18 12 31 22 52 47c9 11 15 21 31 21c17 0 18 -10 24 -23c10 -20 20 -36 28 -45c5 -6 11 -8 11 -12c0 -7 -3 -9 -9 -9c-7 0 -27 6 -61 37z" />
    <glyph glyph-name="Edieresis" unicode="&#xcb;" horiz-adv-x="425" 
d="M183 316c0 -21 21 -33 52 -33s68 18 81 18c14 0 24 -4 24 -28s-41 -20 -110 -57c-68 -37 -187 -142 -187 -229c0 -33 19 -75 81 -75c105 0 239 130 330 245c13 15 20 25 31 25c9 0 14 -6 14 -14c0 -9 -4 -15 -15 -29c-111 -128 -240 -268 -367 -268
c-77 0 -120 49 -120 110c0 109 111 205 198 265c-26 0 -66 21 -66 57c0 104 207 247 335 247c33 0 56 -16 56 -56c0 -38 -77 -133 -120 -133c-19 0 -26 9 -26 19c0 11 6 19 32 32c33 16 68 55 68 84c0 9 -7 15 -17 15c-100 0 -274 -126 -274 -195zM406 592c0 18 19 48 44 48
c11 0 15 -8 15 -19c0 -19 -16 -47 -42 -47c-12 0 -17 8 -17 18zM490 592c0 18 20 48 44 48c12 0 16 -8 16 -19c0 -19 -16 -47 -43 -47c-11 0 -17 8 -17 18z" />
    <glyph glyph-name="Egrave" unicode="&#xc8;" horiz-adv-x="425" 
d="M183 316c0 -21 21 -33 52 -33s68 18 81 18c14 0 24 -4 24 -28s-41 -20 -110 -57c-68 -37 -187 -142 -187 -229c0 -33 19 -75 81 -75c105 0 239 130 330 245c13 15 20 25 31 25c9 0 14 -6 14 -14c0 -9 -4 -15 -15 -29c-111 -128 -240 -268 -367 -268
c-77 0 -120 49 -120 110c0 109 111 205 198 265c-26 0 -66 21 -66 57c0 104 207 247 335 247c33 0 56 -16 56 -56c0 -38 -77 -133 -120 -133c-19 0 -26 9 -26 19c0 11 6 19 32 32c33 16 68 55 68 84c0 9 -7 15 -17 15c-100 0 -274 -126 -274 -195zM440 661c6 0 10 -2 15 -10
c19 -30 45 -62 61 -67c8 -2 10 -6 10 -10s-3 -10 -12 -10c-19 0 -56 18 -81 43c-12 11 -16 16 -16 26c0 12 13 28 23 28z" />
    <glyph glyph-name="Eogonek" unicode="&#x118;" horiz-adv-x="425" 
d="M110 -97c-11 0 -31 -8 -48 -22c-43 17 -65 56 -65 100c0 109 111 205 198 265c-26 0 -66 21 -66 57c0 104 207 247 335 247c33 0 56 -16 56 -56c0 -38 -77 -133 -120 -133c-19 0 -26 9 -26 19c0 11 6 19 32 32c33 16 68 55 68 84c0 9 -7 15 -17 15
c-100 0 -274 -126 -274 -195c0 -21 21 -33 52 -33s68 18 81 18c14 0 24 -4 24 -28s-41 -20 -110 -57c-68 -37 -187 -142 -187 -229c0 -33 19 -75 81 -75c105 0 239 130 330 245c13 15 20 25 31 25c9 0 14 -6 14 -14c0 -9 -4 -15 -15 -29c-111 -128 -240 -268 -367 -268
c-11 0 -22 0 -31 3c8 6 16 11 23 13c4 1 10 4 10 9s-4 7 -9 7zM86 -126c-8 1 -17 4 -24 7c-20 -16 -37 -37 -37 -63c0 -35 41 -59 59 -59s26 28 26 32c0 3 -1 5 -8 5c-17 0 -43 12 -43 34c0 15 13 32 27 44z" />
    <glyph glyph-name="Eth" unicode="&#xd0;" horiz-adv-x="562" 
d="M276 231h-40c-21 -45 -37 -84 -48 -118c129 66 245 88 329 96c34 64 54 127 54 185c0 69 -60 114 -143 114c-190 0 -433 -152 -433 -266c0 -9 5 -22 5 -32s-12 -21 -27 -21s-26 10 -26 31c0 162 278 327 502 327c120 0 172 -78 172 -154c0 -57 -18 -119 -48 -180
c27 2 48 2 60 2c18 0 34 -6 34 -19s-11 -18 -38 -18c-12 0 -41 0 -78 -3c-105 -180 -312 -344 -479 -344c-60 0 -105 27 -105 77c0 54 59 111 165 174c12 43 30 94 54 149h-47c-6 0 -9 3 -9 8c0 7 9 29 17 29h57c41 84 80 127 109 162c14 18 27 25 33 25c17 0 27 -13 27 -25
c0 -10 -14 -20 -33 -39c-24 -23 -56 -61 -87 -123h30c7 0 10 -2 10 -7c0 -8 -10 -30 -17 -30zM74 -132c139 0 318 142 419 301c-81 -10 -186 -33 -321 -105c-13 -46 -18 -81 -18 -106c0 -10 0 -23 -13 -23s-36 10 -36 29c0 8 4 31 12 65c-75 -51 -105 -84 -105 -117
c0 -31 20 -44 62 -44z" />
    <glyph glyph-name="Euro" unicode="&#x20ac;" horiz-adv-x="480" 
d="M277 223h-168c-10 -35 -17 -68 -17 -99c0 -51 37 -79 73 -79c44 0 76 24 88 54c6 15 14 31 33 31c18 0 32 -25 13 -51c-39 -54 -73 -80 -137 -80c-71 0 -116 53 -116 123c0 32 6 67 14 101h-26c-11 0 -19 6 -19 17c0 13 12 26 27 26h32c8 24 19 47 31 70h-33
c-10 0 -18 5 -18 17c0 13 11 26 26 26h51c61 94 151 165 244 165c80 0 101 -50 90 -116c-3 -21 -16 -28 -29 -28s-29 13 -23 37c10 35 1 66 -47 66c-62 0 -128 -53 -180 -124h137c13 0 20 -9 20 -18c0 -14 -15 -25 -27 -25h-157c-13 -23 -25 -46 -34 -70h159
c13 0 21 -9 21 -18c0 -14 -15 -25 -28 -25z" />
    <glyph glyph-name="F" unicode="F" horiz-adv-x="251" 
d="M320 544c8 0 15 -3 18 -9c31 4 62 7 91 7c75 0 105 -25 105 -52c0 -18 -13 -32 -33 -32c-11 0 -17 10 -17 19c0 20 -30 29 -48 29c-37 0 -73 -2 -109 -7c-8 -8 -19 -16 -29 -28c-33 -37 -87 -124 -134 -216l15 1c49 6 70 9 82 9s25 -5 25 -19c0 -17 -23 -18 -37 -18
c-13 0 -54 -3 -83 -7l-20 -3c-41 -87 -73 -174 -73 -226c0 -14 5 -20 5 -32s-9 -26 -26 -26c-11 0 -25 4 -25 38c0 62 26 147 62 231c-10 -4 -17 -7 -22 -7c-8 0 -15 8 -15 17c0 11 8 18 23 23c10 3 21 7 33 9c44 97 101 188 144 241c-72 -18 -133 -47 -177 -90
c-16 -17 -26 -41 -26 -61c0 -15 -14 -25 -29 -25c-8 0 -20 6 -20 29c0 82 141 157 289 188c12 11 23 17 31 17z" />
    <glyph glyph-name="G" unicode="G" horiz-adv-x="383" 
d="M391 554c43 0 66 -20 66 -65c0 -49 -72 -148 -178 -209c-70 -39 -152 -58 -213 -64c-9 -28 -14 -56 -14 -80c0 -36 11 -54 50 -54c60 0 177 115 188 134c13 19 20 23 35 23c8 0 15 -7 15 -16c0 -17 -20 -40 -33 -90c-4 -18 -9 -40 -15 -68c49 29 91 58 116 92
c12 15 20 25 31 25c9 0 14 -6 14 -14c0 -9 -4 -15 -16 -29c-39 -47 -94 -84 -155 -119c-55 -223 -178 -396 -297 -396c-50 0 -84 33 -84 84c0 150 217 265 342 330c14 56 21 100 22 102c-32 -35 -116 -98 -176 -98c-49 0 -84 30 -84 90c0 26 4 54 13 82c-46 0 -54 17 -54 28
c0 9 6 19 23 19c14 0 28 -4 45 -5c19 45 45 90 79 131c78 94 206 167 280 167zM-11 -339c83 0 207 177 242 331c-93 -43 -290 -161 -290 -278c0 -34 15 -53 48 -53zM149 360c-27 -32 -49 -67 -66 -102c50 5 110 18 167 50c104 59 165 148 165 172c0 17 -11 31 -32 31
c-52 0 -165 -65 -234 -151z" />
    <glyph glyph-name="H" unicode="H" horiz-adv-x="510" 
d="M-49 286c0 91 203 236 335 236c34 0 63 -32 63 -71s-36 -130 -83 -228c64 9 124 13 177 15c77 152 136 236 175 283c15 17 28 24 37 24c16 0 24 -13 24 -24c0 -14 -14 -21 -34 -40c-25 -24 -84 -112 -150 -242c37 0 66 -2 82 -2c19 -1 37 -4 37 -17c0 -12 -6 -21 -33 -21
c-24 0 -60 3 -103 4c-63 -134 -95 -233 -95 -307c0 -9 0 -23 -13 -23s-34 11 -34 29c0 62 33 175 90 301c-54 -2 -115 -6 -177 -15c-36 -75 -75 -146 -103 -190c-14 -20 -22 -33 -34 -33c-15 0 -23 12 -23 24c0 9 8 19 19 35c20 30 55 92 87 154c-76 -19 -105 -52 -110 -59
c-5 -8 -8 -23 -24 -23c-11 0 -22 9 -22 23c0 18 43 73 174 97c54 116 86 196 86 230c0 22 -13 30 -31 30c-105 0 -266 -123 -266 -177c0 -26 -8 -42 -26 -42s-25 12 -25 29z" />
    <glyph glyph-name="I" unicode="I" horiz-adv-x="427" 
d="M280 15c-26 0 -52 -7 -81 -15c-5 -6 -12 -12 -22 -12c-6 0 -12 0 -18 4c-26 -5 -55 -10 -90 -10c-24 0 -77 5 -77 46c0 12 13 22 26 22c7 0 15 -4 20 -10c13 -15 19 -18 42 -18c27 0 50 3 72 6c11 151 97 342 188 442c-48 -16 -101 -30 -161 -30c-27 0 -95 14 -95 55
c0 12 12 22 25 22c7 0 16 -3 20 -10c13 -14 28 -26 51 -26c114 0 205 63 304 63c59 0 81 -27 81 -54c0 -16 -10 -36 -30 -36c-11 0 -20 11 -20 22c0 21 -16 31 -41 31s-36 -5 -62 -13c0 -22 -27 -40 -39 -52c-70 -71 -173 -290 -173 -402c28 6 56 12 91 12
c52 0 86 -20 86 -47c0 -16 -7 -30 -27 -30c-11 0 -20 11 -20 23s-25 17 -50 17z" />
    <glyph glyph-name="Iacute" unicode="&#xcd;" horiz-adv-x="427" 
d="M280 15c-26 0 -52 -7 -81 -15c-5 -6 -12 -12 -22 -12c-6 0 -12 0 -18 4c-26 -5 -55 -10 -90 -10c-24 0 -77 5 -77 46c0 12 13 22 26 22c7 0 15 -4 20 -10c13 -15 19 -18 42 -18c27 0 50 3 72 6c11 151 97 342 188 442c-48 -16 -101 -30 -161 -30c-27 0 -95 14 -95 55
c0 12 12 22 25 22c7 0 16 -3 20 -10c13 -14 28 -26 51 -26c114 0 205 63 304 63c59 0 81 -27 81 -54c0 -16 -10 -36 -30 -36c-11 0 -20 11 -20 22c0 21 -16 31 -41 31s-36 -5 -62 -13c0 -22 -27 -40 -39 -52c-70 -71 -173 -290 -173 -402c28 6 56 12 91 12
c52 0 86 -20 86 -47c0 -16 -7 -30 -27 -30c-11 0 -20 11 -20 23s-25 17 -50 17zM425 647c9 0 22 -16 22 -29c0 -10 -3 -14 -15 -26c-25 -25 -62 -43 -81 -43c-9 0 -13 4 -13 8s2 10 11 13c16 4 42 36 61 67c4 7 9 10 15 10z" />
    <glyph glyph-name="Ibreve" unicode="&#x12c;" horiz-adv-x="427" 
d="M280 15c-26 0 -52 -7 -81 -15c-5 -6 -12 -12 -22 -12c-6 0 -12 0 -18 4c-26 -5 -55 -10 -90 -10c-24 0 -77 5 -77 46c0 12 13 22 26 22c7 0 15 -4 20 -10c13 -15 19 -18 42 -18c27 0 50 3 72 6c11 151 97 342 188 442c-48 -16 -101 -30 -161 -30c-27 0 -95 14 -95 55
c0 12 12 22 25 22c7 0 16 -3 20 -10c13 -14 28 -26 51 -26c114 0 205 63 304 63c59 0 81 -27 81 -54c0 -16 -10 -36 -30 -36c-11 0 -20 11 -20 22c0 21 -16 31 -41 31s-36 -5 -62 -13c0 -22 -27 -40 -39 -52c-70 -71 -173 -290 -173 -402c28 6 56 12 91 12
c52 0 86 -20 86 -47c0 -16 -7 -30 -27 -30c-11 0 -20 11 -20 23s-25 17 -50 17zM366 563c-36 0 -78 27 -78 65c0 13 10 30 26 30c10 0 22 -5 22 -22c0 -6 -5 -11 -5 -18c0 -10 16 -22 38 -22c31 0 53 18 53 28c0 23 15 34 27 34c11 0 21 -7 21 -20s-6 -26 -15 -35
c-21 -24 -42 -40 -89 -40z" />
    <glyph glyph-name="Icircumflex" unicode="&#xce;" horiz-adv-x="427" 
d="M280 15c-26 0 -52 -7 -81 -15c-5 -6 -12 -12 -22 -12c-6 0 -12 0 -18 4c-26 -5 -55 -10 -90 -10c-24 0 -77 5 -77 46c0 12 13 22 26 22c7 0 15 -4 20 -10c13 -15 19 -18 42 -18c27 0 50 3 72 6c11 151 97 342 188 442c-48 -16 -101 -30 -161 -30c-27 0 -95 14 -95 55
c0 12 12 22 25 22c7 0 16 -3 20 -10c13 -14 28 -26 51 -26c114 0 205 63 304 63c59 0 81 -27 81 -54c0 -16 -10 -36 -30 -36c-11 0 -20 11 -20 22c0 21 -16 31 -41 31s-36 -5 -62 -13c0 -22 -27 -40 -39 -52c-70 -71 -173 -290 -173 -402c28 6 56 12 91 12
c52 0 86 -20 86 -47c0 -16 -7 -30 -27 -30c-11 0 -20 11 -20 23s-25 17 -50 17zM388 601c-28 -17 -69 -37 -78 -37c-6 0 -10 3 -10 8s4 8 12 12c18 12 31 23 52 47c9 12 16 21 31 21c18 0 18 -10 25 -23c9 -20 19 -35 27 -45c6 -6 11 -7 11 -12c0 -6 -3 -8 -8 -8
c-7 0 -27 5 -62 37z" />
    <glyph glyph-name="Idieresis" unicode="&#xcf;" horiz-adv-x="427" 
d="M280 15c-26 0 -52 -7 -81 -15c-5 -6 -12 -12 -22 -12c-6 0 -12 0 -18 4c-26 -5 -55 -10 -90 -10c-24 0 -77 5 -77 46c0 12 13 22 26 22c7 0 15 -4 20 -10c13 -15 19 -18 42 -18c27 0 50 3 72 6c11 151 97 342 188 442c-48 -16 -101 -30 -161 -30c-27 0 -95 14 -95 55
c0 12 12 22 25 22c7 0 16 -3 20 -10c13 -14 28 -26 51 -26c114 0 205 63 304 63c59 0 81 -27 81 -54c0 -16 -10 -36 -30 -36c-11 0 -20 11 -20 22c0 21 -16 31 -41 31s-36 -5 -62 -13c0 -22 -27 -40 -39 -52c-70 -71 -173 -290 -173 -402c28 6 56 12 91 12
c52 0 86 -20 86 -47c0 -16 -7 -30 -27 -30c-11 0 -20 11 -20 23s-25 17 -50 17zM319 591c0 17 19 47 44 47c11 0 15 -7 15 -18c0 -19 -16 -48 -42 -48c-12 0 -17 9 -17 19zM403 591c0 17 20 47 44 47c12 0 16 -7 16 -18c0 -19 -16 -48 -43 -48c-11 0 -17 9 -17 19z" />
    <glyph glyph-name="Igrave" unicode="&#xcc;" horiz-adv-x="427" 
d="M280 15c-26 0 -52 -7 -81 -15c-5 -6 -12 -12 -22 -12c-6 0 -12 0 -18 4c-26 -5 -55 -10 -90 -10c-24 0 -77 5 -77 46c0 12 13 22 26 22c7 0 15 -4 20 -10c13 -15 19 -18 42 -18c27 0 50 3 72 6c11 151 97 342 188 442c-48 -16 -101 -30 -161 -30c-27 0 -95 14 -95 55
c0 12 12 22 25 22c7 0 16 -3 20 -10c13 -14 28 -26 51 -26c114 0 205 63 304 63c59 0 81 -27 81 -54c0 -16 -10 -36 -30 -36c-11 0 -20 11 -20 22c0 21 -16 31 -41 31s-36 -5 -62 -13c0 -22 -27 -40 -39 -52c-70 -71 -173 -290 -173 -402c28 6 56 12 91 12
c52 0 86 -20 86 -47c0 -16 -7 -30 -27 -30c-11 0 -20 11 -20 23s-25 17 -50 17zM315 651c6 0 11 -3 15 -10c19 -31 45 -63 61 -67c9 -3 10 -7 10 -10c0 -5 -3 -11 -12 -11c-19 0 -56 18 -81 43c-12 12 -15 16 -15 26c0 12 13 29 22 29z" />
    <glyph glyph-name="J" unicode="J" horiz-adv-x="461" 
d="M557 473c0 19 -8 34 -32 34c-34 0 -68 -12 -105 -27c0 -10 0 -22 -1 -35c-10 -113 -39 -254 -89 -390c68 30 133 63 163 102c11 15 20 25 31 25c9 0 13 -6 13 -14c0 -9 -3 -15 -15 -29c-44 -51 -126 -92 -209 -129c-97 -240 -256 -444 -416 -444c-55 0 -99 44 -99 101
c0 139 237 291 472 362c60 151 100 317 101 428c-78 -40 -158 -87 -232 -87c-33 0 -79 16 -79 43c0 13 9 24 21 24c23 0 35 -24 61 -24c69 0 146 47 226 86c0 15 2 33 22 33c10 0 18 -5 23 -13c41 17 81 28 122 28s63 -20 63 -47c0 -40 -27 -103 -53 -103c-4 0 -8 3 -8 7
s2 7 7 16c8 13 13 31 13 53zM251 -16c-185 -56 -407 -212 -407 -317c0 -37 19 -61 61 -61c127 0 275 194 346 378z" />
    <glyph glyph-name="K" unicode="K" horiz-adv-x="424" 
d="M615 548c14 0 19 -8 19 -21c0 -16 -15 -37 -26 -53c-15 -20 -71 -91 -149 -151c-84 -63 -164 -90 -196 -102c14 -44 53 -132 94 -194c38 -60 81 -103 117 -103c20 0 33 4 37 4c6 0 9 -1 9 -4s-2 -6 -6 -11c-10 -11 -37 -25 -55 -25c-40 0 -94 40 -143 114
c-41 63 -64 116 -89 178c-24 -58 -48 -118 -57 -150c-4 -16 -4 -42 -28 -42c-12 0 -23 8 -23 21c0 41 70 193 97 249c45 97 76 177 76 211c0 22 -12 30 -31 30c-105 0 -266 -123 -266 -177c0 -26 -8 -42 -26 -42s-24 12 -24 29c0 91 202 236 334 236c34 0 64 -31 64 -71
c0 -37 -36 -124 -78 -211c38 15 112 47 171 94c78 60 118 113 143 157c15 25 20 34 36 34z" />
    <glyph glyph-name="L" unicode="L" horiz-adv-x="619" 
d="M496 225c-172 0 -297 94 -297 200c0 31 7 42 24 42s21 -15 21 -42c0 -86 110 -159 273 -159c91 165 164 279 266 279c42 0 77 -27 77 -75c0 -103 -125 -221 -312 -242c-35 -70 -74 -134 -74 -134c73 -45 115 -107 115 -178c0 -16 -12 -30 -26 -30c-18 0 -26 12 -26 25
s4 27 4 38c0 40 -31 81 -87 113c-95 -151 -202 -248 -345 -248c-103 0 -173 57 -173 151c0 98 98 193 267 193c91 0 170 -16 232 -44c9 14 35 58 61 111zM199 120c-149 0 -221 -86 -221 -155c0 -70 45 -111 131 -111c117 0 223 100 306 228c-56 23 -129 38 -216 38zM815 462
c0 26 -12 42 -33 42c-68 0 -132 -96 -209 -231c147 27 242 118 242 189z" />
    <glyph glyph-name="Lacute" unicode="&#x139;" horiz-adv-x="619" 
d="M496 225c-26 -53 -52 -97 -61 -111c-62 28 -141 44 -232 44c-169 0 -267 -95 -267 -193c0 -94 70 -151 173 -151c143 0 250 97 345 248c56 -32 87 -73 87 -113c0 -11 -4 -25 -4 -38s8 -25 26 -25c14 0 26 14 26 30c0 71 -42 133 -115 178c0 0 39 64 74 134
c187 21 312 139 312 242c0 48 -35 75 -77 75c-102 0 -175 -114 -266 -279c-163 0 -273 73 -273 159c0 27 -4 42 -21 42s-24 -11 -24 -42c0 -106 125 -200 297 -200zM199 120c87 0 160 -15 216 -38c-83 -128 -189 -228 -306 -228c-86 0 -131 41 -131 111c0 69 72 155 221 155
zM815 462c0 -71 -95 -162 -242 -189c77 135 141 231 209 231c21 0 33 -16 33 -42zM838 668c9 0 22 -17 22 -29c0 -10 -4 -15 -15 -26c-26 -25 -63 -43 -81 -43c-9 0 -13 4 -13 8s2 10 11 13c16 4 42 36 60 67c5 7 10 10 16 10z" />
    <glyph glyph-name="Lcaron" unicode="&#x13d;" horiz-adv-x="619" 
d="M496 225c-172 0 -297 94 -297 200c0 31 7 42 24 42s21 -15 21 -42c0 -86 110 -159 273 -159c91 165 164 279 266 279c42 0 77 -27 77 -75c0 -103 -125 -221 -312 -242c-35 -70 -74 -134 -74 -134c73 -45 115 -107 115 -178c0 -16 -12 -30 -26 -30c-18 0 -26 12 -26 25
s4 27 4 38c0 40 -31 81 -87 113c-95 -151 -202 -248 -345 -248c-103 0 -173 57 -173 151c0 98 98 193 267 193c91 0 170 -16 232 -44c9 14 35 58 61 111zM199 120c-149 0 -221 -86 -221 -155c0 -70 45 -111 131 -111c117 0 223 100 306 228c-56 23 -129 38 -216 38zM815 462
c0 26 -12 42 -33 42c-68 0 -132 -96 -209 -231c147 27 242 118 242 189zM772 651c0 12 10 28 27 28c20 0 26 -13 26 -30c0 -31 -46 -75 -57 -75c-7 0 -10 3 -10 10c0 10 15 28 15 47c0 7 -1 13 -1 20z" />
    <glyph glyph-name="Lslash" unicode="&#x141;" horiz-adv-x="619" 
d="M615 162h-101c-23 -40 -40 -68 -40 -68c73 -45 115 -107 115 -178c0 -16 -12 -30 -26 -30c-18 0 -26 12 -26 25s4 27 4 38c0 40 -31 81 -87 113c-95 -151 -202 -248 -345 -248c-103 0 -173 57 -173 151c0 98 98 193 267 193c91 0 170 -16 232 -44c5 8 15 25 28 48h-86
c-6 0 -9 4 -9 8c0 7 9 29 17 29h98c4 8 8 17 13 26c-172 0 -297 94 -297 200c0 31 7 42 24 42s21 -15 21 -42c0 -86 110 -159 273 -159c91 165 164 279 266 279c42 0 77 -27 77 -75c0 -103 -125 -221 -312 -242l-14 -29h89c7 0 9 -2 9 -7c0 -7 -9 -30 -17 -30zM199 120
c-149 0 -221 -86 -221 -155c0 -70 45 -111 131 -111c117 0 223 100 306 228c-56 23 -129 38 -216 38zM815 462c0 26 -12 42 -33 42c-68 0 -132 -96 -209 -231c147 27 242 118 242 189z" />
    <glyph glyph-name="M" unicode="M" horiz-adv-x="770" 
d="M-52 309c0 91 202 236 334 236c34 0 63 -31 63 -71c0 -39 -37 -126 -82 -228c85 113 192 244 280 244c32 0 58 -14 58 -62c0 -53 -46 -145 -57 -172c94 116 211 189 253 189c33 0 59 -14 59 -58c0 -74 -188 -297 -188 -437c0 -36 34 -43 34 -62c0 -14 -8 -27 -27 -27
c-24 0 -52 26 -52 90c0 151 181 369 181 430c0 12 -6 21 -20 21c-26 0 -133 -70 -222 -183c-60 -76 -76 -101 -95 -143c-15 -31 -20 -50 -37 -50c-13 0 -29 7 -29 28c0 8 10 25 21 47c40 85 132 250 132 322c0 21 -10 29 -23 29c-71 0 -255 -227 -308 -304
c-14 -20 -57 -106 -67 -127c-10 -23 -14 -33 -29 -33s-25 10 -25 22c0 9 5 21 15 38c27 45 67 134 102 210c44 97 76 177 76 211c0 22 -12 30 -31 30c-105 0 -266 -123 -266 -177c0 -26 -8 -42 -26 -42c-17 0 -24 12 -24 29z" />
    <glyph glyph-name="N" unicode="N" horiz-adv-x="558" 
d="M570 490c37 0 65 -26 65 -72c0 -113 -163 -282 -163 -444c0 -36 35 -40 35 -59c0 -14 -7 -25 -25 -25c-25 0 -52 25 -52 90c0 175 158 326 158 439c0 15 -14 27 -28 27c-70 0 -188 -121 -297 -254c-53 -66 -91 -146 -101 -167c-12 -22 -16 -37 -31 -37s-25 10 -25 22
c0 9 5 21 15 38c27 45 69 133 104 208c44 97 74 179 74 213c0 22 -13 30 -31 30c-105 0 -266 -123 -266 -177c0 -26 -8 -42 -26 -42s-25 12 -25 29c0 91 203 236 335 236c40 0 63 -31 63 -71c0 -54 -39 -138 -85 -233c96 110 216 249 306 249z" />
    <glyph glyph-name="Nacute" unicode="&#x143;" horiz-adv-x="558" 
d="M570 490c37 0 65 -26 65 -72c0 -113 -163 -282 -163 -444c0 -36 35 -40 35 -59c0 -14 -7 -25 -25 -25c-25 0 -52 25 -52 90c0 175 158 326 158 439c0 15 -14 27 -28 27c-70 0 -188 -121 -297 -254c-53 -66 -91 -146 -101 -167c-12 -22 -16 -37 -31 -37s-25 10 -25 22
c0 9 5 21 15 38c27 45 69 133 104 208c44 97 74 179 74 213c0 22 -13 30 -31 30c-105 0 -266 -123 -266 -177c0 -26 -8 -42 -26 -42s-25 12 -25 29c0 91 203 236 335 236c40 0 63 -31 63 -71c0 -54 -39 -138 -85 -233c96 110 216 249 306 249zM601 604c10 0 23 -16 23 -28
c0 -10 -4 -15 -16 -26c-25 -25 -62 -43 -81 -43c-9 0 -13 4 -13 8s3 10 11 12c16 5 42 37 61 67c5 8 9 10 15 10z" />
    <glyph glyph-name="Ncaron" unicode="&#x147;" horiz-adv-x="558" 
d="M570 490c37 0 65 -26 65 -72c0 -113 -163 -282 -163 -444c0 -36 35 -40 35 -59c0 -14 -7 -25 -25 -25c-25 0 -52 25 -52 90c0 175 158 326 158 439c0 15 -14 27 -28 27c-70 0 -188 -121 -297 -254c-53 -66 -91 -146 -101 -167c-12 -22 -16 -37 -31 -37s-25 10 -25 22
c0 9 5 21 15 38c27 45 69 133 104 208c44 97 74 179 74 213c0 22 -13 30 -31 30c-105 0 -266 -123 -266 -177c0 -26 -8 -42 -26 -42s-25 12 -25 29c0 91 203 236 335 236c40 0 63 -31 63 -71c0 -54 -39 -138 -85 -233c96 110 216 249 306 249zM585 521c-16 0 -31 22 -44 41
c-14 19 -20 36 -20 42c0 9 4 12 9 12c4 0 8 -5 17 -13c13 -14 37 -36 45 -36c15 0 42 18 60 37c7 7 12 11 19 11c4 0 8 -1 8 -8c0 -9 -5 -14 -35 -46c-19 -20 -45 -40 -59 -40z" />
    <glyph glyph-name="Ntilde" unicode="&#xd1;" horiz-adv-x="558" 
d="M570 490c37 0 65 -26 65 -72c0 -113 -163 -282 -163 -444c0 -36 35 -40 35 -59c0 -14 -7 -25 -25 -25c-25 0 -52 25 -52 90c0 175 158 326 158 439c0 15 -14 27 -28 27c-70 0 -188 -121 -297 -254c-53 -66 -91 -146 -101 -167c-12 -22 -16 -37 -31 -37s-25 10 -25 22
c0 9 5 21 15 38c27 45 69 133 104 208c44 97 74 179 74 213c0 22 -13 30 -31 30c-105 0 -266 -123 -266 -177c0 -26 -8 -42 -26 -42s-25 12 -25 29c0 91 203 236 335 236c40 0 63 -31 63 -71c0 -54 -39 -138 -85 -233c96 110 216 249 306 249zM604 514c-26 0 -48 20 -75 20
c-15 0 -28 -10 -34 -10c-5 0 -9 2 -9 9c0 8 30 42 52 42c26 0 48 -21 76 -21c13 0 32 14 38 14s8 -1 8 -7c0 -9 -29 -47 -56 -47z" />
    <glyph glyph-name="O" unicode="O" horiz-adv-x="446" 
d="M382 546c90 0 141 -31 141 -113c0 -78 -40 -168 -96 -247c42 8 78 18 104 28c6 3 15 6 23 6s15 -4 15 -12c0 -16 -8 -25 -28 -32c-29 -12 -85 -24 -147 -34c-80 -97 -181 -171 -254 -171c-71 0 -108 52 -108 123c0 25 6 53 17 83c-33 21 -51 49 -51 83
c0 165 218 286 384 286zM270 169c35 0 69 3 100 7c60 80 107 174 107 252c0 49 -20 79 -92 79c-141 0 -342 -94 -342 -236c0 -20 8 -38 23 -53c60 124 185 257 291 257c22 0 36 -14 36 -23s-8 -16 -25 -16c-100 0 -216 -129 -266 -240c37 -17 92 -27 168 -27zM265 132
c-72 0 -133 9 -178 27c-8 -23 -12 -45 -12 -64c0 -50 25 -83 81 -83c47 0 119 52 182 124c-25 -3 -50 -4 -73 -4z" />
    <glyph glyph-name="OE" unicode="&#x152;" horiz-adv-x="705" 
d="M321 544c80 0 133 -39 143 -116c71 67 194 122 279 122c34 0 56 -16 56 -56c0 -38 -77 -133 -120 -133c-18 0 -25 9 -25 19c0 11 5 19 31 32c33 16 68 55 68 84c0 9 -6 15 -16 15c-101 0 -274 -103 -274 -171c0 -22 21 -34 51 -34c31 0 68 18 82 18s23 -4 23 -28
c0 -23 -41 -20 -109 -57c-69 -37 -180 -130 -180 -206c0 -33 19 -75 81 -75c105 0 231 84 323 199c12 15 20 25 31 25c9 0 13 -6 13 -14c0 -9 -3 -15 -15 -29c-111 -128 -232 -222 -359 -222c-77 0 -120 49 -120 110c-48 -44 -102 -73 -154 -73c-87 0 -138 65 -138 168
c0 182 159 422 329 422zM312 503c-128 0 -274 -227 -274 -379c0 -89 31 -125 101 -125c114 0 282 247 282 406c0 73 -45 98 -109 98zM474 269c-9 0 -20 2 -31 7c-5 -13 -10 -27 -16 -40z" />
    <glyph glyph-name="Oacute" unicode="&#xd3;" horiz-adv-x="446" 
d="M382 546c90 0 141 -31 141 -113c0 -78 -40 -168 -96 -247c42 8 78 18 104 28c6 3 15 6 23 6s15 -4 15 -12c0 -16 -8 -25 -28 -32c-29 -12 -85 -24 -147 -34c-80 -97 -181 -171 -254 -171c-71 0 -108 52 -108 123c0 25 6 53 17 83c-33 21 -51 49 -51 83
c0 165 218 286 384 286zM270 169c35 0 69 3 100 7c60 80 107 174 107 252c0 49 -20 79 -92 79c-141 0 -342 -94 -342 -236c0 -20 8 -38 23 -53c60 124 185 257 291 257c22 0 36 -14 36 -23s-8 -16 -25 -16c-100 0 -216 -129 -266 -240c37 -17 92 -27 168 -27zM265 132
c-72 0 -133 9 -178 27c-8 -23 -12 -45 -12 -64c0 -50 25 -83 81 -83c47 0 119 52 182 124c-25 -3 -50 -4 -73 -4zM437 666c9 0 22 -16 22 -28c0 -10 -4 -15 -15 -27c-26 -24 -63 -43 -81 -43c-10 0 -13 4 -13 9c0 4 2 10 10 12c17 5 43 36 61 67c5 8 9 10 16 10z" />
    <glyph glyph-name="Obreve" unicode="&#x14e;" horiz-adv-x="446" 
d="M382 546c90 0 141 -31 141 -113c0 -78 -40 -168 -96 -247c42 8 78 18 104 28c6 3 15 6 23 6s15 -4 15 -12c0 -16 -8 -25 -28 -32c-29 -12 -85 -24 -147 -34c-80 -97 -181 -171 -254 -171c-71 0 -108 52 -108 123c0 25 6 53 17 83c-33 21 -51 49 -51 83
c0 165 218 286 384 286zM270 169c35 0 69 3 100 7c60 80 107 174 107 252c0 49 -20 79 -92 79c-141 0 -342 -94 -342 -236c0 -20 8 -38 23 -53c60 124 185 257 291 257c22 0 36 -14 36 -23s-8 -16 -25 -16c-100 0 -216 -129 -266 -240c37 -17 92 -27 168 -27zM265 132
c-72 0 -133 9 -178 27c-8 -23 -12 -45 -12 -64c0 -50 25 -83 81 -83c47 0 119 52 182 124c-25 -3 -50 -4 -73 -4zM403 580c-36 0 -78 27 -78 65c0 13 10 30 26 30c10 0 22 -5 22 -22c0 -6 -5 -11 -5 -18c0 -11 16 -22 38 -22c31 0 53 18 53 28c0 23 15 34 27 34
c11 0 21 -7 21 -20s-7 -26 -15 -35c-21 -24 -42 -40 -89 -40z" />
    <glyph glyph-name="Ocircumflex" unicode="&#xd4;" horiz-adv-x="446" 
d="M382 546c90 0 141 -31 141 -113c0 -78 -40 -168 -96 -247c42 8 78 18 104 28c6 3 15 6 23 6s15 -4 15 -12c0 -16 -8 -25 -28 -32c-29 -12 -85 -24 -147 -34c-80 -97 -181 -171 -254 -171c-71 0 -108 52 -108 123c0 25 6 53 17 83c-33 21 -51 49 -51 83
c0 165 218 286 384 286zM270 169c35 0 69 3 100 7c60 80 107 174 107 252c0 49 -20 79 -92 79c-141 0 -342 -94 -342 -236c0 -20 8 -38 23 -53c60 124 185 257 291 257c22 0 36 -14 36 -23s-8 -16 -25 -16c-100 0 -216 -129 -266 -240c37 -17 92 -27 168 -27zM265 132
c-72 0 -133 9 -178 27c-8 -23 -12 -45 -12 -64c0 -50 25 -83 81 -83c47 0 119 52 182 124c-25 -3 -50 -4 -73 -4zM392 604c-29 -16 -69 -37 -78 -37c-6 0 -10 4 -10 9s4 8 12 12c18 12 31 23 52 47c9 12 15 21 31 21c18 0 18 -10 24 -23c10 -20 20 -35 28 -45
c6 -6 11 -7 11 -12c0 -6 -3 -9 -8 -9c-7 0 -27 6 -62 37z" />
    <glyph glyph-name="Odieresis" unicode="&#xd6;" horiz-adv-x="446" 
d="M382 546c90 0 141 -31 141 -113c0 -78 -40 -168 -96 -247c42 8 78 18 104 28c6 3 15 6 23 6s15 -4 15 -12c0 -16 -8 -25 -28 -32c-29 -12 -85 -24 -147 -34c-80 -97 -181 -171 -254 -171c-71 0 -108 52 -108 123c0 25 6 53 17 83c-33 21 -51 49 -51 83
c0 165 218 286 384 286zM270 169c35 0 69 3 100 7c60 80 107 174 107 252c0 49 -20 79 -92 79c-141 0 -342 -94 -342 -236c0 -20 8 -38 23 -53c60 124 185 257 291 257c22 0 36 -14 36 -23s-8 -16 -25 -16c-100 0 -216 -129 -266 -240c37 -17 92 -27 168 -27zM265 132
c-72 0 -133 9 -178 27c-8 -23 -12 -45 -12 -64c0 -50 25 -83 81 -83c47 0 119 52 182 124c-25 -3 -50 -4 -73 -4zM329 591c0 17 19 47 44 47c11 0 15 -7 15 -18c0 -19 -16 -48 -42 -48c-12 0 -17 9 -17 19zM413 591c0 17 20 47 44 47c12 0 16 -7 16 -18
c0 -19 -16 -48 -43 -48c-11 0 -17 9 -17 19z" />
    <glyph glyph-name="Ograve" unicode="&#xd2;" horiz-adv-x="446" 
d="M382 546c90 0 141 -31 141 -113c0 -78 -40 -168 -96 -247c42 8 78 18 104 28c6 3 15 6 23 6s15 -4 15 -12c0 -16 -8 -25 -28 -32c-29 -12 -85 -24 -147 -34c-80 -97 -181 -171 -254 -171c-71 0 -108 52 -108 123c0 25 6 53 17 83c-33 21 -51 49 -51 83
c0 165 218 286 384 286zM270 169c35 0 69 3 100 7c60 80 107 174 107 252c0 49 -20 79 -92 79c-141 0 -342 -94 -342 -236c0 -20 8 -38 23 -53c60 124 185 257 291 257c22 0 36 -14 36 -23s-8 -16 -25 -16c-100 0 -216 -129 -266 -240c37 -17 92 -27 168 -27zM265 132
c-72 0 -133 9 -178 27c-8 -23 -12 -45 -12 -64c0 -50 25 -83 81 -83c47 0 119 52 182 124c-25 -3 -50 -4 -73 -4zM360 666c6 0 10 -2 15 -10c18 -31 45 -62 61 -67c8 -2 10 -6 10 -10c0 -5 -3 -11 -12 -11c-19 0 -56 19 -81 43c-12 12 -16 17 -16 27c0 12 13 28 23 28z" />
    <glyph glyph-name="Ohungarumlaut" unicode="&#x150;" horiz-adv-x="446" 
d="M382 546c90 0 141 -31 141 -113c0 -78 -40 -168 -96 -247c42 8 78 18 104 28c6 3 15 6 23 6s15 -4 15 -12c0 -16 -8 -25 -28 -32c-29 -12 -85 -24 -147 -34c-80 -97 -181 -171 -254 -171c-71 0 -108 52 -108 123c0 25 6 53 17 83c-33 21 -51 49 -51 83
c0 165 218 286 384 286zM270 169c35 0 69 3 100 7c60 80 107 174 107 252c0 49 -20 79 -92 79c-141 0 -342 -94 -342 -236c0 -20 8 -38 23 -53c60 124 185 257 291 257c22 0 36 -14 36 -23s-8 -16 -25 -16c-100 0 -216 -129 -266 -240c37 -17 92 -27 168 -27zM265 132
c-72 0 -133 9 -178 27c-8 -23 -12 -45 -12 -64c0 -50 25 -83 81 -83c47 0 119 52 182 124c-25 -3 -50 -4 -73 -4zM397 668c10 0 23 -17 23 -29c0 -10 -4 -15 -16 -26c-25 -25 -62 -43 -81 -43c-9 0 -13 4 -13 8s3 10 11 13c16 4 42 36 61 67c5 7 9 10 15 10zM505 668
c9 0 22 -17 22 -29c0 -10 -3 -15 -15 -26c-25 -25 -62 -43 -81 -43c-9 0 -13 4 -13 8s2 10 11 13c16 4 42 36 61 67c4 7 9 10 15 10z" />
    <glyph glyph-name="Oslash" unicode="&#xd8;" horiz-adv-x="446" 
d="M478 561c0 -4 1 -14 -11 -30c37 -17 56 -47 56 -98c0 -78 -40 -168 -96 -247c42 8 78 18 104 28c6 3 15 6 23 6s15 -4 15 -12c0 -16 -8 -25 -28 -32c-29 -12 -85 -24 -147 -34c-80 -97 -181 -171 -254 -171c-25 0 -47 7 -64 19l-13 -18c-4 -7 -15 -17 -24 -17
c-19 0 -29 3 -29 16c0 1 0 9 13 29l21 31c-8 18 -12 39 -12 63c0 25 6 53 17 83c-33 21 -51 49 -51 83c0 165 218 286 384 286c11 0 23 -1 34 -2c4 7 10 13 14 19c5 6 12 12 20 12c19 0 28 -4 28 -14zM270 169c35 0 69 3 100 7c60 80 107 174 107 252c0 32 -9 56 -34 69
c-60 -84 -153 -213 -234 -325c18 -2 39 -3 61 -3zM66 218c61 125 187 262 297 256l25 33h-3c-141 0 -342 -94 -342 -236c0 -20 8 -38 23 -53zM265 132c-29 0 -56 2 -82 4c-30 -41 -57 -78 -79 -110c12 -9 29 -14 52 -14c47 0 119 52 182 124c-25 -3 -50 -4 -73 -4zM102 196
c13 -7 29 -12 47 -16c58 81 124 171 181 250c-90 -26 -184 -137 -228 -234zM75 95c0 -6 0 -12 1 -18c15 22 32 45 50 69c-14 4 -27 8 -39 13c-8 -23 -12 -45 -12 -64z" />
    <glyph glyph-name="Otilde" unicode="&#xd5;" horiz-adv-x="446" 
d="M382 546c90 0 141 -31 141 -113c0 -78 -40 -168 -96 -247c42 8 78 18 104 28c6 3 15 6 23 6s15 -4 15 -12c0 -16 -8 -25 -28 -32c-29 -12 -85 -24 -147 -34c-80 -97 -181 -171 -254 -171c-71 0 -108 52 -108 123c0 25 6 53 17 83c-33 21 -51 49 -51 83
c0 165 218 286 384 286zM270 169c35 0 69 3 100 7c60 80 107 174 107 252c0 49 -20 79 -92 79c-141 0 -342 -94 -342 -236c0 -20 8 -38 23 -53c60 124 185 257 291 257c22 0 36 -14 36 -23s-8 -16 -25 -16c-100 0 -216 -129 -266 -240c37 -17 92 -27 168 -27zM265 132
c-72 0 -133 9 -178 27c-8 -23 -12 -45 -12 -64c0 -50 25 -83 81 -83c47 0 119 52 182 124c-25 -3 -50 -4 -73 -4zM454 567c-27 0 -49 21 -76 21c-15 0 -28 -11 -34 -11c-5 0 -9 3 -9 10c0 8 30 42 52 42c26 0 48 -21 76 -21c13 0 32 14 38 14s8 -1 8 -7
c0 -9 -29 -48 -55 -48z" />
    <glyph glyph-name="P" unicode="P" horiz-adv-x="345" 
d="M256 192c-26 0 -37 9 -37 25c0 17 22 19 38 19c100 0 207 107 207 181c0 64 -31 95 -110 95c-185 0 -359 -141 -359 -232c0 -9 8 -17 8 -27c0 -16 -14 -26 -29 -26c-16 0 -26 17 -26 32c0 148 199 285 421 285c88 0 137 -38 137 -121c0 -103 -134 -231 -250 -231z
M305 455c15 0 21 -9 21 -21c0 -11 -13 -22 -28 -36c-26 -25 -65 -65 -109 -142c-82 -144 -88 -216 -88 -268c0 -9 0 -23 -13 -23s-34 11 -34 30c0 18 13 125 93 270c52 92 92 145 119 170c16 15 27 20 39 20z" />
    <glyph glyph-name="Q" unicode="Q" horiz-adv-x="450" 
d="M-65 -101c0 48 73 86 150 86c-34 19 -52 60 -52 109c0 46 23 105 59 162c-19 8 -39 27 -39 54c0 120 173 236 322 236c97 0 149 -45 149 -121c0 -191 -239 -449 -379 -454c68 -20 91 -103 188 -103c30 0 45 17 60 17c16 0 21 -11 21 -21c0 -20 -24 -34 -71 -34
c-137 0 -168 128 -273 128c-52 0 -85 -37 -85 -55c0 -16 -10 -31 -28 -31c-15 0 -22 12 -22 27zM98 317c0 -13 8 -21 17 -26c71 96 173 180 258 180c22 0 36 -7 36 -23c0 -9 -8 -16 -25 -16c-132 0 -308 -223 -308 -337c0 -50 25 -83 80 -83c106 0 321 239 321 408
c0 58 -33 87 -99 87c-131 0 -280 -101 -280 -190z" />
    <glyph glyph-name="R" unicode="R" horiz-adv-x="408" 
d="M504 438c0 -95 -151 -206 -241 -224c15 -55 39 -139 74 -195c36 -59 84 -88 124 -88c18 0 34 5 38 5c6 0 8 -1 8 -5c0 -3 -1 -6 -6 -10c-10 -11 -36 -26 -54 -26c-49 0 -104 32 -146 102c-43 71 -69 159 -82 218c-7 3 -10 8 -10 18c0 16 23 19 39 19
c82 0 214 106 214 181c0 54 -31 79 -109 79c-185 0 -359 -141 -359 -232c0 -9 8 -17 8 -27c0 -16 -14 -26 -30 -26c-15 0 -26 17 -26 32c0 148 200 285 421 285c89 0 137 -33 137 -106zM297 455c14 0 27 -13 27 -25c0 -23 -68 -53 -137 -174c-82 -144 -88 -216 -88 -268
c0 -9 0 -23 -13 -23s-34 11 -34 30c0 18 13 125 94 270c80 145 134 190 151 190z" />
    <glyph glyph-name="Racute" unicode="&#x154;" horiz-adv-x="408" 
d="M504 438c0 -95 -151 -206 -241 -224c15 -55 39 -139 74 -195c36 -59 84 -88 124 -88c18 0 34 5 38 5c6 0 8 -1 8 -5c0 -3 -1 -6 -6 -10c-10 -11 -36 -26 -54 -26c-49 0 -104 32 -146 102c-43 71 -69 159 -82 218c-7 3 -10 8 -10 18c0 16 23 19 39 19
c82 0 214 106 214 181c0 54 -31 79 -109 79c-185 0 -359 -141 -359 -232c0 -9 8 -17 8 -27c0 -16 -14 -26 -30 -26c-15 0 -26 17 -26 32c0 148 200 285 421 285c89 0 137 -33 137 -106zM297 455c14 0 27 -13 27 -25c0 -23 -68 -53 -137 -174c-82 -144 -88 -216 -88 -268
c0 -9 0 -23 -13 -23s-34 11 -34 30c0 18 13 125 94 270c80 145 134 190 151 190zM447 671c9 0 22 -17 22 -29c0 -10 -4 -14 -15 -26c-26 -25 -63 -43 -81 -43c-10 0 -13 4 -13 8s2 10 10 13c17 4 43 36 61 67c5 7 9 10 16 10z" />
    <glyph glyph-name="Rcaron" unicode="&#x158;" horiz-adv-x="408" 
d="M504 438c0 -95 -151 -206 -241 -224c15 -55 39 -139 74 -195c36 -59 84 -88 124 -88c18 0 34 5 38 5c6 0 8 -1 8 -5c0 -3 -1 -6 -6 -10c-10 -11 -36 -26 -54 -26c-49 0 -104 32 -146 102c-43 71 -69 159 -82 218c-7 3 -10 8 -10 18c0 16 23 19 39 19
c82 0 214 106 214 181c0 54 -31 79 -109 79c-185 0 -359 -141 -359 -232c0 -9 8 -17 8 -27c0 -16 -14 -26 -30 -26c-15 0 -26 17 -26 32c0 148 200 285 421 285c89 0 137 -33 137 -106zM297 455c14 0 27 -13 27 -25c0 -23 -68 -53 -137 -174c-82 -144 -88 -216 -88 -268
c0 -9 0 -23 -13 -23s-34 11 -34 30c0 18 13 125 94 270c80 145 134 190 151 190zM392 573c-16 0 -31 21 -45 41c-14 19 -19 35 -19 42c0 9 4 12 8 12c5 0 9 -5 17 -14c14 -13 37 -36 46 -36c14 0 41 19 60 37c7 7 11 12 18 12c4 0 9 -2 9 -9c0 -8 -6 -14 -35 -45
c-19 -21 -45 -40 -59 -40z" />
    <glyph glyph-name="S" unicode="S" horiz-adv-x="385" 
d="M286 332c0 14 11 21 41 40c31 18 86 85 86 110c0 15 -6 29 -31 29c-90 0 -327 -153 -327 -252c0 -13 5 -28 29 -28c28 0 80 7 127 7c50 0 89 -22 109 -52l73 22c24 7 74 14 84 14s14 -6 14 -14c0 -5 -4 -16 -16 -17c-14 -2 -52 -8 -72 -14s-43 -13 -69 -21
c2 -7 2 -14 2 -20c0 -194 -229 -415 -351 -415c-65 0 -106 43 -106 97c0 66 51 152 187 249c72 51 144 82 207 104c-20 24 -51 28 -86 28c-44 0 -85 -9 -118 -9c-30 0 -66 20 -66 63c0 128 262 296 390 296c32 0 67 -18 67 -54c0 -51 -93 -142 -114 -163
c-14 -13 -24 -22 -38 -22s-22 8 -22 22zM293 117c0 8 -1 15 -3 23c-63 -22 -135 -55 -205 -108c-124 -93 -161 -161 -161 -207c0 -41 23 -64 65 -64c96 0 304 204 304 356z" />
    <glyph glyph-name="Sacute" unicode="&#x15a;" horiz-adv-x="385" 
d="M286 332c0 14 11 21 41 40c31 18 86 85 86 110c0 15 -6 29 -31 29c-90 0 -327 -153 -327 -252c0 -13 5 -28 29 -28c28 0 80 7 127 7c50 0 89 -22 109 -52l73 22c24 7 74 14 84 14s14 -6 14 -14c0 -5 -4 -16 -16 -17c-14 -2 -52 -8 -72 -14s-43 -13 -69 -21
c2 -7 2 -14 2 -20c0 -194 -229 -415 -351 -415c-65 0 -106 43 -106 97c0 66 51 152 187 249c72 51 144 82 207 104c-20 24 -51 28 -86 28c-44 0 -85 -9 -118 -9c-30 0 -66 20 -66 63c0 128 262 296 390 296c32 0 67 -18 67 -54c0 -51 -93 -142 -114 -163
c-14 -13 -24 -22 -38 -22s-22 8 -22 22zM293 117c0 8 -1 15 -3 23c-63 -22 -135 -55 -205 -108c-124 -93 -161 -161 -161 -207c0 -41 23 -64 65 -64c96 0 304 204 304 356zM435 673c9 0 22 -16 22 -29c0 -10 -3 -14 -15 -26c-25 -24 -62 -43 -81 -43c-9 0 -13 4 -13 9
c0 4 2 10 11 12c16 5 42 36 61 67c4 8 9 10 15 10z" />
    <glyph glyph-name="Scaron" unicode="&#x160;" horiz-adv-x="385" 
d="M286 332c0 14 11 21 41 40c31 18 86 85 86 110c0 15 -6 29 -31 29c-90 0 -327 -153 -327 -252c0 -13 5 -28 29 -28c28 0 80 7 127 7c50 0 89 -22 109 -52l73 22c24 7 74 14 84 14s14 -6 14 -14c0 -5 -4 -16 -16 -17c-14 -2 -52 -8 -72 -14s-43 -13 -69 -21
c2 -7 2 -14 2 -20c0 -194 -229 -415 -351 -415c-65 0 -106 43 -106 97c0 66 51 152 187 249c72 51 144 82 207 104c-20 24 -51 28 -86 28c-44 0 -85 -9 -118 -9c-30 0 -66 20 -66 63c0 128 262 296 390 296c32 0 67 -18 67 -54c0 -51 -93 -142 -114 -163
c-14 -13 -24 -22 -38 -22s-22 8 -22 22zM293 117c0 8 -1 15 -3 23c-63 -22 -135 -55 -205 -108c-124 -93 -161 -161 -161 -207c0 -41 23 -64 65 -64c96 0 304 204 304 356zM370 574c-16 0 -30 22 -44 41s-20 36 -20 43c0 8 4 11 9 11s8 -4 17 -13c13 -14 37 -36 45 -36
c15 0 42 18 60 37c7 7 12 11 19 11c4 0 8 -1 8 -8c0 -9 -5 -14 -34 -46c-20 -20 -46 -40 -60 -40z" />
    <glyph glyph-name="Scommaaccent" unicode="&#x218;" horiz-adv-x="385" 
d="M286 332c0 14 11 21 41 40c31 18 86 85 86 110c0 15 -6 29 -31 29c-90 0 -327 -153 -327 -252c0 -13 5 -28 29 -28c28 0 80 7 127 7c50 0 89 -22 109 -52l73 22c24 7 74 14 84 14s14 -6 14 -14c0 -5 -4 -16 -16 -17c-14 -2 -52 -8 -72 -14s-43 -13 -69 -21
c2 -7 2 -14 2 -20c0 -194 -229 -415 -351 -415c-65 0 -106 43 -106 97c0 66 51 152 187 249c72 51 144 82 207 104c-20 24 -51 28 -86 28c-44 0 -85 -9 -118 -9c-30 0 -66 20 -66 63c0 128 262 296 390 296c32 0 67 -18 67 -54c0 -51 -93 -142 -114 -163
c-14 -13 -24 -22 -38 -22s-22 8 -22 22zM293 117c0 8 -1 15 -3 23c-63 -22 -135 -55 -205 -108c-124 -93 -161 -161 -161 -207c0 -41 23 -64 65 -64c96 0 304 204 304 356zM-28 -330c0 -7 2 -14 2 -20c0 -20 -15 -37 -15 -48c0 -7 2 -10 10 -10c11 0 56 45 56 75
c0 17 -6 30 -25 30c-18 0 -28 -16 -28 -27z" />
    <glyph glyph-name="T" unicode="T" horiz-adv-x="213" 
d="M321 547c9 0 16 -6 20 -12c21 4 42 7 65 7c75 0 105 -25 105 -53c0 -15 -10 -35 -30 -35c-11 0 -20 11 -20 22c0 21 -24 33 -48 33c-30 0 -62 -8 -96 -19c-101 -90 -227 -379 -227 -498c0 -14 5 -20 5 -32s-10 -26 -26 -26c-11 0 -26 7 -26 31c0 150 114 378 196 501
c-50 -16 -104 -30 -160 -30c-27 0 -95 11 -95 51c0 13 12 23 25 23c7 0 16 -4 20 -10c13 -15 28 -26 51 -26c70 0 134 25 200 45c16 18 31 28 41 28z" />
    <glyph glyph-name="Tcaron" unicode="&#x164;" horiz-adv-x="213" 
d="M321 547c9 0 16 -6 20 -12c21 4 42 7 65 7c75 0 105 -25 105 -53c0 -15 -10 -35 -30 -35c-11 0 -20 11 -20 22c0 21 -24 33 -48 33c-30 0 -62 -8 -96 -19c-101 -90 -227 -379 -227 -498c0 -14 5 -20 5 -32s-10 -26 -26 -26c-11 0 -26 7 -26 31c0 150 114 378 196 501
c-50 -16 -104 -30 -160 -30c-27 0 -95 11 -95 51c0 13 12 23 25 23c7 0 16 -4 20 -10c13 -15 28 -26 51 -26c70 0 134 25 200 45c16 18 31 28 41 28zM317 577c-16 0 -31 21 -44 41c-14 19 -20 35 -20 42c0 8 4 11 9 11c4 0 8 -4 17 -13c13 -14 37 -36 45 -36
c15 0 42 19 60 37c7 7 12 12 19 12c4 0 8 -2 8 -9c0 -8 -5 -14 -34 -45c-20 -21 -46 -40 -60 -40z" />
    <glyph glyph-name="Tcommaaccent" unicode="&#x162;" horiz-adv-x="213" 
d="M321 547c9 0 16 -6 20 -12c21 4 42 7 65 7c75 0 105 -25 105 -53c0 -15 -10 -35 -30 -35c-11 0 -20 11 -20 22c0 21 -24 33 -48 33c-30 0 -62 -8 -96 -19c-101 -90 -227 -379 -227 -498c0 -14 5 -20 5 -32s-10 -26 -26 -26c-11 0 -26 7 -26 31c0 150 114 378 196 501
c-50 -16 -104 -30 -160 -30c-27 0 -95 11 -95 51c0 13 12 23 25 23c7 0 16 -4 20 -10c13 -15 28 -26 51 -26c70 0 134 25 200 45c16 18 31 28 41 28zM45 -112c0 -7 1 -14 1 -20c0 -20 -14 -37 -14 -48c0 -7 2 -10 10 -10c10 0 56 44 56 75c0 17 -6 30 -26 30
c-17 0 -27 -16 -27 -27z" />
    <glyph glyph-name="Thorn" unicode="&#xde;" horiz-adv-x="283" 
d="M101 233c-21 -72 -34 -145 -34 -205c0 -16 -15 -33 -25 -33s-19 5 -19 37c0 168 86 371 183 503c18 24 29 35 41 35c13 0 22 -6 22 -19c0 -12 -4 -17 -22 -35c-41 -42 -84 -119 -116 -208c47 54 124 103 178 103c24 0 40 -18 40 -45c0 -85 -77 -194 -149 -194
c-48 0 -68 16 -68 33s12 30 27 30c14 0 28 -20 47 -20c40 0 97 88 97 135c0 9 -7 17 -18 17c-22 0 -113 -43 -184 -134z" />
    <glyph glyph-name="U" unicode="U" horiz-adv-x="621" 
d="M160 38c0 -28 12 -37 35 -37c68 0 236 223 318 344c46 68 88 137 103 163s26 39 39 39s23 -13 23 -27c0 -15 -20 -52 -49 -126s-108 -280 -108 -369c0 -42 18 -35 18 -57c0 -13 -10 -25 -27 -25c-26 0 -40 23 -40 63c0 116 96 341 99 356c-119 -185 -293 -410 -399 -410
c-43 0 -66 36 -66 75c0 130 172 300 172 419c0 22 -12 30 -31 30c-105 0 -265 -123 -265 -177c0 -26 -9 -42 -27 -42c-17 0 -24 12 -24 29c0 91 202 236 334 236c35 0 57 -25 57 -65c0 -131 -162 -324 -162 -419z" />
    <glyph glyph-name="Uacute" unicode="&#xda;" horiz-adv-x="621" 
d="M160 38c0 -28 12 -37 35 -37c68 0 236 223 318 344c46 68 88 137 103 163s26 39 39 39s23 -13 23 -27c0 -15 -20 -52 -49 -126s-108 -280 -108 -369c0 -42 18 -35 18 -57c0 -13 -10 -25 -27 -25c-26 0 -40 23 -40 63c0 116 96 341 99 356c-119 -185 -293 -410 -399 -410
c-43 0 -66 36 -66 75c0 130 172 300 172 419c0 22 -12 30 -31 30c-105 0 -265 -123 -265 -177c0 -26 -9 -42 -27 -42c-17 0 -24 12 -24 29c0 91 202 236 334 236c35 0 57 -25 57 -65c0 -131 -162 -324 -162 -419zM505 612c9 0 22 -16 22 -28c0 -10 -3 -15 -15 -27
c-25 -24 -62 -43 -81 -43c-9 0 -13 4 -13 9c0 4 2 10 11 12c16 5 42 36 61 67c4 8 9 10 15 10z" />
    <glyph glyph-name="Ubreve" unicode="&#x16c;" horiz-adv-x="621" 
d="M160 38c0 -28 12 -37 35 -37c68 0 236 223 318 344c46 68 88 137 103 163s26 39 39 39s23 -13 23 -27c0 -15 -20 -52 -49 -126s-108 -280 -108 -369c0 -42 18 -35 18 -57c0 -13 -10 -25 -27 -25c-26 0 -40 23 -40 63c0 116 96 341 99 356c-119 -185 -293 -410 -399 -410
c-43 0 -66 36 -66 75c0 130 172 300 172 419c0 22 -12 30 -31 30c-105 0 -265 -123 -265 -177c0 -26 -9 -42 -27 -42c-17 0 -24 12 -24 29c0 91 202 236 334 236c35 0 57 -25 57 -65c0 -131 -162 -324 -162 -419zM446 490c-36 0 -78 27 -78 66c0 13 10 29 26 29
c10 0 23 -4 23 -21c0 -7 -6 -11 -6 -18c0 -11 16 -22 38 -22c31 0 53 17 53 28c0 22 15 33 27 33c11 0 22 -7 22 -19c0 -13 -7 -26 -16 -35c-21 -24 -42 -41 -89 -41z" />
    <glyph glyph-name="Ucircumflex" unicode="&#xdb;" horiz-adv-x="621" 
d="M160 38c0 -28 12 -37 35 -37c68 0 236 223 318 344c46 68 88 137 103 163s26 39 39 39s23 -13 23 -27c0 -15 -20 -52 -49 -126s-108 -280 -108 -369c0 -42 18 -35 18 -57c0 -13 -10 -25 -27 -25c-26 0 -40 23 -40 63c0 116 96 341 99 356c-119 -185 -293 -410 -399 -410
c-43 0 -66 36 -66 75c0 130 172 300 172 419c0 22 -12 30 -31 30c-105 0 -265 -123 -265 -177c0 -26 -9 -42 -27 -42c-17 0 -24 12 -24 29c0 91 202 236 334 236c35 0 57 -25 57 -65c0 -131 -162 -324 -162 -419zM477 562c-28 -16 -69 -37 -77 -37c-7 0 -10 3 -10 9
c0 4 3 7 11 12c19 11 32 22 53 47c9 11 15 21 30 21c18 0 19 -10 25 -23c9 -20 19 -36 28 -45c5 -6 10 -8 10 -12c0 -7 -3 -9 -8 -9c-7 0 -27 6 -62 37z" />
    <glyph glyph-name="Udieresis" unicode="&#xdc;" horiz-adv-x="621" 
d="M160 38c0 -28 12 -37 35 -37c68 0 236 223 318 344c46 68 88 137 103 163s26 39 39 39s23 -13 23 -27c0 -15 -20 -52 -49 -126s-108 -280 -108 -369c0 -42 18 -35 18 -57c0 -13 -10 -25 -27 -25c-26 0 -40 23 -40 63c0 116 96 341 99 356c-119 -185 -293 -410 -399 -410
c-43 0 -66 36 -66 75c0 130 172 300 172 419c0 22 -12 30 -31 30c-105 0 -265 -123 -265 -177c0 -26 -9 -42 -27 -42c-17 0 -24 12 -24 29c0 91 202 236 334 236c35 0 57 -25 57 -65c0 -131 -162 -324 -162 -419zM387 521c0 18 19 48 43 48c12 0 16 -8 16 -18
c0 -20 -16 -48 -43 -48c-11 0 -16 8 -16 18zM471 521c0 18 19 48 44 48c12 0 16 -8 16 -18c0 -20 -17 -48 -43 -48c-11 0 -17 8 -17 18z" />
    <glyph glyph-name="Ugrave" unicode="&#xd9;" horiz-adv-x="621" 
d="M160 38c0 -28 12 -37 35 -37c68 0 236 223 318 344c46 68 88 137 103 163s26 39 39 39s23 -13 23 -27c0 -15 -20 -52 -49 -126s-108 -280 -108 -369c0 -42 18 -35 18 -57c0 -13 -10 -25 -27 -25c-26 0 -40 23 -40 63c0 116 96 341 99 356c-119 -185 -293 -410 -399 -410
c-43 0 -66 36 -66 75c0 130 172 300 172 419c0 22 -12 30 -31 30c-105 0 -265 -123 -265 -177c0 -26 -9 -42 -27 -42c-17 0 -24 12 -24 29c0 91 202 236 334 236c35 0 57 -25 57 -65c0 -131 -162 -324 -162 -419zM410 604c6 0 10 -2 15 -10c19 -30 45 -62 61 -67
c8 -2 10 -6 10 -10s-3 -10 -12 -10c-19 0 -56 18 -81 43c-12 11 -16 16 -16 26c0 12 13 28 23 28z" />
    <glyph glyph-name="Uhungarumlaut" unicode="&#x170;" horiz-adv-x="621" 
d="M160 38c0 -28 12 -37 35 -37c68 0 236 223 318 344c46 68 88 137 103 163s26 39 39 39s23 -13 23 -27c0 -15 -20 -52 -49 -126s-108 -280 -108 -369c0 -42 18 -35 18 -57c0 -13 -10 -25 -27 -25c-26 0 -40 23 -40 63c0 116 96 341 99 356c-119 -185 -293 -410 -399 -410
c-43 0 -66 36 -66 75c0 130 172 300 172 419c0 22 -12 30 -31 30c-105 0 -265 -123 -265 -177c0 -26 -9 -42 -27 -42c-17 0 -24 12 -24 29c0 91 202 236 334 236c35 0 57 -25 57 -65c0 -131 -162 -324 -162 -419zM454 606c10 0 23 -16 23 -29c0 -10 -4 -14 -16 -26
c-25 -24 -62 -43 -81 -43c-9 0 -13 4 -13 9c0 4 3 10 11 12c16 5 42 36 61 67c5 8 9 10 15 10zM562 606c9 0 22 -16 22 -29c0 -10 -3 -14 -15 -26c-25 -24 -62 -43 -81 -43c-9 0 -13 4 -13 9c0 4 2 10 11 12c16 5 42 36 61 67c4 8 9 10 15 10z" />
    <glyph glyph-name="Uring" unicode="&#x16e;" horiz-adv-x="621" 
d="M160 38c0 -28 12 -37 35 -37c68 0 236 223 318 344c46 68 88 137 103 163s26 39 39 39s23 -13 23 -27c0 -15 -20 -52 -49 -126s-108 -280 -108 -369c0 -42 18 -35 18 -57c0 -13 -10 -25 -27 -25c-26 0 -40 23 -40 63c0 116 96 341 99 356c-119 -185 -293 -410 -399 -410
c-43 0 -66 36 -66 75c0 130 172 300 172 419c0 22 -12 30 -31 30c-105 0 -265 -123 -265 -177c0 -26 -9 -42 -27 -42c-17 0 -24 12 -24 29c0 91 202 236 334 236c35 0 57 -25 57 -65c0 -131 -162 -324 -162 -419zM406 541c0 36 32 70 68 70c28 0 47 -19 47 -47
c0 -33 -32 -69 -68 -69c-28 0 -47 16 -47 46zM471 581c-14 0 -34 -20 -34 -38c0 -12 9 -18 19 -18c14 0 33 22 33 41c0 8 -8 15 -18 15z" />
    <glyph glyph-name="V" unicode="V" horiz-adv-x="592" 
d="M186 -8c0 149 157 328 157 433c0 28 -20 43 -38 43c-99 0 -303 -142 -303 -239c0 -22 -7 -38 -22 -38c-12 0 -25 9 -25 32c0 127 237 284 364 284c43 0 72 -39 72 -72c0 -126 -157 -305 -157 -437c0 -23 13 -34 32 -34c75 0 342 266 342 466c0 66 -36 60 -36 88
c0 19 12 29 28 29c24 0 50 -40 50 -100c0 -239 -284 -528 -399 -528c-34 0 -65 29 -65 73z" />
    <glyph glyph-name="W" unicode="W" horiz-adv-x="711" 
d="M-51 223c0 127 238 284 364 284c44 0 73 -35 73 -72c0 -56 -86 -246 -160 -376c85 88 177 158 259 254c22 26 31 39 44 39s22 -7 22 -24s-67 -149 -67 -254c0 -40 9 -57 29 -57c59 0 198 205 198 414c0 66 -44 59 -44 87c0 19 12 29 28 29c26 0 59 -38 59 -101
c0 -261 -161 -473 -262 -473c-38 0 -57 44 -57 88c0 31 8 115 32 179c-45 -47 -148 -148 -238 -238c-23 -23 -51 -57 -65 -57s-24 14 -24 36c0 21 36 84 69 148c54 101 128 261 128 296c0 28 -12 43 -37 43c-100 0 -303 -139 -303 -239c0 -22 -7 -38 -22 -38
c-12 0 -26 9 -26 32z" />
    <glyph glyph-name="X" unicode="X" horiz-adv-x="417" 
d="M494 514c17 17 33 31 56 31c12 0 23 -11 23 -24c0 -16 -26 -31 -51 -51c-24 -18 -115 -107 -196 -200c0 -24 2 -47 4 -70c15 -138 55 -250 102 -269c23 -10 42 -13 42 -29c0 -14 -9 -28 -27 -28c-20 0 -38 7 -63 30c-44 41 -87 133 -101 292l-2 22
c-62 -76 -158 -195 -158 -237c0 -24 -10 -36 -22 -36s-29 6 -29 34c0 18 12 45 24 65c9 15 94 128 181 231c-8 107 -18 216 -73 216c-99 0 -210 -112 -210 -216c0 -22 -7 -38 -22 -38c-12 0 -26 9 -26 32c0 128 146 262 272 262c90 0 102 -97 105 -202
c75 84 154 166 171 185z" />
    <glyph glyph-name="Y" unicode="Y" horiz-adv-x="565" 
d="M516 -58c70 0 87 -21 87 -36s-9 -28 -30 -28s-42 27 -75 27c-16 0 -33 -1 -50 -4c-98 -294 -189 -391 -306 -391c-69 0 -114 56 -114 119c0 164 201 263 380 301c47 143 96 312 108 386c-83 -99 -210 -271 -295 -271c-18 0 -50 10 -50 54c0 83 151 267 151 358
c0 23 -16 38 -39 38c-106 0 -296 -162 -296 -268c0 -23 13 -27 13 -48c0 -20 -13 -32 -30 -32s-35 9 -35 52c0 136 221 345 375 345c50 0 62 -40 62 -74c0 -113 -143 -291 -143 -355c0 -14 6 -16 15 -16c42 0 162 141 246 250c84 108 101 162 118 162c16 0 24 -22 24 -35
s-46 -55 -68 -162c-18 -85 -59 -231 -104 -376c19 3 38 4 56 4zM395 -109c-156 -38 -322 -130 -322 -269c0 -39 32 -71 72 -71c91 0 164 92 250 340z" />
    <glyph glyph-name="Yacute" unicode="&#xdd;" horiz-adv-x="565" 
d="M516 -58c70 0 87 -21 87 -36s-9 -28 -30 -28s-42 27 -75 27c-16 0 -33 -1 -50 -4c-98 -294 -189 -391 -306 -391c-69 0 -114 56 -114 119c0 164 201 263 380 301c47 143 96 312 108 386c-83 -99 -210 -271 -295 -271c-18 0 -50 10 -50 54c0 83 151 267 151 358
c0 23 -16 38 -39 38c-106 0 -296 -162 -296 -268c0 -23 13 -27 13 -48c0 -20 -13 -32 -30 -32s-35 9 -35 52c0 136 221 345 375 345c50 0 62 -40 62 -74c0 -113 -143 -291 -143 -355c0 -14 6 -16 15 -16c42 0 162 141 246 250c84 108 101 162 118 162c16 0 24 -22 24 -35
s-46 -55 -68 -162c-18 -85 -59 -231 -104 -376c19 3 38 4 56 4zM395 -109c-156 -38 -322 -130 -322 -269c0 -39 32 -71 72 -71c91 0 164 92 250 340zM525 616c9 0 22 -16 22 -28c0 -11 -3 -15 -15 -27c-25 -24 -62 -43 -81 -43c-9 0 -13 4 -13 9c0 4 2 10 11 12
c16 5 42 36 61 67c4 8 9 10 15 10z" />
    <glyph glyph-name="Ydieresis" unicode="&#x178;" horiz-adv-x="565" 
d="M516 -58c70 0 87 -21 87 -36s-9 -28 -30 -28s-42 27 -75 27c-16 0 -33 -1 -50 -4c-98 -294 -189 -391 -306 -391c-69 0 -114 56 -114 119c0 164 201 263 380 301c47 143 96 312 108 386c-83 -99 -210 -271 -295 -271c-18 0 -50 10 -50 54c0 83 151 267 151 358
c0 23 -16 38 -39 38c-106 0 -296 -162 -296 -268c0 -23 13 -27 13 -48c0 -20 -13 -32 -30 -32s-35 9 -35 52c0 136 221 345 375 345c50 0 62 -40 62 -74c0 -113 -143 -291 -143 -355c0 -14 6 -16 15 -16c42 0 162 141 246 250c84 108 101 162 118 162c16 0 24 -22 24 -35
s-46 -55 -68 -162c-18 -85 -59 -231 -104 -376c19 3 38 4 56 4zM395 -109c-156 -38 -322 -130 -322 -269c0 -39 32 -71 72 -71c91 0 164 92 250 340zM426 544c0 18 19 48 44 48c11 0 15 -8 15 -18c0 -20 -16 -48 -42 -48c-12 0 -17 8 -17 18zM511 544c0 18 19 48 43 48
c12 0 16 -8 16 -18c0 -20 -16 -48 -43 -48c-11 0 -16 8 -16 18z" />
    <glyph glyph-name="Z" unicode="Z" horiz-adv-x="478" 
d="M372 463c0 27 -9 43 -38 43c-99 0 -264 -149 -264 -254c0 -22 -7 -38 -22 -38c-12 0 -26 9 -26 32c0 127 200 299 326 299c49 0 72 -31 72 -72c0 -53 -80 -131 -150 -188c51 0 123 -10 147 -104c43 20 91 38 133 38c18 0 34 -6 34 -19s-11 -20 -38 -20
c-34 0 -76 -18 -121 -41c1 -10 2 -20 2 -32c0 -198 -210 -503 -392 -503c-55 0 -99 45 -99 101c0 176 230 363 438 455c-12 61 -48 78 -75 78c-77 0 -79 -39 -110 -39c-30 0 -32 10 -32 27c0 16 27 37 73 77c53 45 142 124 142 160zM380 107c0 4 -1 8 -1 12
c-189 -88 -397 -261 -397 -414c0 -36 19 -61 61 -61c151 0 337 279 337 463z" />
    <glyph glyph-name="Zacute" unicode="&#x179;" horiz-adv-x="494" 
d="M372 463c0 27 -9 43 -38 43c-99 0 -264 -149 -264 -254c0 -22 -7 -38 -22 -38c-12 0 -26 9 -26 32c0 127 200 299 326 299c49 0 72 -31 72 -72c0 -53 -80 -131 -150 -188c51 0 123 -10 147 -104c43 20 91 38 133 38c18 0 34 -6 34 -19s-11 -20 -38 -20
c-34 0 -76 -18 -121 -41c1 -10 2 -20 2 -32c0 -198 -210 -503 -392 -503c-55 0 -99 45 -99 101c0 176 230 363 438 455c-12 61 -48 78 -75 78c-77 0 -79 -39 -110 -39c-30 0 -32 10 -32 27c0 16 27 37 73 77c53 45 142 124 142 160zM380 107c0 4 -1 8 -1 12
c-189 -88 -397 -261 -397 -414c0 -36 19 -61 61 -61c151 0 337 279 337 463zM313 660c10 0 23 -16 23 -29c0 -10 -4 -14 -16 -26c-25 -24 -62 -43 -81 -43c-9 0 -13 4 -13 9c0 3 3 10 11 12c16 5 43 36 61 67c5 8 9 10 15 10z" />
    <glyph glyph-name="Zcaron" unicode="&#x17d;" horiz-adv-x="494" 
d="M372 463c0 27 -9 43 -38 43c-99 0 -264 -149 -264 -254c0 -22 -7 -38 -22 -38c-12 0 -26 9 -26 32c0 127 200 299 326 299c49 0 72 -31 72 -72c0 -53 -80 -131 -150 -188c51 0 123 -10 147 -104c43 20 91 38 133 38c18 0 34 -6 34 -19s-11 -20 -38 -20
c-34 0 -76 -18 -121 -41c1 -10 2 -20 2 -32c0 -198 -210 -503 -392 -503c-55 0 -99 45 -99 101c0 176 230 363 438 455c-12 61 -48 78 -75 78c-77 0 -79 -39 -110 -39c-30 0 -32 10 -32 27c0 16 27 37 73 77c53 45 142 124 142 160zM380 107c0 4 -1 8 -1 12
c-189 -88 -397 -261 -397 -414c0 -36 19 -61 61 -61c151 0 337 279 337 463zM283 573c-16 0 -30 21 -44 41c-14 19 -20 35 -20 42c0 9 4 12 9 12s8 -5 17 -14c13 -13 37 -36 45 -36c15 0 42 19 60 37c7 7 12 12 19 12c4 0 8 -2 8 -9c0 -8 -5 -14 -34 -45
c-20 -21 -46 -40 -60 -40z" />
    <glyph glyph-name="Zdotaccent" unicode="&#x17b;" horiz-adv-x="494" 
d="M372 463c0 27 -9 43 -38 43c-99 0 -264 -149 -264 -254c0 -22 -7 -38 -22 -38c-12 0 -26 9 -26 32c0 127 200 299 326 299c49 0 72 -31 72 -72c0 -53 -80 -131 -150 -188c51 0 123 -10 147 -104c43 20 91 38 133 38c18 0 34 -6 34 -19s-11 -20 -38 -20
c-34 0 -76 -18 -121 -41c1 -10 2 -20 2 -32c0 -198 -210 -503 -392 -503c-55 0 -99 45 -99 101c0 176 230 363 438 455c-12 61 -48 78 -75 78c-77 0 -79 -39 -110 -39c-30 0 -32 10 -32 27c0 16 27 37 73 77c53 45 142 124 142 160zM380 107c0 4 -1 8 -1 12
c-189 -88 -397 -261 -397 -414c0 -36 19 -61 61 -61c151 0 337 279 337 463zM252 595c0 18 19 48 44 48c11 0 15 -8 15 -19c0 -19 -16 -47 -42 -47c-12 0 -17 8 -17 18z" />
    <glyph glyph-name="a" unicode="a" horiz-adv-x="317" 
d="M213 213c8 0 13 21 30 21c16 0 26 -9 26 -21c0 -13 -26 -47 -47 -87c-12 -22 -18 -42 -18 -57c0 -13 4 -24 13 -24c36 0 96 64 133 112c11 15 20 25 30 25s14 -6 14 -14c0 -9 -4 -15 -15 -29c-48 -57 -126 -134 -176 -134c-31 0 -47 22 -47 47c0 11 2 25 2 34
c0 6 0 9 -2 9c-6 0 -22 -19 -44 -39c-47 -41 -78 -61 -101 -61c-10 0 -30 15 -30 39c0 102 109 201 191 202c19 0 37 -23 41 -23zM158 198c-43 0 -131 -94 -131 -143c0 -6 4 -12 12 -12c17 0 147 113 147 130c0 5 -17 2 -17 13c0 6 -3 12 -11 12z" />
    <glyph glyph-name="a.salt" unicode="&#xe000;" horiz-adv-x="327" 
d="M159 198c-44 0 -131 -94 -131 -143c0 -6 6 -12 12 -12c17 0 146 113 146 130c0 5 -17 2 -17 13c0 6 -2 12 -10 12zM295 50c-19 -19 -48 -45 -92 -45c-24 0 -47 13 -47 50c0 11 3 27 3 35c0 4 -1 5 -3 5c-5 0 -19 -16 -41 -36c-46 -41 -80 -64 -103 -64
c-10 0 -30 15 -30 39c0 102 109 202 191 202c24 0 32 -23 40 -23c9 0 13 21 30 21s27 -9 27 -21c0 -13 -26 -47 -47 -87c-12 -22 -20 -46 -20 -61c0 -13 6 -20 15 -20c18 0 33 10 45 22c13 12 23 25 33 25s14 -5 14 -13c0 -9 -2 -16 -15 -29z" />
    <glyph glyph-name="aacute" unicode="&#xe1;" horiz-adv-x="317" 
d="M213 213c8 0 13 21 30 21c16 0 26 -9 26 -21c0 -13 -26 -47 -47 -87c-12 -22 -18 -42 -18 -57c0 -13 4 -24 13 -24c36 0 96 64 133 112c11 15 20 25 30 25s14 -6 14 -14c0 -9 -4 -15 -15 -29c-48 -57 -126 -134 -176 -134c-31 0 -47 22 -47 47c0 11 2 25 2 34
c0 6 0 9 -2 9c-6 0 -22 -19 -44 -39c-47 -41 -78 -61 -101 -61c-10 0 -30 15 -30 39c0 102 109 201 191 202c19 0 37 -23 41 -23zM158 198c-43 0 -131 -94 -131 -143c0 -6 4 -12 12 -12c17 0 147 113 147 130c0 5 -17 2 -17 13c0 6 -3 12 -11 12zM221 351c8 0 22 -16 22 -28
c0 -10 -4 -13 -16 -25c-24 -24 -60 -42 -78 -42c-9 0 -13 4 -13 8s3 10 10 12c16 5 42 35 60 65c4 8 9 10 15 10z" />
    <glyph glyph-name="aacute.salt" unicode="&#xe001;" horiz-adv-x="327" 
d="M159 198c-44 0 -131 -94 -131 -143c0 -6 6 -12 12 -12c17 0 146 113 146 130c0 5 -17 2 -17 13c0 6 -2 12 -10 12zM295 50c-19 -19 -48 -45 -92 -45c-24 0 -47 13 -47 50c0 11 3 27 3 35c0 4 -1 5 -3 5c-5 0 -19 -16 -41 -36c-46 -41 -80 -64 -103 -64
c-10 0 -30 15 -30 39c0 102 109 202 191 202c24 0 32 -23 40 -23c9 0 13 21 30 21s27 -9 27 -21c0 -13 -26 -47 -47 -87c-12 -22 -20 -46 -20 -61c0 -13 6 -20 15 -20c18 0 33 10 45 22c13 12 23 25 33 25s14 -5 14 -13c0 -9 -2 -16 -15 -29zM208 362c9 0 22 -16 22 -29
c0 -10 -4 -14 -15 -26c-26 -24 -63 -43 -81 -43c-9 0 -13 4 -13 9c0 3 2 10 11 12c16 5 42 36 60 67c5 8 10 10 16 10z" />
    <glyph glyph-name="abreve" unicode="&#x103;" horiz-adv-x="317" 
d="M213 213c8 0 13 21 30 21c16 0 26 -9 26 -21c0 -13 -26 -47 -47 -87c-12 -22 -18 -42 -18 -57c0 -13 4 -24 13 -24c36 0 96 64 133 112c11 15 20 25 30 25s14 -6 14 -14c0 -9 -4 -15 -15 -29c-48 -57 -126 -134 -176 -134c-31 0 -47 22 -47 47c0 11 2 25 2 34
c0 6 0 9 -2 9c-6 0 -22 -19 -44 -39c-47 -41 -78 -61 -101 -61c-10 0 -30 15 -30 39c0 102 109 201 191 202c19 0 37 -23 41 -23zM158 198c-43 0 -131 -94 -131 -143c0 -6 4 -12 12 -12c17 0 147 113 147 130c0 5 -17 2 -17 13c0 6 -3 12 -11 12zM189 257
c-37 0 -78 27 -78 66c0 13 10 29 26 29c10 0 22 -5 22 -22c0 -6 -5 -10 -5 -17c0 -11 16 -23 38 -23c31 0 53 18 53 29c0 22 15 33 27 33c11 0 21 -7 21 -19c0 -13 -7 -27 -15 -36c-21 -24 -42 -40 -89 -40z" />
    <glyph glyph-name="abreve.salt" unicode="&#xe002;" horiz-adv-x="327" 
d="M159 198c-44 0 -131 -94 -131 -143c0 -6 6 -12 12 -12c17 0 146 113 146 130c0 5 -17 2 -17 13c0 6 -2 12 -10 12zM295 50c-19 -19 -48 -45 -92 -45c-24 0 -47 13 -47 50c0 11 3 27 3 35c0 4 -1 5 -3 5c-5 0 -19 -16 -41 -36c-46 -41 -80 -64 -103 -64
c-10 0 -30 15 -30 39c0 102 109 202 191 202c24 0 32 -23 40 -23c9 0 13 21 30 21s27 -9 27 -21c0 -13 -26 -47 -47 -87c-12 -22 -20 -46 -20 -61c0 -13 6 -20 15 -20c18 0 33 10 45 22c13 12 23 25 33 25s14 -5 14 -13c0 -9 -2 -16 -15 -29zM182 266c-36 0 -78 27 -78 66
c0 13 10 29 26 29c10 0 22 -4 22 -21c0 -7 -5 -11 -5 -18c0 -11 16 -22 38 -22c31 0 53 17 53 28c0 22 15 33 27 33c11 0 21 -7 21 -19c0 -13 -6 -26 -15 -36c-21 -23 -42 -40 -89 -40z" />
    <glyph glyph-name="acircumflex" unicode="&#xe2;" horiz-adv-x="317" 
d="M213 213c8 0 13 21 30 21c16 0 26 -9 26 -21c0 -13 -26 -47 -47 -87c-12 -22 -18 -42 -18 -57c0 -13 4 -24 13 -24c36 0 96 64 133 112c11 15 20 25 30 25s14 -6 14 -14c0 -9 -4 -15 -15 -29c-48 -57 -126 -134 -176 -134c-31 0 -47 22 -47 47c0 11 2 25 2 34
c0 6 0 9 -2 9c-6 0 -22 -19 -44 -39c-47 -41 -78 -61 -101 -61c-10 0 -30 15 -30 39c0 102 109 201 191 202c19 0 37 -23 41 -23zM158 198c-43 0 -131 -94 -131 -143c0 -6 4 -12 12 -12c17 0 147 113 147 130c0 5 -17 2 -17 13c0 6 -3 12 -11 12zM185 289
c-29 -16 -70 -37 -78 -37c-6 0 -10 3 -10 8s4 8 12 13c18 11 31 22 52 47c9 11 15 20 31 20c17 0 18 -10 24 -23c10 -20 20 -35 28 -44c5 -7 11 -8 11 -13c0 -6 -3 -8 -9 -8c-7 0 -27 5 -61 37z" />
    <glyph glyph-name="acircumflex.salt" unicode="&#xe003;" horiz-adv-x="327" 
d="M159 198c-44 0 -131 -94 -131 -143c0 -6 6 -12 12 -12c17 0 146 113 146 130c0 5 -17 2 -17 13c0 6 -2 12 -10 12zM295 50c-19 -19 -48 -45 -92 -45c-24 0 -47 13 -47 50c0 11 3 27 3 35c0 4 -1 5 -3 5c-5 0 -19 -16 -41 -36c-46 -41 -80 -64 -103 -64
c-10 0 -30 15 -30 39c0 102 109 202 191 202c24 0 32 -23 40 -23c9 0 13 21 30 21s27 -9 27 -21c0 -13 -26 -47 -47 -87c-12 -22 -20 -46 -20 -61c0 -13 6 -20 15 -20c18 0 33 10 45 22c13 12 23 25 33 25s14 -5 14 -13c0 -9 -2 -16 -15 -29zM203 289
c-29 -16 -70 -37 -78 -37c-6 0 -10 3 -10 8s4 8 11 13c19 11 32 22 53 47c9 11 15 20 30 20c18 0 19 -10 25 -23c9 -20 19 -35 28 -44c5 -7 11 -8 11 -13c0 -6 -4 -8 -9 -8c-7 0 -27 5 -61 37z" />
    <glyph glyph-name="acute" unicode="&#xb4;" horiz-adv-x="118" 
d="M92 346c10 0 23 -16 23 -28c0 -10 -4 -15 -16 -26c-25 -25 -62 -43 -81 -43c-9 0 -13 4 -13 8s3 10 11 12c16 5 43 37 61 67c5 8 9 10 15 10z" />
    <glyph glyph-name="adieresis" unicode="&#xe4;" horiz-adv-x="317" 
d="M213 213c8 0 13 21 30 21c16 0 26 -9 26 -21c0 -13 -26 -47 -47 -87c-12 -22 -18 -42 -18 -57c0 -13 4 -24 13 -24c36 0 96 64 133 112c11 15 20 25 30 25s14 -6 14 -14c0 -9 -4 -15 -15 -29c-48 -57 -126 -134 -176 -134c-31 0 -47 22 -47 47c0 11 2 25 2 34
c0 6 0 9 -2 9c-6 0 -22 -19 -44 -39c-47 -41 -78 -61 -101 -61c-10 0 -30 15 -30 39c0 102 109 201 191 202c19 0 37 -23 41 -23zM158 198c-43 0 -131 -94 -131 -143c0 -6 4 -12 12 -12c17 0 147 113 147 130c0 5 -17 2 -17 13c0 6 -3 12 -11 12zM105 271c0 18 20 48 44 48
c12 0 16 -8 16 -19c0 -19 -16 -47 -43 -47c-11 0 -17 8 -17 18zM190 271c0 18 19 48 44 48c12 0 15 -8 15 -19c0 -19 -16 -47 -42 -47c-11 0 -17 8 -17 18z" />
    <glyph glyph-name="adieresis.salt" unicode="&#xe004;" horiz-adv-x="327" 
d="M159 198c-44 0 -131 -94 -131 -143c0 -6 6 -12 12 -12c17 0 146 113 146 130c0 5 -17 2 -17 13c0 6 -2 12 -10 12zM295 50c-19 -19 -48 -45 -92 -45c-24 0 -47 13 -47 50c0 11 3 27 3 35c0 4 -1 5 -3 5c-5 0 -19 -16 -41 -36c-46 -41 -80 -64 -103 -64
c-10 0 -30 15 -30 39c0 102 109 202 191 202c24 0 32 -23 40 -23c9 0 13 21 30 21s27 -9 27 -21c0 -13 -26 -47 -47 -87c-12 -22 -20 -46 -20 -61c0 -13 6 -20 15 -20c18 0 33 10 45 22c13 12 23 25 33 25s14 -5 14 -13c0 -9 -2 -16 -15 -29zM120 283c0 17 19 47 44 47
c12 0 15 -7 15 -18c0 -19 -16 -48 -42 -48c-11 0 -17 9 -17 19zM205 283c0 17 19 47 44 47c11 0 15 -7 15 -18c0 -19 -16 -48 -42 -48c-12 0 -17 9 -17 19z" />
    <glyph glyph-name="ae" unicode="&#xe6;" horiz-adv-x="400" 
d="M237 29c89 0 160 80 196 128c11 15 20 25 31 25c9 0 13 -6 13 -14c0 -9 -3 -15 -15 -29c-48 -57 -130 -146 -241 -146c-30 0 -65 24 -65 59c0 11 2 25 2 34c0 6 0 9 -2 9c-6 0 -22 -19 -44 -39c-47 -41 -78 -61 -101 -61c-10 0 -30 15 -30 39c0 102 109 201 191 202
c19 0 37 -23 41 -23c8 0 13 21 30 21c13 0 23 -7 26 -16c22 13 45 19 65 19c19 0 41 -16 41 -35c0 -51 -87 -109 -149 -123c-17 -4 -19 -10 -19 -20c0 -6 3 -30 30 -30zM158 198c-43 0 -131 -94 -131 -143c0 -6 4 -12 12 -12c17 0 147 113 147 130c0 5 -17 2 -17 13
c0 6 -3 12 -11 12zM322 198c-31 0 -87 -64 -102 -88c36 1 114 57 114 78c0 8 -4 10 -12 10z" />
    <glyph glyph-name="agrave" unicode="&#xe0;" horiz-adv-x="317" 
d="M213 213c8 0 13 21 30 21c16 0 26 -9 26 -21c0 -13 -26 -47 -47 -87c-12 -22 -18 -42 -18 -57c0 -13 4 -24 13 -24c36 0 96 64 133 112c11 15 20 25 30 25s14 -6 14 -14c0 -9 -4 -15 -15 -29c-48 -57 -126 -134 -176 -134c-31 0 -47 22 -47 47c0 11 2 25 2 34
c0 6 0 9 -2 9c-6 0 -22 -19 -44 -39c-47 -41 -78 -61 -101 -61c-10 0 -30 15 -30 39c0 102 109 201 191 202c19 0 37 -23 41 -23zM158 198c-43 0 -131 -94 -131 -143c0 -6 4 -12 12 -12c17 0 147 113 147 130c0 5 -17 2 -17 13c0 6 -3 12 -11 12zM126 346c6 0 11 -2 16 -10
c18 -30 44 -62 61 -67c8 -2 10 -6 10 -10s-4 -10 -13 -10c-18 0 -55 18 -81 43c-11 11 -15 16 -15 26c0 12 13 28 22 28z" />
    <glyph glyph-name="agrave.salt" unicode="&#xe005;" horiz-adv-x="327" 
d="M159 198c-44 0 -131 -94 -131 -143c0 -6 6 -12 12 -12c17 0 146 113 146 130c0 5 -17 2 -17 13c0 6 -2 12 -10 12zM295 50c-19 -19 -48 -45 -92 -45c-24 0 -47 13 -47 50c0 11 3 27 3 35c0 4 -1 5 -3 5c-5 0 -19 -16 -41 -36c-46 -41 -80 -64 -103 -64
c-10 0 -30 15 -30 39c0 102 109 202 191 202c24 0 32 -23 40 -23c9 0 13 21 30 21s27 -9 27 -21c0 -13 -26 -47 -47 -87c-12 -22 -20 -46 -20 -61c0 -13 6 -20 15 -20c18 0 33 10 45 22c13 12 23 25 33 25s14 -5 14 -13c0 -9 -2 -16 -15 -29zM135 362c6 0 11 -2 15 -10
c19 -31 45 -62 61 -67c8 -2 10 -6 10 -10c0 -5 -3 -11 -12 -11c-19 0 -56 19 -81 43c-12 12 -16 16 -16 26c0 13 14 29 23 29z" />
    <glyph glyph-name="ampersand" unicode="&#x26;" horiz-adv-x="437" 
d="M404 487c0 -100 -108 -161 -182 -191c2 -49 12 -93 26 -134c18 31 34 54 61 54c31 0 40 -14 57 -14c11 0 14 2 14 12c0 12 7 23 23 23c15 0 24 -10 24 -24c0 -28 -24 -47 -50 -47c-33 0 -45 12 -64 12c-17 0 -30 -29 -50 -62c25 -51 57 -81 86 -81c21 0 17 18 38 18
c11 0 18 -7 18 -18c0 -17 -12 -35 -62 -35c-47 0 -80 31 -105 74c-25 -40 -63 -74 -120 -74c-55 0 -114 47 -114 127c0 104 106 163 178 192c0 120 63 225 152 225c49 0 70 -23 70 -57zM126 38c42 0 70 41 91 80c-22 56 -31 116 -35 161c-48 -20 -138 -63 -138 -150
c0 -55 34 -91 82 -91zM333 514c-57 0 -108 -77 -111 -181c76 37 143 69 143 152c0 19 -14 29 -32 29z" />
    <glyph glyph-name="aogonek" unicode="&#x105;" horiz-adv-x="317" 
d="M11 -5c-16 -11 -37 -31 -37 -50c0 -21 26 -34 43 -34c7 0 8 -1 8 -5s-8 -32 -26 -32c-17 0 -58 24 -58 60c0 31 26 58 51 71c-7 7 -11 17 -11 29c0 102 109 201 191 202c19 0 37 -23 41 -23c8 0 13 21 30 21c16 0 26 -9 26 -21c0 -13 -26 -47 -47 -87
c-12 -22 -18 -42 -18 -57c0 -13 4 -24 13 -24c36 0 96 64 133 112c11 15 20 25 30 25s14 -6 14 -14c0 -9 -4 -15 -15 -29c-48 -57 -126 -134 -176 -134c-31 0 -47 22 -47 47c0 11 2 25 2 34c0 6 0 9 -2 9c-6 0 -22 -19 -44 -39c-47 -41 -78 -61 -101 -61zM158 198
c-43 0 -131 -94 -131 -143c0 -6 4 -12 12 -12c17 0 147 113 147 130c0 5 -17 2 -17 13c0 6 -3 12 -11 12z" />
    <glyph glyph-name="aogonek.salt" unicode="&#xe006;" horiz-adv-x="327" 
d="M295 50c-19 -19 -48 -45 -92 -45c-24 0 -47 13 -47 50c0 11 3 27 3 35c0 4 -1 5 -3 5c-5 0 -19 -16 -41 -36c-46 -41 -80 -64 -103 -64h-5c-16 -10 -35 -30 -35 -49c0 -21 26 -34 43 -34c7 0 8 -1 8 -5s-8 -32 -26 -32s-59 24 -59 60c0 32 28 58 53 72c-6 7 -9 16 -9 27
c0 102 109 202 191 202c24 0 32 -23 40 -23c9 0 13 21 30 21s27 -9 27 -21c0 -13 -26 -47 -47 -87c-12 -22 -20 -46 -20 -61c0 -13 6 -20 15 -20c18 0 33 10 45 22c13 12 23 25 33 25s14 -5 14 -13c0 -9 -2 -16 -15 -29zM159 198c-44 0 -131 -94 -131 -143
c0 -6 6 -12 12 -12c17 0 146 113 146 130c0 5 -17 2 -17 13c0 6 -2 12 -10 12z" />
    <glyph glyph-name="approxequal" unicode="&#x2248;" horiz-adv-x="385" 
d="M283 255c35 0 49 10 60 21c3 4 7 7 14 7c6 0 13 -4 13 -14c0 -4 -1 -8 -4 -13c-13 -22 -41 -50 -87 -50c-51 0 -135 49 -187 49c-31 0 -45 -15 -58 -28c-4 -3 -7 -6 -13 -6s-15 6 -15 15c0 3 2 7 6 12c16 21 42 54 92 54c62 0 118 -47 179 -47zM283 162c35 0 49 10 60 22
c3 3 7 6 14 6c6 0 13 -4 13 -13c0 -5 -1 -8 -4 -14c-13 -21 -41 -49 -87 -49c-51 0 -135 48 -187 48c-31 0 -45 -14 -58 -27c-4 -3 -7 -6 -13 -6s-15 6 -15 14c0 4 2 7 6 13c16 21 42 53 92 53c62 0 118 -47 179 -47z" />
    <glyph glyph-name="aring" unicode="&#xe5;" horiz-adv-x="317" 
d="M213 213c8 0 13 21 30 21c16 0 26 -9 26 -21c0 -13 -26 -47 -47 -87c-12 -22 -18 -42 -18 -57c0 -13 4 -24 13 -24c36 0 96 64 133 112c11 15 20 25 30 25s14 -6 14 -14c0 -9 -4 -15 -15 -29c-48 -57 -126 -134 -176 -134c-31 0 -47 22 -47 47c0 11 2 25 2 34
c0 6 0 9 -2 9c-6 0 -22 -19 -44 -39c-47 -41 -78 -61 -101 -61c-10 0 -30 15 -30 39c0 102 109 201 191 202c19 0 37 -23 41 -23zM158 198c-43 0 -131 -94 -131 -143c0 -6 4 -12 12 -12c17 0 147 113 147 130c0 5 -17 2 -17 13c0 6 -3 12 -11 12zM133 301c0 36 33 70 69 70
c27 0 47 -19 47 -47c0 -34 -33 -69 -69 -69c-28 0 -47 16 -47 46zM199 341c-15 0 -34 -21 -34 -38c0 -12 8 -18 18 -18c15 0 33 21 33 41c0 8 -7 15 -17 15z" />
    <glyph glyph-name="aring.salt" unicode="&#xe007;" horiz-adv-x="327" 
d="M159 198c-44 0 -131 -94 -131 -143c0 -6 6 -12 12 -12c17 0 146 113 146 130c0 5 -17 2 -17 13c0 6 -2 12 -10 12zM295 50c-19 -19 -48 -45 -92 -45c-24 0 -47 13 -47 50c0 11 3 27 3 35c0 4 -1 5 -3 5c-5 0 -19 -16 -41 -36c-46 -41 -80 -64 -103 -64
c-10 0 -30 15 -30 39c0 102 109 202 191 202c24 0 32 -23 40 -23c9 0 13 21 30 21s27 -9 27 -21c0 -13 -26 -47 -47 -87c-12 -22 -20 -46 -20 -61c0 -13 6 -20 15 -20c18 0 33 10 45 22c13 12 23 25 33 25s14 -5 14 -13c0 -9 -2 -16 -15 -29zM129 303c0 36 33 70 69 70
c28 0 47 -20 47 -47c0 -34 -32 -70 -69 -70c-27 0 -47 17 -47 47zM195 343c-15 0 -34 -21 -34 -39c0 -11 8 -18 18 -18c15 0 34 22 34 41c0 9 -8 16 -18 16z" />
    <glyph glyph-name="asciicircum" unicode="^" horiz-adv-x="341" 
d="M324 116c2 -1 4 -7 4 -10c0 -13 -18 -24 -28 -24c-7 0 -12 3 -15 8c-36 48 -90 122 -119 159l-118 -162c-5 -6 -9 -8 -17 -8c-15 0 -25 10 -25 24c0 2 2 6 4 11c5 8 81 115 132 183c7 10 12 16 24 16c11 0 17 -9 23 -16c14 -17 44 -57 135 -181z" />
    <glyph glyph-name="asciitilde" unicode="~" horiz-adv-x="385" 
d="M283 201c35 0 49 10 60 22c3 3 7 6 14 6c6 0 13 -4 13 -13c0 -5 -1 -9 -4 -14c-13 -22 -41 -50 -87 -50c-51 0 -135 49 -187 49c-31 0 -45 -15 -58 -28c-4 -3 -7 -6 -13 -6s-15 6 -15 15c0 4 2 7 6 12c16 22 42 54 92 54c62 0 118 -47 179 -47z" />
    <glyph glyph-name="asterisk" unicode="*" horiz-adv-x="166" 
d="M104 479c0 -5 -1 -22 -3 -46c14 10 35 31 41 31c10 0 20 -14 20 -24c0 -6 -2 -12 -7 -15c-16 -9 -36 -15 -45 -18c14 -5 36 -12 44 -16c4 -1 8 -9 8 -15c0 -10 -9 -23 -20 -23c-6 0 -25 19 -40 30l2 -47c0 -6 -9 -16 -21 -16c-11 0 -20 10 -20 16c0 13 1 34 2 48
c-14 -11 -35 -31 -40 -31c-10 0 -21 11 -21 23c0 6 4 13 8 15c18 10 35 14 42 18c-20 8 -33 11 -42 16c-5 2 -8 8 -8 15c0 10 10 24 21 24c4 0 23 -21 41 -33c0 11 -3 33 -3 48c0 7 9 16 20 16c12 0 21 -9 21 -16z" />
    <glyph glyph-name="at" unicode="@" horiz-adv-x="351" 
d="M370 181c0 -74 -54 -162 -111 -162c-36 0 -44 30 -44 67c0 4 0 7 -2 7c-9 0 -74 -75 -120 -75c-8 0 -30 13 -30 33c0 85 96 171 163 172c17 0 30 -20 33 -20c7 0 11 19 26 19c14 0 21 -14 21 -25c0 2 -48 -91 -48 -128c0 -9 3 -14 11 -14c30 0 64 67 64 127
c0 47 -37 64 -83 64c-91 0 -211 -82 -211 -184c0 -46 30 -69 66 -69c25 0 43 16 43 16s10 9 18 9c7 0 13 -10 13 -18c0 -12 -30 -37 -77 -37c-54 0 -99 33 -99 98c0 120 143 217 245 217c68 0 122 -30 122 -97zM215 186c-36 0 -109 -77 -109 -118c0 -6 3 -10 10 -10
c15 0 121 94 121 108c0 13 -9 20 -22 20z" />
    <glyph glyph-name="atilde" unicode="&#xe3;" horiz-adv-x="317" 
d="M213 213c8 0 13 21 30 21c16 0 26 -9 26 -21c0 -13 -26 -47 -47 -87c-12 -22 -18 -42 -18 -57c0 -13 4 -24 13 -24c36 0 96 64 133 112c11 15 20 25 30 25s14 -6 14 -14c0 -9 -4 -15 -15 -29c-48 -57 -126 -134 -176 -134c-31 0 -47 22 -47 47c0 11 2 25 2 34
c0 6 0 9 -2 9c-6 0 -22 -19 -44 -39c-47 -41 -78 -61 -101 -61c-10 0 -30 15 -30 39c0 102 109 201 191 202c19 0 37 -23 41 -23zM158 198c-43 0 -131 -94 -131 -143c0 -6 4 -12 12 -12c17 0 147 113 147 130c0 5 -17 2 -17 13c0 6 -3 12 -11 12zM210 256
c-24 0 -45 19 -71 19c-13 0 -25 -10 -31 -10s-9 2 -9 8c0 9 28 40 50 40c23 0 44 -19 70 -19c12 0 30 13 36 13c5 0 8 -1 8 -7c0 -8 -27 -44 -53 -44z" />
    <glyph glyph-name="atilde.salt" unicode="&#xe008;" horiz-adv-x="327" 
d="M159 198c-44 0 -131 -94 -131 -143c0 -6 6 -12 12 -12c17 0 146 113 146 130c0 5 -17 2 -17 13c0 6 -2 12 -10 12zM295 50c-19 -19 -48 -45 -92 -45c-24 0 -47 13 -47 50c0 11 3 27 3 35c0 4 -1 5 -3 5c-5 0 -19 -16 -41 -36c-46 -41 -80 -64 -103 -64
c-10 0 -30 15 -30 39c0 102 109 202 191 202c24 0 32 -23 40 -23c9 0 13 21 30 21s27 -9 27 -21c0 -13 -26 -47 -47 -87c-12 -22 -20 -46 -20 -61c0 -13 6 -20 15 -20c18 0 33 10 45 22c13 12 23 25 33 25s14 -5 14 -13c0 -9 -2 -16 -15 -29zM222 254c-26 0 -49 21 -76 21
c-14 0 -27 -11 -34 -11c-5 0 -9 2 -9 9c0 9 30 43 53 43c26 0 47 -21 75 -21c13 0 32 14 38 14s8 -2 8 -7c0 -9 -28 -48 -55 -48z" />
    <glyph glyph-name="b" unicode="b" horiz-adv-x="303" 
d="M298 571c22 0 38 -20 38 -40c0 -82 -86 -225 -241 -339c-9 -12 -21 -60 -21 -73c0 -2 0 -4 1 -4c6 0 11 7 18 15c46 57 106 112 162 112c24 0 40 -19 40 -46c0 -84 -77 -194 -149 -194c-34 0 -44 16 -44 32c0 10 9 20 23 20c17 0 18 -6 27 -6c40 0 97 85 97 133
c0 8 -6 16 -18 16c-22 0 -65 -41 -116 -97c-20 -21 -43 -56 -43 -72s-20 -33 -30 -33s-19 5 -19 37c0 128 51 268 112 381c61 114 106 158 163 158zM282 532c-16 0 -63 -36 -109 -126c-41 -81 -62 -144 -67 -160c117 82 191 231 191 271c0 10 -5 15 -15 15z" />
    <glyph glyph-name="b.01" unicode="&#xe009;" horiz-adv-x="322" 
d="M282 532c-16 0 -63 -36 -109 -126c-41 -81 -62 -144 -67 -160c117 82 191 231 191 271c0 10 -5 15 -15 15zM356 186c18 0 33 -3 33 -17c0 -13 -14 -15 -35 -15c-23 0 -45 -4 -67 -9c-19 -72 -75 -143 -133 -143c-20 0 -39 16 -39 39c0 37 59 91 133 121c1 7 1 14 1 19
c0 8 -6 16 -18 16c-22 0 -65 -41 -116 -97c-20 -21 -43 -56 -43 -72s-20 -33 -30 -33s-19 5 -19 37c0 128 51 268 112 381c61 114 106 158 163 158c22 0 38 -20 38 -40c0 -82 -86 -225 -241 -339c-9 -12 -21 -60 -21 -73c0 -2 0 -4 1 -4c6 0 11 7 18 15
c46 57 106 112 162 112c24 0 40 -19 40 -46c0 -6 -1 -12 -2 -18c21 4 42 8 63 8zM165 35c27 0 57 47 73 91c-50 -24 -85 -57 -85 -78c0 -9 5 -13 12 -13z" />
    <glyph glyph-name="b.02" unicode="&#xe00a;" horiz-adv-x="303" 
d="M75 115c6 0 11 7 18 15c46 57 106 112 162 112c24 0 40 -19 40 -46c0 -84 -77 -194 -149 -194c-34 0 -44 16 -44 32c0 10 9 20 23 20c17 0 18 -6 27 -6c40 0 97 85 97 133c0 8 -6 16 -18 16c-22 0 -65 -41 -116 -97c-20 -21 -43 -56 -43 -72s-20 -33 -30 -33
s-19 5 -19 37c0 168 86 371 183 503c18 24 29 35 41 35c13 0 22 -6 22 -19c0 -12 -4 -17 -22 -35c-85 -85 -173 -330 -173 -397c0 -2 1 -4 1 -4z" />
    <glyph glyph-name="backslash" unicode="\" horiz-adv-x="176" 
d="M-82 472c-4 9 -7 20 -7 26c0 8 7 16 27 16c7 0 15 -7 18 -13c49 -110 216 -476 223 -489c3 -6 4 -7 4 -14c0 -12 -11 -12 -30 -12c-7 0 -15 6 -19 12c-17 39 -176 388 -216 474z" />
    <glyph glyph-name="bar" unicode="|" horiz-adv-x="64" 
d="M53 507v-534c0 -12 -4 -19 -21 -19c-14 0 -24 7 -24 21v532c0 14 9 22 22 22c14 0 23 -8 23 -22z" />
    <glyph glyph-name="braceleft" unicode="{" horiz-adv-x="148" 
d="M5 228c0 9 7 15 18 18c20 5 39 19 47 35c8 18 15 35 22 56c12 31 24 66 40 98c21 43 80 61 120 61c7 0 15 -4 15 -14c0 -6 -4 -11 -17 -12c-29 -4 -51 -22 -71 -52c-3 -6 -13 -25 -24 -51c-13 -29 -27 -62 -46 -95c-14 -24 -25 -36 -39 -44c8 -9 17 -25 19 -46
c2 -24 2 -53 2 -77c0 -56 0 -64 1 -70c3 -29 21 -41 45 -47c11 -2 13 -3 13 -10c0 -9 -9 -16 -17 -16c-43 0 -95 18 -95 67c0 33 3 67 6 98c2 22 4 42 4 55c0 14 -13 26 -29 31c-10 3 -14 7 -14 15z" />
    <glyph glyph-name="braceright" unicode="}" horiz-adv-x="217" 
d="M206 230c0 -9 -7 -15 -19 -18c-20 -5 -39 -19 -47 -35c-8 -18 -14 -35 -22 -56c-12 -31 -24 -66 -39 -98c-22 -43 -81 -61 -121 -61c-7 0 -15 4 -15 14c0 6 4 11 17 12c29 4 52 22 71 52c4 6 13 25 24 52c14 28 27 61 46 94c14 24 25 37 39 44c-8 9 -17 25 -18 46
c-3 24 -3 53 -3 77v70c-4 29 -22 41 -46 47c-11 2 -13 4 -13 10c0 9 9 16 17 16c43 0 95 -18 95 -67c0 -32 -3 -67 -6 -98c-2 -22 -4 -42 -4 -55c0 -14 14 -26 29 -30c10 -4 15 -8 15 -16z" />
    <glyph glyph-name="bracketleft" unicode="[" horiz-adv-x="136" 
d="M23 -37c-18 0 -21 5 -21 21v529c0 14 12 20 21 20h87c15 0 19 -11 19 -21c0 -14 -5 -22 -20 -22h-63v-484h64c15 0 19 -8 19 -21c0 -14 -5 -21 -20 -21c-11 0 -38 -1 -59 -1h-27z" />
    <glyph glyph-name="bracketright" unicode="]" horiz-adv-x="139" 
d="M109 -36h-85c-16 0 -22 7 -22 21c0 13 6 21 20 21h64v484h-62c-16 0 -22 8 -22 22c0 10 6 21 20 21h87c9 0 22 -6 22 -20c0 -65 -1 -280 -1 -529c0 -16 -2 -20 -21 -20z" />
    <glyph glyph-name="breve" unicode="&#x2d8;" horiz-adv-x="189" 
d="M82 243c-37 0 -78 27 -78 66c0 13 10 29 26 29c10 0 22 -5 22 -22c0 -6 -5 -10 -5 -17c0 -11 16 -23 38 -23c30 0 53 18 53 29c0 22 15 33 27 33c11 0 21 -7 21 -19c0 -13 -7 -26 -15 -36c-21 -24 -42 -40 -89 -40z" />
    <glyph glyph-name="brokenbar" unicode="&#xa6;" horiz-adv-x="65" 
d="M53 474v-211c0 -10 -9 -18 -18 -18c-12 0 -25 14 -25 27v209c0 13 8 19 18 19c14 0 25 -14 25 -26zM53 150v-209c0 -11 -9 -20 -18 -20c-12 0 -25 15 -25 27v210c0 13 7 19 18 19c14 0 25 -14 25 -27z" />
    <glyph glyph-name="bullet" unicode="&#x2022;" horiz-adv-x="71" 
d="M2 196c0 15 10 38 28 38c13 0 19 -12 19 -26c0 -21 -14 -36 -27 -36s-20 11 -20 24z" />
    <glyph glyph-name="c" unicode="c" horiz-adv-x="212" 
d="M55 32c67 0 153 77 189 125c12 15 20 25 31 25c9 0 14 -6 14 -14c0 -9 -4 -15 -16 -29c-47 -57 -144 -143 -230 -143c-21 0 -58 16 -58 61c0 65 93 179 172 179c22 0 45 -23 45 -40c0 -29 -30 -55 -49 -55c-7 0 -14 2 -14 17c0 14 23 16 23 31c0 4 -3 8 -10 8
c-41 0 -121 -78 -121 -135c0 -15 7 -30 24 -30z" />
    <glyph glyph-name="c.salt" unicode="&#xe00b;" horiz-adv-x="190" 
d="M62 32c28 0 55 20 74 33c15 12 23 22 33 22s14 -5 14 -14c0 -8 -6 -16 -20 -27c-30 -23 -64 -50 -110 -50c-33 0 -68 16 -68 61c0 65 93 179 172 179c22 0 45 -23 45 -40c0 -29 -30 -55 -49 -55c-7 0 -14 2 -14 17c0 14 23 16 23 31c0 4 -3 8 -10 8
c-41 0 -121 -78 -121 -135c0 -15 11 -30 31 -30z" />
    <glyph glyph-name="cacute" unicode="&#x107;" horiz-adv-x="212" 
d="M55 32c67 0 153 77 189 125c12 15 20 25 31 25c9 0 14 -6 14 -14c0 -9 -4 -15 -16 -29c-47 -57 -144 -143 -230 -143c-21 0 -58 16 -58 61c0 65 93 179 172 179c22 0 45 -23 45 -40c0 -29 -30 -55 -49 -55c-7 0 -14 2 -14 17c0 14 23 16 23 31c0 4 -3 8 -10 8
c-41 0 -121 -78 -121 -135c0 -15 7 -30 24 -30zM191 358c9 0 22 -16 22 -28c0 -10 -4 -15 -15 -27c-26 -24 -62 -43 -81 -43c-9 0 -13 4 -13 9c0 4 2 10 11 12c16 5 42 36 61 67c4 8 9 10 15 10z" />
    <glyph glyph-name="cacute.salt" unicode="&#xe00c;" horiz-adv-x="190" 
d="M62 32c28 0 55 20 74 33c15 12 23 22 33 22s14 -5 14 -14c0 -8 -6 -16 -20 -27c-30 -23 -64 -50 -110 -50c-33 0 -68 16 -68 61c0 65 93 179 172 179c22 0 45 -23 45 -40c0 -29 -30 -55 -49 -55c-7 0 -14 2 -14 17c0 14 23 16 23 31c0 4 -3 8 -10 8
c-41 0 -121 -78 -121 -135c0 -15 11 -30 31 -30zM192 354c10 0 23 -16 23 -28c0 -10 -4 -15 -16 -26c-25 -25 -62 -44 -80 -44c-10 0 -14 4 -14 9c0 4 3 10 11 12c16 5 43 36 61 67c5 8 9 10 15 10z" />
    <glyph glyph-name="caron" unicode="&#x2c7;" horiz-adv-x="157" 
d="M61 248c-16 0 -31 21 -45 41c-14 19 -19 35 -19 42c0 9 4 12 8 12c5 0 9 -5 17 -13c13 -14 37 -37 46 -37c14 0 41 19 60 37c7 7 11 12 18 12c4 0 9 -2 9 -9c0 -8 -6 -13 -35 -45c-19 -21 -45 -40 -59 -40z" />
    <glyph glyph-name="ccaron" unicode="&#x10d;" horiz-adv-x="212" 
d="M55 32c67 0 153 77 189 125c12 15 20 25 31 25c9 0 14 -6 14 -14c0 -9 -4 -15 -16 -29c-47 -57 -144 -143 -230 -143c-21 0 -58 16 -58 61c0 65 93 179 172 179c22 0 45 -23 45 -40c0 -29 -30 -55 -49 -55c-7 0 -14 2 -14 17c0 14 23 16 23 31c0 4 -3 8 -10 8
c-41 0 -121 -78 -121 -135c0 -15 7 -30 24 -30zM150 259c-16 0 -31 21 -45 41c-13 19 -19 35 -19 42c0 8 4 11 9 11c4 0 8 -4 17 -13c13 -14 37 -36 45 -36c15 0 42 19 60 37c7 7 12 12 19 12c3 0 8 -2 8 -9c0 -8 -5 -14 -35 -45c-19 -21 -45 -40 -59 -40z" />
    <glyph glyph-name="ccaron.salt" unicode="&#xe00d;" horiz-adv-x="190" 
d="M62 32c28 0 55 20 74 33c15 12 23 22 33 22s14 -5 14 -14c0 -8 -6 -16 -20 -27c-30 -23 -64 -50 -110 -50c-33 0 -68 16 -68 61c0 65 93 179 172 179c22 0 45 -23 45 -40c0 -29 -30 -55 -49 -55c-7 0 -14 2 -14 17c0 14 23 16 23 31c0 4 -3 8 -10 8
c-41 0 -121 -78 -121 -135c0 -15 11 -30 31 -30zM146 263c-17 0 -31 22 -45 41s-19 36 -19 42c0 9 3 12 8 12s9 -5 17 -13c13 -14 37 -36 45 -36c15 0 42 18 61 37c6 7 11 11 18 11c4 0 8 -1 8 -8c0 -9 -5 -14 -34 -46c-19 -20 -46 -40 -59 -40z" />
    <glyph glyph-name="ccedilla" unicode="&#xe7;" horiz-adv-x="212" 
d="M69 2h-39l-2 -4c-20 6 -43 24 -43 59c0 65 93 179 172 179c22 0 45 -23 45 -40c0 -29 -30 -55 -49 -55c-7 0 -14 2 -14 17c0 14 23 16 23 31c0 4 -3 8 -10 8c-41 0 -121 -78 -121 -135c0 -15 7 -30 24 -30c67 0 153 77 189 125c12 15 20 25 31 25c9 0 14 -6 14 -14
c0 -9 -4 -15 -16 -29c-43 -52 -125 -127 -204 -141v4zM43 -4c-5 0 -9 1 -15 2c-3 -8 -8 -26 -8 -33c0 -8 8 -18 19 -18c16 0 45 5 61 11c-1 -25 -35 -46 -60 -46c-29 0 -32 19 -46 19c-12 0 -25 -13 -25 -26c0 -21 37 -25 57 -25c47 0 112 35 112 86c0 14 -7 24 -20 24
c-9 0 -25 -3 -36 -3c-6 0 -12 5 -13 11c-9 -1 -17 -2 -26 -2z" />
    <glyph glyph-name="ccedilla.salt" unicode="&#xe00e;" horiz-adv-x="190" 
d="M65 0h-39c-23 7 -41 25 -41 57c0 65 93 179 172 179c22 0 45 -23 45 -40c0 -29 -30 -55 -49 -55c-7 0 -14 2 -14 17c0 14 23 16 23 31c0 4 -3 8 -10 8c-41 0 -121 -78 -121 -135c0 -15 11 -30 31 -30c28 0 55 20 74 33c15 12 23 22 33 22s14 -5 14 -14
c0 -8 -6 -16 -20 -27c-27 -21 -58 -45 -98 -49v3zM53 -4c-9 0 -18 2 -27 4c0 0 -10 -29 -10 -37s8 -18 19 -18c17 0 45 5 61 10c-1 -24 -34 -45 -60 -45c-29 0 -32 19 -46 19c-12 0 -25 -14 -25 -26c0 -22 37 -25 57 -25c47 0 112 34 112 86c0 14 -7 24 -20 24
c-9 0 -25 -3 -36 -3c-6 0 -12 6 -13 12c-4 0 -8 -1 -12 -1z" />
    <glyph glyph-name="cedilla" unicode="&#xb8;" horiz-adv-x="176" 
d="M65 0h38c0 -8 7 -15 13 -15c12 0 27 3 36 3c14 0 20 -10 20 -24c0 -52 -64 -86 -111 -86c-20 0 -57 3 -57 25c0 12 13 26 24 26c14 0 17 -19 47 -19c25 0 58 21 60 45c-16 -5 -45 -10 -61 -10c-12 0 -19 10 -19 18s10 37 10 37z" />
    <glyph glyph-name="cent" unicode="&#xa2;" horiz-adv-x="253" 
d="M151 407v-32c12 5 25 8 37 8c21 0 45 -24 45 -40c0 -30 -30 -56 -49 -56c-8 0 -15 3 -15 17c0 15 24 16 24 31c0 5 -4 8 -11 8c-9 0 -20 -3 -31 -10v-133l15 12c16 11 23 21 34 21c9 0 14 -5 14 -14c0 -8 -6 -16 -20 -27c-14 -10 -28 -21 -43 -30v-50
c0 -12 -4 -20 -21 -20c-15 0 -24 7 -24 21v31c-7 -2 -14 -2 -22 -2c-33 0 -69 17 -69 61c0 43 40 107 91 146v58c0 14 9 22 22 22c14 0 23 -8 23 -22zM93 178c4 0 9 0 13 1v117c-25 -26 -44 -60 -44 -87c0 -16 10 -31 31 -31z" />
    <glyph glyph-name="circumflex" unicode="&#x2c6;" horiz-adv-x="171" 
d="M95 312c-29 -16 -70 -37 -78 -37c-6 0 -10 3 -10 8s4 8 11 13c19 11 32 22 53 47c9 11 15 20 31 20c17 0 18 -10 24 -23c10 -20 20 -35 28 -44c5 -6 11 -8 11 -13c0 -6 -3 -8 -9 -8c-7 0 -27 5 -61 37z" />
    <glyph glyph-name="colon" unicode=":" horiz-adv-x="95" 
d="M21 42c0 17 15 46 38 46c10 0 13 -7 13 -17c0 -19 -14 -46 -37 -46c-10 0 -14 7 -14 17zM53 187c0 16 18 44 39 44c10 0 13 -7 13 -17c0 -18 -14 -45 -36 -45c-10 0 -16 8 -16 18z" />
    <glyph glyph-name="colon1" unicode="&#xe00f;" horiz-adv-x="95" 
d="M21 173c0 17 15 46 38 46c10 0 13 -7 13 -17c0 -19 -14 -46 -37 -46c-10 0 -14 7 -14 17zM53 318c0 16 18 44 39 44c10 0 13 -7 13 -17c0 -19 -14 -45 -36 -45c-10 0 -16 8 -16 18z" />
    <glyph glyph-name="comma" unicode="," horiz-adv-x="62" 
d="M5 32c0 12 10 28 27 28c20 0 26 -13 26 -30c0 -31 -46 -75 -56 -75c-8 0 -10 3 -10 10c0 10 14 28 14 47c0 6 -1 13 -1 20z" />
    <glyph glyph-name="copyright" unicode="&#xa9;" horiz-adv-x="375" 
d="M238 265c10 0 15 -8 15 -21c0 -21 -44 -28 -69 -28c-63 0 -109 34 -109 103c0 63 47 106 115 106c27 0 59 -12 59 -22c0 -20 -5 -29 -14 -29c-8 0 -21 13 -44 13c-43 0 -71 -25 -71 -67s26 -67 69 -67c29 0 39 12 49 12zM9 321c0 93 77 170 171 170s171 -77 171 -170
c0 -94 -77 -171 -171 -171s-171 77 -171 171zM51 321c0 -72 58 -129 129 -129c72 0 130 57 130 129c0 71 -58 129 -130 129c-71 0 -129 -58 -129 -129z" />
    <glyph glyph-name="currency" unicode="&#xa4;" horiz-adv-x="292" 
d="M46 463l22 -20c21 15 47 24 74 24c30 0 57 -10 80 -27l21 20c6 7 9 7 13 7c13 0 27 -14 27 -27c0 -6 -2 -10 -6 -13l-24 -24c12 -20 19 -41 19 -65c0 -28 -9 -55 -25 -75l30 -31c6 -6 6 -7 6 -13c0 -12 -14 -26 -27 -26c-5 0 -7 0 -13 6l-30 31c-21 -13 -45 -21 -71 -21
c-23 0 -46 7 -65 18l-33 -30c-3 -4 -10 -5 -12 -5c-10 0 -27 14 -27 26c0 7 0 8 6 14l30 27c-17 22 -27 49 -27 79c0 25 7 49 20 69l-23 22c-6 5 -6 9 -6 15c0 10 16 25 27 25c7 0 10 -2 14 -6zM49 338c0 -42 34 -93 93 -93c46 0 94 35 94 93c0 60 -51 94 -94 94
c-39 0 -93 -31 -93 -94z" />
    <glyph glyph-name="d" unicode="d" horiz-adv-x="288" 
d="M202 218c11 46 30 115 72 204s89 128 124 128c28 0 44 -20 44 -48s-9 -76 -65 -166c-67 -107 -138 -169 -150 -193c-9 -19 -13 -44 -13 -71c0 -24 1 -77 29 -84c9 -1 16 -3 16 -8c0 -8 -16 -19 -36 -19c-45 0 -52 58 -52 98v22c-45 -56 -106 -91 -140 -91
c-19 0 -50 15 -50 55c0 72 99 191 164 191c37 0 52 -18 57 -18zM392 513c-10 0 -42 -23 -85 -108s-66 -193 -66 -193s59 61 107 147c44 78 55 106 55 135c0 8 0 18 -11 19zM145 195c-47 -3 -120 -102 -120 -140c0 -16 12 -23 23 -23c34 0 135 107 134 132c-4 0 -14 2 -15 14
c-1 11 -12 17 -22 17z" />
    <glyph glyph-name="d.01" unicode="&#xe010;" horiz-adv-x="331" 
d="M214 72c0 -20 9 -27 18 -27c36 0 96 64 132 112c12 15 20 25 31 25c9 0 14 -6 14 -14c0 -9 -4 -15 -16 -29c-47 -57 -126 -134 -176 -134c-31 0 -47 25 -47 50c0 11 1 17 1 26c-45 -56 -106 -91 -140 -91c-19 0 -50 15 -50 55c0 72 99 191 164 191c37 0 52 -18 57 -18
c11 46 30 115 72 204s89 128 124 128c28 0 44 -20 44 -48s-9 -76 -65 -166c-67 -107 -138 -169 -150 -193c-9 -19 -13 -44 -13 -71zM392 513c-10 0 -42 -23 -85 -108s-66 -193 -66 -193s59 61 107 147c44 78 55 106 55 135c0 8 0 18 -11 19zM145 195
c-47 -3 -120 -102 -120 -140c0 -16 12 -23 23 -23c34 0 135 107 134 132c-4 0 -14 2 -15 14c-1 11 -12 17 -22 17z" />
    <glyph glyph-name="d.02" unicode="&#xe011;" horiz-adv-x="280" 
d="M145 195c-47 -3 -120 -102 -120 -140c0 -16 12 -23 23 -23c34 0 135 107 134 132c-4 0 -14 2 -15 14c-1 11 -12 17 -22 17zM214 72c0 -24 0 -74 29 -84c9 -2 16 -3 16 -8c0 -8 -16 -19 -36 -19c-45 0 -52 58 -52 98v22c-45 -56 -106 -91 -140 -91c-19 0 -50 15 -50 55
c0 72 99 191 164 191c37 0 52 -18 57 -18c33 115 91 232 155 317c17 24 28 35 40 35c13 0 22 -6 22 -19c0 -12 -4 -17 -22 -35c-84 -85 -183 -330 -183 -444z" />
    <glyph glyph-name="d_j.caron" unicode="&#xe013;" horiz-adv-x="444" 
d="M189 223c0 141 73 327 163 327c28 0 44 -20 44 -48c0 -83 -41 -196 -170 -358c-10 -19 -12 -45 -12 -72c0 -24 1 -53 14 -53c8 0 15 -3 15 -8c0 -9 -15 -19 -33 -19c-38 0 -39 39 -39 89c-45 -56 -106 -91 -140 -91c-19 0 -50 15 -50 55c0 72 99 191 164 191
c35 0 42 -10 44 -13zM346 513c-48 0 -117 -170 -117 -297c77 108 128 214 128 278c0 8 0 19 -11 19zM145 195c-47 -3 -120 -102 -120 -140c0 -16 12 -23 23 -23c34 0 135 107 134 132c-4 0 -14 2 -15 14c-1 11 -12 17 -22 17zM409 382c18 0 31 -19 31 -32
c0 -12 -3 -28 -22 -28c-18 0 -38 14 -38 27s11 33 29 33zM357 246c6 0 26 -10 26 -22c0 -18 -10 -81 -10 -104c0 -5 0 -9 2 -9c8 0 41 31 93 65c12 8 26 14 36 14c11 0 16 -11 16 -18c0 -10 -16 -15 -36 -28c-43 -29 -107 -65 -126 -109c-8 -18 -10 -120 -62 -248
c-53 -128 -117 -174 -152 -174c-19 0 -49 19 -49 57c0 37 14 97 71 191c63 105 149 181 155 194s17 155 17 169s5 22 19 22zM303 -13c0 0 -45 -55 -107 -151c-45 -71 -60 -145 -60 -162c0 -16 10 -21 16 -21c20 0 59 40 105 151c23 55 46 120 46 183zM429 524
c0 12 10 28 28 28c19 0 25 -13 25 -30c0 -31 -45 -75 -56 -75c-8 0 -10 3 -10 10c0 10 14 28 14 47c0 7 -1 13 -1 20z" />
    <glyph glyph-name="d_t.caron" unicode="&#xe015;" horiz-adv-x="425" 
d="M202 218c11 46 30 115 72 204s89 128 124 128c28 0 44 -20 44 -48s-9 -76 -65 -166c-67 -107 -138 -169 -150 -193c-9 -19 -13 -44 -13 -71c0 -57 22 -64 29 -66c8 -3 15 -3 15 -8c0 -9 -15 -20 -35 -20c-45 0 -52 41 -52 81v22c-45 -56 -106 -91 -140 -91
c-19 0 -50 15 -50 55c0 72 99 191 164 191c37 0 52 -18 57 -18zM392 513c-10 0 -42 -23 -85 -108s-66 -193 -66 -193s59 61 107 147c44 78 55 106 55 135c0 8 0 18 -11 19zM145 195c-47 -3 -120 -102 -120 -140c0 -16 12 -23 23 -23c34 0 135 107 134 132c-4 0 -14 2 -15 14
c-1 11 -12 17 -22 17zM370 280c0 12 16 20 40 26c30 53 60 103 84 135c16 22 28 35 40 35c13 0 22 -6 22 -19c0 -12 -2 -20 -22 -35c-17 -14 -36 -43 -70 -100c21 6 43 11 64 11c35 0 53 -12 53 -32c0 -18 -17 -39 -30 -39c-10 0 -12 3 -12 9s2 10 2 15c0 8 -13 10 -28 10
c-22 0 -49 -13 -77 -23c-54 -97 -115 -244 -115 -295c0 -23 14 -24 14 -43c0 -8 -7 -20 -22 -20c-14 0 -32 17 -32 55c0 63 57 199 106 294c-10 0 -17 3 -17 16zM470 532c0 12 10 28 28 28c19 0 26 -13 26 -30c0 -31 -46 -76 -57 -76c-7 0 -10 3 -10 10c0 11 15 29 15 48
c0 6 -2 13 -2 20z" />
    <glyph glyph-name="dagger" unicode="&#x2020;" horiz-adv-x="230" 
d="M128 28c0 -12 -6 -16 -15 -16c-6 0 -14 4 -14 16c0 141 -8 180 -15 186c-5 4 -9 9 -9 13s5 9 9 12c6 6 10 14 11 44c-23 -1 -33 -4 -41 -11c-2 -3 -5 -6 -12 -6s-6 1 -12 8c-5 6 -14 9 -21 14c-4 3 -7 6 -7 12c0 9 4 11 9 13c11 5 18 23 31 23c10 0 24 -16 53 -18
c-1 36 -9 52 -14 57c-3 3 -6 5 -6 12c0 6 17 21 24 32c3 4 6 9 14 9c9 0 13 -7 14 -10c4 -7 24 -26 24 -31s0 -7 -5 -12c-4 -5 -14 -22 -16 -57c24 1 36 5 42 12c3 3 8 6 11 6c6 0 10 -6 13 -9c6 -6 11 -11 17 -14c9 -3 11 -7 11 -11c0 -2 -3 -7 -8 -11
c-6 -5 -13 -10 -20 -16c-4 -4 -6 -9 -12 -9c-4 0 -30 17 -53 17c0 -29 8 -39 14 -45c4 -5 6 -6 6 -11s-4 -9 -6 -11c-9 -7 -17 -47 -17 -188z" />
    <glyph glyph-name="daggerdbl" unicode="&#x2021;" horiz-adv-x="273" 
d="M149 246c0 -23 -1 -72 -1 -89c24 1 34 3 41 11c3 3 6 5 12 5c7 0 9 -2 14 -11c1 -1 6 -3 12 -7l6 -3c4 -3 8 -4 8 -13c0 -8 -4 -10 -8 -13c-9 -4 -15 -9 -25 -21c-1 -1 -5 -1 -7 -1c-8 0 -9 2 -12 8v-3c-7 7 -19 12 -41 13c1 -37 8 -53 14 -57c2 -4 6 -7 6 -13
c0 -3 -2 -8 -8 -12l2 1l-3 -3c-6 -6 -10 -11 -15 -19v1c-2 -4 -6 -8 -14 -8s-12 6 -14 10v-1c-4 7 -10 11 -16 17l-2 3c-2 1 -6 4 -6 11c0 6 0 7 6 13c4 4 14 21 14 57c-23 -1 -33 -5 -41 -13c-2 -3 -9 -5 -11 -5c-6 0 -11 5 -13 8v0c-4 5 -10 9 -19 13l-2 1
c-4 3 -7 5 -7 13c0 7 3 10 8 13l5 3c6 3 13 5 14 9c2 5 4 9 13 9c3 0 9 -1 13 -7l-1 2c13 -13 24 -17 46 -17c0 0 -5 81 -5 95c-23 0 -33 -3 -40 -10c-3 -3 -7 -7 -12 -7c-8 0 -10 4 -15 11c0 2 -6 5 -12 9l-5 2c-5 2 -9 5 -9 12c0 10 4 12 9 13c8 4 14 10 24 23
c0 0 4 1 8 1c7 0 9 -3 12 -9v2c6 -6 18 -10 40 -11c0 36 -9 52 -13 57c-4 2 -7 5 -7 12c0 3 3 9 8 12h-1l2 3c6 5 11 11 15 17v0c3 4 7 8 14 8c9 0 12 -6 14 -10v1c5 -7 10 -12 15 -17l4 -2c1 -2 5 -6 5 -12c0 -5 0 -8 -5 -12c-4 -5 -14 -23 -15 -57c24 1 34 4 41 12
c3 2 9 6 12 6c5 0 11 -5 13 -10v1c3 -5 9 -8 18 -13l1 -2c4 -1 8 -3 8 -12c0 -5 -2 -10 -8 -13l-5 -2c-7 -4 -13 -7 -14 -11c-2 -4 -5 -9 -12 -9c-4 0 -10 3 -13 8v-1c-7 7 -17 10 -40 10z" />
    <glyph glyph-name="dcaron" unicode="&#x10f;" horiz-adv-x="381" 
d="M202 218c11 46 30 115 72 204s89 128 124 128c28 0 44 -20 44 -48s-9 -76 -65 -166c-67 -107 -138 -169 -150 -193c-9 -19 -13 -44 -13 -71c0 -24 1 -77 29 -84c9 -1 16 -3 16 -8c0 -8 -16 -19 -36 -19c-45 0 -52 58 -52 98v22c-45 -56 -106 -91 -140 -91
c-19 0 -50 15 -50 55c0 72 99 191 164 191c37 0 52 -18 57 -18zM392 513c-10 0 -42 -23 -85 -108s-66 -193 -66 -193s59 61 107 147c44 78 55 106 55 135c0 8 0 18 -11 19zM145 195c-47 -3 -120 -102 -120 -140c0 -16 12 -23 23 -23c34 0 135 107 134 132c-4 0 -14 2 -15 14
c-1 11 -12 17 -22 17zM470 532c0 12 10 28 28 28c19 0 26 -13 26 -30c0 -31 -46 -76 -57 -76c-7 0 -10 3 -10 10c0 11 15 29 15 48c0 6 -2 13 -2 20z" />
    <glyph glyph-name="dcaron.01" unicode="&#xe016;" horiz-adv-x="331" 
d="M214 72c0 -20 9 -27 18 -27c36 0 96 64 132 112c12 15 20 25 31 25c9 0 14 -6 14 -14c0 -9 -4 -15 -16 -29c-47 -57 -126 -134 -176 -134c-31 0 -47 25 -47 50c0 11 1 17 1 26c-45 -56 -106 -91 -140 -91c-19 0 -50 15 -50 55c0 72 99 191 164 191c37 0 52 -18 57 -18
c11 46 30 115 72 204s89 128 124 128c28 0 44 -20 44 -48s-9 -76 -65 -166c-67 -107 -138 -169 -150 -193c-9 -19 -13 -44 -13 -71zM392 513c-10 0 -42 -23 -85 -108s-66 -193 -66 -193s59 61 107 147c44 78 55 106 55 135c0 8 0 18 -11 19zM145 195
c-47 -3 -120 -102 -120 -140c0 -16 12 -23 23 -23c34 0 135 107 134 132c-4 0 -14 2 -15 14c-1 11 -12 17 -22 17zM470 532c0 12 10 28 28 28c19 0 26 -13 26 -30c0 -31 -46 -76 -57 -76c-7 0 -10 3 -10 10c0 11 15 29 15 48c0 6 -2 13 -2 20z" />
    <glyph glyph-name="dcaron.02" unicode="&#xe017;" horiz-adv-x="288" 
d="M145 195c-47 -3 -120 -102 -120 -140c0 -16 12 -23 23 -23c34 0 135 107 134 132c-4 0 -14 2 -15 14c-1 11 -12 17 -22 17zM214 72c0 -24 0 -74 29 -84c9 -2 16 -3 16 -8c0 -8 -16 -19 -36 -19c-45 0 -52 58 -52 98v22c-45 -56 -106 -91 -140 -91c-19 0 -50 15 -50 55
c0 72 99 191 164 191c37 0 52 -18 57 -18c33 115 91 232 155 317c17 24 28 35 40 35c13 0 22 -6 22 -19c0 -12 -4 -17 -22 -35c-84 -85 -183 -330 -183 -444zM393 470c0 -6 2 -13 2 -20c0 -19 -15 -37 -15 -47c0 -7 3 -10 10 -10c11 0 57 44 57 75c0 17 -7 30 -26 30
c-18 0 -28 -16 -28 -28z" />
    <glyph glyph-name="dcroat" unicode="&#x111;" horiz-adv-x="288" 
d="M262 109h-46c-1 -12 -2 -24 -2 -37c0 -24 1 -77 29 -84c9 -1 16 -3 16 -8c0 -8 -16 -19 -36 -19c-45 0 -52 58 -52 98v22c-45 -56 -106 -91 -140 -91c-19 0 -50 15 -50 55c0 72 99 191 164 191c37 0 52 -18 57 -18c11 46 30 115 72 204s89 128 124 128
c28 0 44 -20 44 -48s-9 -76 -65 -166c-66 -103 -134 -165 -149 -190h41c7 0 10 -3 10 -7c0 -8 -10 -30 -17 -30zM392 513c-10 0 -42 -23 -85 -108s-66 -193 -66 -193s59 61 107 147c44 78 55 106 55 135c0 8 0 18 -11 19zM145 195c-47 -3 -120 -102 -120 -140
c0 -16 12 -23 23 -23c21 0 66 40 98 77h-21c-6 0 -9 3 -9 7c0 7 9 30 17 30h42c4 7 7 13 7 18c-4 0 -14 2 -15 14c-1 11 -12 17 -22 17z" />
    <glyph glyph-name="degree" unicode="&#xb0;" horiz-adv-x="190" 
d="M2 308c0 50 36 89 93 89c48 0 88 -39 88 -83c0 -55 -44 -90 -94 -90c-42 0 -87 32 -87 84zM45 308c0 -32 24 -50 49 -50c21 0 46 22 46 56c0 32 -22 51 -48 51c-25 0 -47 -25 -47 -57z" />
    <glyph glyph-name="dieresis" unicode="&#xa8;" horiz-adv-x="164" 
d="M12 283c0 17 20 47 44 47c12 0 16 -7 16 -18c0 -19 -17 -48 -43 -48c-11 0 -17 9 -17 19zM97 283c0 17 19 47 44 47c11 0 15 -7 15 -18c0 -19 -16 -48 -42 -48c-12 0 -17 9 -17 19z" />
    <glyph glyph-name="divide" unicode="&#xf7;" horiz-adv-x="95" 
d="M11 135c0 17 15 45 38 45c10 0 13 -7 13 -17c0 -18 -14 -45 -37 -45c-10 0 -14 7 -14 17zM43 310c0 16 18 44 39 44c10 0 13 -7 13 -17c0 -18 -14 -45 -36 -45c-10 0 -16 8 -16 18zM172 213h-243c-11 0 -18 5 -18 16c0 13 11 27 26 27h243c12 0 20 -10 20 -18
c0 -14 -15 -25 -28 -25z" />
    <glyph glyph-name="dollar" unicode="$" horiz-adv-x="333" 
d="M263 511l-6 -24c27 -4 46 -16 56 -26c4 -4 10 -11 10 -18c0 -15 -11 -33 -30 -33c-13 0 -19 24 -47 33l-36 -139c46 -27 74 -55 74 -96c0 -79 -57 -129 -134 -136l-8 -30c-3 -10 -8 -17 -23 -17c-13 0 -19 7 -16 19l7 26c-31 2 -57 10 -81 29c-7 4 -13 15 -13 25
c0 16 12 35 30 35c11 0 23 -10 24 -11c19 -17 30 -30 52 -33l39 152c-50 25 -77 50 -77 95c0 72 62 120 134 127l6 22c3 12 12 19 24 19s18 -7 15 -19zM136 370c0 -19 15 -37 37 -50l34 127c-30 -3 -71 -41 -71 -77zM229 200c0 18 -12 37 -33 51l-36 -139c44 8 69 50 69 88z
" />
    <glyph glyph-name="dotaccent" unicode="&#x2d9;" horiz-adv-x="84" 
d="M12 537c0 17 20 47 44 47c12 0 16 -7 16 -18c0 -19 -17 -48 -43 -48c-11 0 -17 9 -17 19z" />
    <glyph glyph-name="dotlessi" unicode="&#x131;" horiz-adv-x="167" 
d="M62 36c29 0 101 73 137 121c12 15 20 25 31 25c9 0 14 -6 14 -14c0 -9 -4 -15 -15 -29c-48 -57 -138 -142 -188 -142c-17 0 -41 18 -41 51c0 44 51 142 59 157c11 19 20 35 33 35c9 0 23 -7 23 -18s-10 -21 -19 -36c-22 -38 -52 -108 -52 -130c0 -9 5 -20 18 -20z" />
    <glyph glyph-name="e" unicode="e" horiz-adv-x="227" 
d="M64 29c88 0 159 80 195 128c12 15 21 25 31 25s14 -6 14 -14c0 -9 -4 -15 -15 -29c-48 -57 -130 -146 -241 -146c-31 0 -60 32 -60 64c0 10 -3 13 -3 23c0 9 8 20 17 24c41 95 108 133 159 133c19 0 41 -16 41 -35c0 -51 -87 -109 -149 -123c-18 -4 -19 -10 -19 -20
s6 -30 30 -30zM149 198c-31 0 -87 -64 -102 -88c35 1 114 57 114 78c0 8 -4 10 -12 10z" />
    <glyph glyph-name="e.salt" unicode="&#xe018;" horiz-adv-x="228" 
d="M64 29c28 0 54 20 72 34c16 12 23 22 34 22c9 0 14 -6 14 -14c0 -9 -6 -16 -20 -27c-30 -23 -64 -50 -110 -50c-31 0 -66 31 -66 63c0 10 -3 13 -3 23c0 9 8 20 17 24c41 95 108 133 159 133c19 0 41 -16 41 -35c0 -51 -87 -109 -149 -123c-18 -4 -19 -10 -19 -20
s6 -30 30 -30zM149 198c-31 0 -87 -64 -102 -88c35 1 114 57 114 78c0 8 -4 10 -12 10z" />
    <glyph glyph-name="eacute" unicode="&#xe9;" horiz-adv-x="227" 
d="M64 29c88 0 159 80 195 128c12 15 21 25 31 25s14 -6 14 -14c0 -9 -4 -15 -15 -29c-48 -57 -130 -146 -241 -146c-31 0 -60 32 -60 64c0 10 -3 13 -3 23c0 9 8 20 17 24c41 95 108 133 159 133c19 0 41 -16 41 -35c0 -51 -87 -109 -149 -123c-18 -4 -19 -10 -19 -20
s6 -30 30 -30zM149 198c-31 0 -87 -64 -102 -88c35 1 114 57 114 78c0 8 -4 10 -12 10zM192 350c9 0 22 -16 22 -28c0 -10 -4 -15 -15 -26c-26 -25 -63 -43 -81 -43c-9 0 -13 3 -13 8c0 4 2 10 10 12c17 5 43 37 61 67c5 8 10 10 16 10z" />
    <glyph glyph-name="eacute.salt" unicode="&#xe019;" horiz-adv-x="228" 
d="M64 29c28 0 54 20 72 34c16 12 23 22 34 22c9 0 14 -6 14 -14c0 -9 -6 -16 -20 -27c-30 -23 -64 -50 -110 -50c-31 0 -66 31 -66 63c0 10 -3 13 -3 23c0 9 8 20 17 24c41 95 108 133 159 133c19 0 41 -16 41 -35c0 -51 -87 -109 -149 -123c-18 -4 -19 -10 -19 -20
s6 -30 30 -30zM149 198c-31 0 -87 -64 -102 -88c35 1 114 57 114 78c0 8 -4 10 -12 10zM177 354c9 0 22 -16 22 -28c0 -10 -3 -15 -15 -26c-25 -25 -62 -44 -81 -44c-9 0 -13 4 -13 9c0 4 2 10 11 12c16 5 42 36 61 67c4 8 9 10 15 10z" />
    <glyph glyph-name="ebreve" unicode="&#x115;" horiz-adv-x="227" 
d="M64 29c88 0 159 80 195 128c12 15 21 25 31 25s14 -6 14 -14c0 -9 -4 -15 -15 -29c-48 -57 -130 -146 -241 -146c-31 0 -60 32 -60 64c0 10 -3 13 -3 23c0 9 8 20 17 24c41 95 108 133 159 133c19 0 41 -16 41 -35c0 -51 -87 -109 -149 -123c-18 -4 -19 -10 -19 -20
s6 -30 30 -30zM149 198c-31 0 -87 -64 -102 -88c35 1 114 57 114 78c0 8 -4 10 -12 10zM152 259c-37 0 -78 27 -78 65c0 13 10 29 26 29c10 0 22 -4 22 -21c0 -6 -5 -11 -5 -18c0 -11 16 -22 38 -22c31 0 53 18 53 28c0 23 15 33 27 33c11 0 21 -7 21 -19
c0 -13 -7 -26 -15 -35c-21 -24 -42 -40 -89 -40z" />
    <glyph glyph-name="ebreve.salt" unicode="&#xe01a;" horiz-adv-x="228" 
d="M64 29c28 0 54 20 72 34c16 12 23 22 34 22c9 0 14 -6 14 -14c0 -9 -6 -16 -20 -27c-30 -23 -64 -50 -110 -50c-31 0 -66 31 -66 63c0 10 -3 13 -3 23c0 9 8 20 17 24c41 95 108 133 159 133c19 0 41 -16 41 -35c0 -51 -87 -109 -149 -123c-18 -4 -19 -10 -19 -20
s6 -30 30 -30zM149 198c-31 0 -87 -64 -102 -88c35 1 114 57 114 78c0 8 -4 10 -12 10zM128 266c-36 0 -78 27 -78 66c0 13 10 29 26 29c10 0 23 -4 23 -21c0 -7 -6 -11 -6 -18c0 -11 16 -22 38 -22c31 0 53 17 53 28c0 22 15 33 27 33c11 0 22 -7 22 -19
c0 -13 -7 -26 -16 -36c-21 -23 -42 -40 -89 -40z" />
    <glyph glyph-name="ecircumflex" unicode="&#xea;" horiz-adv-x="227" 
d="M64 29c88 0 159 80 195 128c12 15 21 25 31 25s14 -6 14 -14c0 -9 -4 -15 -15 -29c-48 -57 -130 -146 -241 -146c-31 0 -60 32 -60 64c0 10 -3 13 -3 23c0 9 8 20 17 24c41 95 108 133 159 133c19 0 41 -16 41 -35c0 -51 -87 -109 -149 -123c-18 -4 -19 -10 -19 -20
s6 -30 30 -30zM149 198c-31 0 -87 -64 -102 -88c35 1 114 57 114 78c0 8 -4 10 -12 10zM149 281c-28 -16 -69 -37 -77 -37c-7 0 -10 3 -10 9c0 4 3 7 11 12c19 11 32 22 53 47c9 11 15 21 30 21c18 0 19 -10 25 -23c9 -20 19 -36 28 -45c5 -6 10 -8 10 -12c0 -7 -3 -9 -8 -9
c-7 0 -27 5 -62 37z" />
    <glyph glyph-name="ecircumflex.salt" unicode="&#xe01b;" horiz-adv-x="228" 
d="M64 29c28 0 54 20 72 34c16 12 23 22 34 22c9 0 14 -6 14 -14c0 -9 -6 -16 -20 -27c-30 -23 -64 -50 -110 -50c-31 0 -66 31 -66 63c0 10 -3 13 -3 23c0 9 8 20 17 24c41 95 108 133 159 133c19 0 41 -16 41 -35c0 -51 -87 -109 -149 -123c-18 -4 -19 -10 -19 -20
s6 -30 30 -30zM149 198c-31 0 -87 -64 -102 -88c35 1 114 57 114 78c0 8 -4 10 -12 10zM156 289c-28 -16 -69 -37 -77 -37c-7 0 -10 3 -10 8s3 8 11 13c19 11 32 22 52 47c10 11 16 20 31 20c18 0 19 -10 25 -23c9 -20 19 -35 28 -44c5 -7 10 -8 10 -13c0 -6 -3 -8 -8 -8
c-7 0 -27 5 -62 37z" />
    <glyph glyph-name="edieresis" unicode="&#xeb;" horiz-adv-x="227" 
d="M64 29c88 0 159 80 195 128c12 15 21 25 31 25s14 -6 14 -14c0 -9 -4 -15 -15 -29c-48 -57 -130 -146 -241 -146c-31 0 -60 32 -60 64c0 10 -3 13 -3 23c0 9 8 20 17 24c41 95 108 133 159 133c19 0 41 -16 41 -35c0 -51 -87 -109 -149 -123c-18 -4 -19 -10 -19 -20
s6 -30 30 -30zM149 198c-31 0 -87 -64 -102 -88c35 1 114 57 114 78c0 8 -4 10 -12 10zM87 283c0 17 19 47 44 47c11 0 15 -7 15 -18c0 -19 -16 -48 -42 -48c-12 0 -17 9 -17 19zM172 283c0 17 19 47 44 47c11 0 15 -7 15 -18c0 -19 -16 -48 -42 -48c-12 0 -17 9 -17 19z
" />
    <glyph glyph-name="edieresis.salt" unicode="&#xe01c;" horiz-adv-x="228" 
d="M64 29c28 0 54 20 72 34c16 12 23 22 34 22c9 0 14 -6 14 -14c0 -9 -6 -16 -20 -27c-30 -23 -64 -50 -110 -50c-31 0 -66 31 -66 63c0 10 -3 13 -3 23c0 9 8 20 17 24c41 95 108 133 159 133c19 0 41 -16 41 -35c0 -51 -87 -109 -149 -123c-18 -4 -19 -10 -19 -20
s6 -30 30 -30zM149 198c-31 0 -87 -64 -102 -88c35 1 114 57 114 78c0 8 -4 10 -12 10zM82 283c0 17 19 47 44 47c11 0 15 -7 15 -18c0 -19 -16 -48 -42 -48c-12 0 -17 9 -17 19zM166 283c0 17 20 47 44 47c12 0 16 -7 16 -18c0 -19 -17 -48 -43 -48c-11 0 -17 9 -17 19z
" />
    <glyph glyph-name="egrave" unicode="&#xe8;" horiz-adv-x="227" 
d="M64 29c88 0 159 80 195 128c12 15 21 25 31 25s14 -6 14 -14c0 -9 -4 -15 -15 -29c-48 -57 -130 -146 -241 -146c-31 0 -60 32 -60 64c0 10 -3 13 -3 23c0 9 8 20 17 24c41 95 108 133 159 133c19 0 41 -16 41 -35c0 -51 -87 -109 -149 -123c-18 -4 -19 -10 -19 -20
s6 -30 30 -30zM149 198c-31 0 -87 -64 -102 -88c35 1 114 57 114 78c0 8 -4 10 -12 10zM122 349c6 0 10 -3 15 -10c19 -31 45 -63 61 -67c8 -3 10 -6 10 -10c0 -5 -3 -11 -12 -11c-19 0 -56 18 -81 43c-12 12 -16 16 -16 26c0 13 13 29 23 29z" />
    <glyph glyph-name="egrave.salt" unicode="&#xe01d;" horiz-adv-x="228" 
d="M64 29c28 0 54 20 72 34c16 12 23 22 34 22c9 0 14 -6 14 -14c0 -9 -6 -16 -20 -27c-30 -23 -64 -50 -110 -50c-31 0 -66 31 -66 63c0 10 -3 13 -3 23c0 9 8 20 17 24c41 95 108 133 159 133c19 0 41 -16 41 -35c0 -51 -87 -109 -149 -123c-18 -4 -19 -10 -19 -20
s6 -30 30 -30zM149 198c-31 0 -87 -64 -102 -88c35 1 114 57 114 78c0 8 -4 10 -12 10zM119 362c7 0 11 -2 16 -10c18 -31 44 -62 61 -67c8 -2 10 -6 10 -10c0 -5 -3 -11 -13 -11c-18 0 -55 19 -81 43c-11 12 -15 16 -15 26c0 13 13 29 22 29z" />
    <glyph glyph-name="eight" unicode="8" horiz-adv-x="360" 
d="M-12 123c0 86 67 141 148 174c-31 23 -60 51 -60 100c0 91 86 148 176 148c71 0 121 -32 121 -93c0 -82 -67 -129 -136 -162c44 -27 86 -63 86 -128c0 -102 -93 -162 -182 -162c-99 0 -153 56 -153 123zM180 270c-69 -27 -144 -76 -144 -140c0 -59 46 -91 106 -91
c71 0 131 51 131 111c0 52 -31 87 -93 120zM248 507c-64 0 -118 -49 -118 -104c0 -34 23 -63 62 -89c59 22 135 66 135 133c0 37 -34 60 -79 60z" />
    <glyph glyph-name="ellipsis" unicode="&#x2026;" horiz-adv-x="291" 
d="M5 13c0 18 19 48 44 48c11 0 15 -8 15 -19c0 -19 -16 -47 -42 -47c-12 0 -17 8 -17 18zM112 13c0 18 20 48 44 48c12 0 16 -8 16 -19c0 -19 -16 -47 -43 -47c-11 0 -17 8 -17 18zM220 13c0 18 19 48 44 48c12 0 16 -8 16 -19c0 -19 -17 -47 -43 -47c-11 0 -17 8 -17 18z
" />
    <glyph glyph-name="emdash" unicode="&#x2014;" horiz-adv-x="413" 
d="M383 139h-365c-6 0 -9 3 -9 8c0 7 9 29 17 29h364c7 0 10 -2 10 -7c0 -7 -10 -30 -17 -30z" />
    <glyph glyph-name="emdash1" unicode="&#xe01e;" horiz-adv-x="413" 
d="M383 255h-365c-6 0 -9 3 -9 8c0 6 9 29 17 29h364c7 0 10 -2 10 -7c0 -8 -10 -30 -17 -30z" />
    <glyph glyph-name="endash" unicode="&#x2013;" horiz-adv-x="303" 
d="M276 139h-262c-6 0 -9 3 -9 8c0 7 9 29 17 29h261c7 0 10 -2 10 -7c0 -7 -10 -30 -17 -30z" />
    <glyph glyph-name="endash1" unicode="&#xe01f;" horiz-adv-x="303" 
d="M276 255h-262c-6 0 -9 3 -9 8c0 6 9 29 17 29h261c7 0 10 -2 10 -7c0 -8 -10 -30 -17 -30z" />
    <glyph glyph-name="eogonek" unicode="&#x119;" horiz-adv-x="227" 
d="M81 19c-11 0 -32 -9 -49 -23c-24 8 -44 35 -44 61c0 10 -3 13 -3 23c0 9 8 20 17 24c41 95 108 133 159 133c19 0 41 -16 41 -35c0 -51 -87 -109 -149 -123c-18 -4 -19 -10 -19 -20s6 -30 30 -30c88 0 159 80 195 128c12 15 21 25 31 25s14 -6 14 -14
c0 -9 -4 -15 -15 -29c-46 -55 -123 -139 -227 -145c7 4 13 8 17 9c5 2 10 4 10 9c0 6 -3 7 -8 7zM48 -7c-6 0 -11 1 -16 3c-20 -15 -36 -37 -36 -61c0 -36 41 -60 59 -60c17 0 26 28 26 32s-2 5 -9 5c-17 0 -43 13 -43 34c0 17 17 36 33 48c-5 -1 -10 -1 -14 -1zM149 198
c-31 0 -87 -64 -102 -88c35 1 114 57 114 78c0 8 -4 10 -12 10z" />
    <glyph glyph-name="eogonek.salt" unicode="&#xe020;" horiz-adv-x="228" 
d="M77 12c-8 0 -24 -7 -39 -16c-26 8 -50 35 -50 61c0 10 -3 13 -3 23c0 9 8 20 17 24c41 95 108 133 159 133c19 0 41 -16 41 -35c0 -51 -87 -109 -149 -123c-18 -4 -19 -10 -19 -20s6 -30 30 -30c28 0 54 20 72 34c16 12 23 22 34 22c9 0 14 -6 14 -14
c0 -9 -6 -16 -20 -27c-25 -19 -52 -40 -85 -47c3 1 6 3 6 8s-3 7 -8 7zM54 -6c-5 0 -11 1 -16 2c-23 -14 -46 -40 -46 -69c0 -36 41 -59 59 -59s26 27 26 31s-2 6 -8 6c-17 0 -44 12 -44 33c0 24 34 52 50 57l4 2c-8 -2 -17 -3 -25 -3zM149 198c-31 0 -87 -64 -102 -88
c35 1 114 57 114 78c0 8 -4 10 -12 10z" />
    <glyph glyph-name="equal" unicode="=" horiz-adv-x="316" 
d="M271 176h-243c-11 0 -19 6 -19 18s12 26 26 26h243c13 0 21 -9 21 -18c0 -14 -16 -26 -28 -26zM271 259h-243c-11 0 -19 5 -19 17c0 13 12 26 26 26h243c13 0 21 -9 21 -18c0 -14 -16 -25 -28 -25z" />
    <glyph glyph-name="eth" unicode="&#xf0;" horiz-adv-x="218" 
d="M208 321l-19 -13c12 -22 20 -50 20 -82c0 -111 -67 -233 -153 -233c-28 0 -56 21 -56 64c0 93 78 182 148 182c7 0 13 -1 19 -3c0 20 -4 37 -10 50l-46 -31c-7 -3 -15 -3 -19 6c-4 8 -2 21 8 27l36 23c-12 8 -25 12 -41 12c-19 0 -26 10 -26 23s8 24 30 24
c25 0 51 -13 71 -35l28 18c8 4 17 1 20 -4c5 -10 -2 -23 -10 -28zM163 167c0 16 -8 27 -21 27c-43 0 -100 -72 -100 -137c0 -18 12 -29 25 -29c39 0 96 93 96 139z" />
    <glyph glyph-name="exclam" unicode="!" horiz-adv-x="137" 
d="M260 515c-62 -60 -185 -297 -185 -357c0 -13 7 -17 7 -30c0 -8 -7 -19 -22 -19s-25 14 -25 36c0 90 114 294 184 389c18 24 29 35 41 35c13 0 22 -6 22 -18c0 -13 -4 -19 -22 -36zM12 13c0 18 11 46 36 46c11 0 20 -7 20 -18c0 -19 -13 -46 -40 -46c-11 0 -16 8 -16 18z
" />
    <glyph glyph-name="exclamdown" unicode="&#xa1;" horiz-adv-x="150" 
d="M-125 -194c63 60 185 297 185 357c0 13 -6 17 -6 30c0 8 7 20 21 20c15 0 25 -15 25 -37c0 -90 -114 -294 -184 -389c-18 -24 -28 -35 -41 -35s-21 6 -21 19c0 12 4 18 21 35zM124 308c0 -18 -12 -45 -36 -45c-12 0 -20 6 -20 17c0 20 13 46 39 46c12 0 17 -8 17 -18z
" />
    <glyph glyph-name="f" unicode="f" horiz-adv-x="146" 
d="M15 194c0 15 9 29 24 29h25c29 68 48 106 89 178c47 82 121 145 160 145c29 0 54 -15 54 -32c0 -20 -14 -37 -26 -37c-9 0 -16 5 -16 13c0 9 -2 14 -13 14c-22 0 -68 -32 -116 -112c-30 -50 -48 -85 -87 -169h111c10 0 17 -8 17 -16s-7 -14 -14 -14c-44 0 -93 -4 -131 -7
c-45 -101 -88 -235 -88 -305c0 -17 4 -17 4 -35c0 -8 -10 -18 -20 -18s-23 10 -23 38c0 80 43 227 81 316c-24 0 -31 0 -31 12z" />
    <glyph glyph-name="f.salt" unicode="&#xe021;" horiz-adv-x="146" 
d="M15 194c0 15 9 29 24 29h25c29 68 48 106 89 178c47 82 121 145 160 145c29 0 54 -15 54 -32c0 -20 -14 -37 -26 -37c-9 0 -16 5 -16 13c0 9 -2 14 -13 14c-22 0 -68 -32 -116 -112c-30 -50 -48 -85 -87 -169h111c10 0 17 -8 17 -16s-7 -14 -14 -14c-44 0 -93 -4 -131 -7
c-45 -101 -88 -235 -88 -305c0 -17 4 -17 4 -35c0 -8 -10 -18 -20 -18s-23 10 -23 38c0 80 43 227 81 316c-24 0 -31 0 -31 12z" />
    <glyph glyph-name="fh.salt" unicode="&#xe025;" horiz-adv-x="524" 
d="M450 35c13 0 28 10 40 22c13 12 23 25 34 25c9 0 13 -5 13 -13c0 -9 -2 -16 -15 -29c-19 -19 -48 -45 -84 -45c-39 0 -56 23 -56 62c0 26 15 74 15 84s-2 18 -15 18c-45 0 -140 -99 -156 -151c-6 -21 -17 -28 -28 -28c-12 0 -20 12 -20 30c0 26 21 104 58 193
c-57 -14 -116 -17 -144 -17c-45 -101 -104 -235 -104 -305c0 -17 5 -17 5 -35c0 -8 -11 -18 -21 -18s-22 10 -22 38c0 80 58 227 96 316c-16 0 -31 0 -31 12c0 15 9 29 24 29h25c29 68 48 106 89 178c47 82 113 145 153 145c28 0 54 -15 54 -32c0 -20 -15 -37 -27 -37
c-9 0 -16 5 -16 13c0 9 -2 14 -13 14c-21 0 -60 -32 -108 -112c-30 -50 -48 -85 -87 -169c24 0 87 1 144 23c23 51 50 104 80 153c67 106 131 162 173 162c18 0 43 -16 43 -41c0 -30 -12 -92 -85 -177c-48 -55 -102 -101 -170 -130c-12 -24 -45 -104 -46 -111
c48 59 113 100 157 100c30 0 41 -16 41 -40c0 -25 -16 -78 -16 -99c0 -18 6 -28 20 -28zM497 519c-27 0 -77 -51 -126 -133c-49 -83 -64 -123 -64 -123s61 18 123 94c70 86 83 130 83 148c0 11 -7 14 -16 14z" />
    <glyph glyph-name="five" unicode="5" horiz-adv-x="375" 
d="M340 232c0 -110 -94 -233 -235 -233c-69 0 -131 48 -131 118c0 22 8 36 26 36c15 0 25 -14 25 -36c0 -56 41 -75 88 -75c100 0 177 98 177 186c0 62 -48 89 -101 89c-60 0 -77 -25 -100 -25c-14 0 -24 16 -24 26c0 16 50 94 74 186c7 24 16 40 35 40c14 0 51 -24 111 -24
c48 0 55 24 76 24c19 0 22 -13 22 -24c0 -36 -65 -45 -89 -45c-36 0 -72 9 -107 16c-35 -89 -55 -135 -57 -141c2 1 36 10 69 10c81 0 141 -52 141 -128z" />
    <glyph glyph-name="fk.salt" unicode="&#xe026;" horiz-adv-x="481" 
d="M393 35c18 0 37 12 49 24c13 12 23 25 34 25c9 0 14 -5 14 -14c0 -8 -3 -15 -16 -28c-19 -20 -47 -45 -91 -45c-54 0 -90 68 -90 90c0 12 37 14 84 48c20 14 40 32 40 44c0 8 -6 16 -14 16c-12 0 -49 -18 -103 -82c-34 -38 -61 -74 -61 -98c0 -8 -16 -24 -26 -24
s-26 5 -26 28s25 101 56 184c-56 -14 -122 -17 -151 -17c-45 -101 -104 -235 -104 -305c0 -17 5 -17 5 -35c0 -8 -11 -18 -21 -18s-22 10 -22 38c0 80 58 227 96 316c-16 0 -31 0 -31 12c0 15 9 29 24 29h25c29 68 48 106 89 178c47 82 113 145 153 145c28 0 54 -15 54 -32
c0 -20 -15 -37 -27 -37c-9 0 -16 5 -16 13c0 9 -2 14 -13 14c-21 0 -60 -32 -108 -112c-30 -50 -48 -85 -87 -169c16 0 91 2 151 23c23 57 47 113 66 151c56 107 107 163 160 163c18 0 41 -21 41 -39c0 -27 -16 -91 -80 -177c-59 -78 -137 -125 -157 -135
c-5 -5 -30 -71 -30 -82c0 -1 0 -1 1 -2c5 0 11 2 25 17c67 75 112 94 144 94c15 0 31 -17 31 -38c0 -67 -122 -113 -122 -121c0 -12 21 -42 54 -42zM475 521c-24 0 -70 -60 -110 -139c-39 -77 -55 -120 -55 -123c0 0 1 0 2 1c12 9 59 40 108 110c51 74 69 127 69 137
c0 11 -6 14 -14 14z" />
    <glyph glyph-name="florin" unicode="&#x192;" horiz-adv-x="259" 
d="M146 246v-221c0 -87 -54 -121 -94 -121c-26 0 -40 18 -40 34c0 15 10 27 26 27c14 0 17 -8 23 -16c1 -2 3 -5 6 -5c6 0 25 13 25 36v266h-10s-19 0 -19 18c0 19 19 19 19 19h10v81c0 60 22 108 84 108c43 0 72 -27 72 -52c0 -21 -32 -57 -45 -57c-10 0 -16 8 -16 17
c0 11 7 21 7 33c0 17 -8 24 -19 24c-20 0 -29 -27 -29 -72v-82h46s17 0 17 -19c0 -18 -17 -18 -17 -18h-46z" />
    <glyph glyph-name="four" unicode="4" horiz-adv-x="418" 
d="M179 487c0 12 -3 26 -3 38s10 19 20 19c18 0 31 -12 31 -38c0 -52 -83 -182 -156 -242c76 21 146 26 195 26h5c35 87 79 167 109 213c16 25 27 41 44 41c13 0 23 -7 23 -22c0 -12 -14 -27 -25 -40c-34 -42 -75 -119 -108 -199c24 -7 39 -20 39 -32c0 -16 -9 -25 -23 -25
c-11 0 -20 7 -33 13c-26 -70 -44 -138 -44 -184c0 -13 6 -20 6 -31c0 -12 -10 -26 -26 -26c-12 0 -27 7 -27 31c0 62 21 141 50 220c-104 0 -204 -34 -223 -34c-8 0 -28 16 -28 34c0 11 12 25 32 42c58 50 142 160 142 196z" />
    <glyph glyph-name="fraction" unicode="&#x2044;" horiz-adv-x="202" 
d="M284 500c0 -4 -2 -14 -9 -29c-48 -101 -205 -447 -216 -473c-4 -8 -11 -12 -20 -12c-19 0 -29 3 -29 16c0 6 59 133 226 499c3 6 12 13 20 13c19 0 28 -5 28 -14z" />
    <glyph glyph-name="g" unicode="g" horiz-adv-x="291" 
d="M216 196c13 11 40 49 47 49c8 0 33 -4 33 -15s-21 -31 -37 -75c-13 -38 -22 -120 -43 -214c31 3 86 2 86 -29c0 -21 -17 -27 -25 -27c-19 0 -22 21 -45 21c-7 0 -16 -1 -26 -2c-55 -199 -126 -321 -229 -321c-35 0 -69 27 -69 77c0 99 117 233 261 270
c17 76 35 172 35 196c-47 -61 -139 -134 -181 -134c-16 0 -41 21 -41 57c0 72 90 184 174 184c39 0 59 -38 60 -37zM-21 -379c59 0 136 104 180 267c-109 -37 -208 -135 -208 -232c0 -22 13 -35 28 -35zM189 165c0 7 -11 31 -38 31c-62 0 -127 -105 -127 -138
c0 -13 9 -22 20 -22c32 0 145 108 145 129z" />
    <glyph glyph-name="g.01" unicode="&#xe027;" horiz-adv-x="307" 
d="M189 165c0 7 -11 31 -38 31c-62 0 -127 -105 -127 -138c0 -13 9 -22 20 -22c32 0 145 108 145 129zM-83 -323c0 90 168 238 275 330c5 29 14 93 16 117c-47 -62 -143 -132 -185 -132c-16 0 -41 21 -41 57c0 72 90 184 174 184c39 0 59 -38 60 -37c13 11 40 49 47 49
c8 0 33 -4 33 -15s-29 -29 -37 -75c0 0 -10 -69 -16 -101c22 21 77 78 97 103c11 15 20 25 30 25s14 -6 14 -14c0 -9 -4 -15 -15 -29c-32 -38 -110 -120 -146 -155c-36 -188 -107 -378 -238 -378c-35 0 -68 21 -68 71zM-13 -356c86 0 154 153 192 304
c-72 -64 -220 -197 -220 -269c0 -22 13 -35 28 -35z" />
    <glyph glyph-name="g.02" unicode="&#xe028;" horiz-adv-x="291" 
d="M-17 -384c115 0 191 286 221 510c-47 -61 -139 -134 -181 -134c-16 0 -41 21 -41 57c0 72 90 184 174 184c39 0 59 -38 60 -37c13 11 40 49 47 49c8 0 33 -4 33 -15s-27 -30 -37 -75c-53 -260 -111 -577 -277 -577c-46 0 -81 30 -81 62c0 21 14 30 25 30
c15 0 22 -10 22 -23c0 -17 11 -31 35 -31zM189 165c0 7 -11 31 -38 31c-62 0 -127 -105 -127 -138c0 -13 9 -22 20 -22c32 0 145 108 145 129z" />
    <glyph glyph-name="g.03" unicode="&#xe029;" horiz-adv-x="291" 
d="M330 -220c-51 0 -101 4 -148 10c-53 -168 -140 -317 -291 -317c-105 0 -162 71 -162 150c0 136 133 218 311 218c34 0 71 -3 108 -7c32 111 49 225 56 292c-47 -61 -139 -134 -181 -134c-16 0 -41 21 -41 57c0 72 90 184 174 184c39 0 59 -38 60 -37c13 11 40 49 47 49
c8 0 33 -4 33 -15s-30 -45 -37 -91c-14 -83 -33 -198 -66 -311c46 -5 90 -10 130 -10c176 0 237 39 281 84c11 11 26 37 47 37c14 0 22 -8 22 -21c0 -15 -12 -34 -37 -53c-66 -51 -139 -85 -306 -85zM-107 -484c117 0 194 131 243 278c-34 4 -65 7 -92 7
c-152 0 -271 -59 -271 -176c0 -59 32 -109 120 -109zM189 165c0 7 -11 31 -38 31c-62 0 -127 -105 -127 -138c0 -13 9 -22 20 -22c32 0 145 108 145 129z" />
    <glyph glyph-name="g.04" unicode="&#xe02a;" horiz-adv-x="291" 
d="M419 -172c-12 31 -81 63 -176 63h-34c-49 -203 -134 -415 -304 -415c-94 0 -161 54 -161 145c0 160 216 278 428 302c17 79 27 153 32 203c-47 -61 -139 -134 -181 -134c-16 0 -41 21 -41 57c0 72 90 184 174 184c39 0 59 -38 60 -37c13 11 40 49 47 49c8 0 33 -4 33 -15
s-31 -45 -39 -91c-10 -59 -21 -134 -39 -213c9 1 19 1 28 1c125 0 228 -47 228 -117c0 -16 -7 -29 -21 -29c-29 0 -26 25 -34 47zM-95 -484c136 0 215 191 258 371c-185 -24 -375 -128 -375 -264c0 -67 34 -107 117 -107zM189 165c0 7 -11 31 -38 31
c-62 0 -127 -105 -127 -138c0 -13 9 -22 20 -22c32 0 145 108 145 129z" />
    <glyph glyph-name="germandbls" unicode="&#xdf;" horiz-adv-x="338" 
d="M304 504c-21 0 -68 -32 -116 -112c-69 -114 -130 -275 -130 -341c0 -17 4 -18 4 -36c0 -8 -10 -17 -20 -17s-23 10 -23 37c0 77 46 226 127 366c46 82 108 145 160 145c39 0 78 -15 78 -69c0 -80 -171 -162 -171 -211c0 -38 87 -60 87 -144c0 -68 -44 -124 -123 -124
c-53 0 -78 40 -78 67c0 11 6 24 21 24c19 0 19 -14 19 -26c0 -11 12 -33 46 -33c51 0 73 35 73 89c0 73 -88 93 -88 145c0 66 170 154 170 204c0 26 -11 36 -36 36z" />
    <glyph glyph-name="grave" unicode="`" horiz-adv-x="118" 
d="M27 346c6 0 11 -2 15 -10c19 -30 45 -62 61 -67c9 -2 10 -6 10 -10s-3 -10 -12 -10c-19 0 -56 18 -81 43c-12 11 -15 16 -15 26c0 12 13 28 22 28z" />
    <glyph glyph-name="greater" unicode="&#x3e;" horiz-adv-x="253" 
d="M43 360l71 -52c47 -35 96 -72 109 -82c8 -7 16 -17 16 -24c0 -9 -5 -16 -16 -24c-67 -50 -177 -129 -184 -133c-3 -1 -8 -3 -11 -3c-15 0 -23 20 -23 26c0 7 10 17 38 37c46 34 86 64 133 98c-21 16 -57 43 -159 118c-7 5 -9 8 -9 15c0 11 10 29 23 29c4 0 8 -3 12 -5z
" />
    <glyph glyph-name="greaterequal" unicode="&#x2265;" horiz-adv-x="299" 
d="M272 1h-242c-12 0 -28 12 -28 26c0 8 7 18 20 18h242c16 0 26 -14 26 -26c0 -11 -8 -18 -18 -18zM75 383l71 -52c46 -35 96 -72 109 -82c7 -6 15 -17 15 -24c0 -9 -5 -16 -15 -24c-68 -50 -177 -129 -185 -133c-2 -1 -8 -3 -11 -3c-15 0 -22 20 -22 26c0 8 1 12 8 16
l29 22c46 33 86 63 133 97c-21 16 -57 43 -94 70l-65 48c-6 5 -8 8 -8 16c0 10 9 28 22 28c5 0 8 -3 13 -5z" />
    <glyph glyph-name="guillemotleft" unicode="&#xab;" horiz-adv-x="273" 
d="M122 278c4 5 8 9 16 9c9 0 23 -13 23 -24c0 -7 -3 -10 -8 -14c-56 -55 -76 -73 -81 -78c-7 -8 -16 -18 -16 -28c0 -8 6 -14 13 -21c25 -26 57 -58 85 -84c5 -4 7 -6 7 -14c0 -9 -12 -23 -22 -23c-6 0 -10 3 -14 6c-24 21 -60 55 -97 93c-10 10 -20 26 -20 43
c0 15 5 30 22 48c15 15 45 42 92 87zM222 278c4 5 8 9 16 9c9 0 23 -13 23 -24c0 -7 -3 -10 -8 -14c-56 -55 -76 -73 -81 -78c-7 -8 -16 -18 -16 -28c0 -8 6 -14 13 -21c25 -26 57 -58 85 -84c5 -4 7 -6 7 -14c0 -9 -12 -23 -22 -23c-6 0 -10 3 -14 6c-24 21 -59 55 -97 93
c-10 10 -19 26 -19 43c0 15 4 30 21 48c15 15 46 42 92 87z" />
    <glyph glyph-name="guillemotright" unicode="&#xbb;" horiz-adv-x="275" 
d="M149 278c47 -45 77 -72 92 -87c17 -18 22 -33 22 -48c0 -17 -10 -33 -20 -43c-37 -38 -73 -72 -97 -93c-4 -3 -8 -6 -14 -6c-10 0 -22 14 -22 23c0 8 2 10 7 14c28 26 60 58 85 84c7 7 13 13 13 21c0 10 -9 20 -16 28c-5 5 -25 23 -81 78c-5 4 -8 7 -8 14
c0 11 14 24 23 24c8 0 12 -4 16 -9zM49 278c46 -45 77 -72 92 -87c17 -18 21 -33 21 -48c0 -17 -9 -33 -19 -43c-38 -38 -73 -72 -97 -93c-4 -3 -8 -6 -14 -6c-10 0 -22 14 -22 23c0 8 2 10 7 14c28 26 60 58 85 84c7 7 13 13 13 21c0 10 -9 20 -16 28c-5 5 -25 23 -81 78
c-5 4 -8 7 -8 14c0 11 14 24 23 24c8 0 12 -4 16 -9z" />
    <glyph glyph-name="guilsinglleft" unicode="&#x2039;" horiz-adv-x="158" 
d="M118 278c4 5 8 9 16 9c9 0 23 -13 23 -24c0 -7 -3 -10 -8 -14c-56 -55 -76 -73 -81 -78c-7 -8 -16 -18 -16 -28c0 -8 7 -14 13 -21c25 -26 57 -58 85 -84c6 -4 7 -6 7 -14c0 -9 -11 -23 -22 -23c-6 0 -10 3 -14 6c-24 21 -59 55 -97 93c-10 10 -19 26 -19 43
c0 15 4 30 21 48c15 15 46 42 92 87z" />
    <glyph glyph-name="guilsinglright" unicode="&#x203a;" horiz-adv-x="158" 
d="M44 278c46 -45 77 -72 92 -87c16 -18 21 -33 21 -48c0 -17 -9 -33 -19 -43c-38 -38 -73 -72 -97 -93c-4 -3 -9 -6 -14 -6c-11 0 -22 14 -22 23c0 8 1 10 7 14c27 26 60 58 84 84c7 7 13 13 13 21c0 10 -8 20 -15 28c-5 5 -25 23 -82 78c-4 4 -7 7 -7 14c0 11 13 24 23 24
c7 0 11 -4 16 -9z" />
    <glyph glyph-name="h" unicode="h" horiz-adv-x="367" 
d="M265 35c36 0 98 74 135 122c11 15 20 25 30 25s14 -6 14 -14c0 -9 -4 -15 -15 -29c-48 -57 -126 -144 -176 -144c-40 0 -57 23 -57 62c0 26 15 74 15 84s-2 18 -15 18c-44 0 -140 -99 -155 -151c-6 -21 -17 -28 -29 -28c-11 0 -20 12 -20 30c0 45 63 240 156 389
c66 106 131 162 172 162c19 0 43 -16 43 -41c0 -30 -11 -92 -85 -177c-79 -91 -139 -120 -174 -154c-21 -20 -40 -80 -42 -87c48 59 114 100 157 100c30 0 41 -16 41 -40c0 -25 -15 -78 -15 -99c0 -18 5 -28 20 -28zM312 519c-27 0 -77 -51 -126 -133
c-50 -83 -69 -138 -69 -138s65 33 128 109c70 86 82 130 82 148c0 11 -7 14 -15 14z" />
    <glyph glyph-name="h.02" unicode="&#xe02b;" horiz-adv-x="344" 
d="M42 84c55 79 110 118 154 118c30 0 41 -16 41 -40c0 -25 -15 -78 -15 -99c0 -18 5 -28 20 -28c36 0 98 74 135 122c11 15 20 25 30 25s14 -6 14 -14c0 -9 -4 -15 -15 -29c-48 -57 -126 -144 -177 -144c-39 0 -56 23 -56 62c0 26 15 74 15 84s-2 18 -15 18
c-44 0 -117 -99 -132 -151c-6 -21 -17 -28 -29 -28c-11 0 -20 12 -20 30c0 169 86 393 184 525c17 24 28 35 40 35c13 0 22 -6 22 -19c0 -12 -4 -17 -22 -35c-84 -85 -174 -357 -174 -432z" />
    <glyph glyph-name="h.salt" unicode="&#xe02c;" horiz-adv-x="343" 
d="M265 35c12 0 28 10 39 22c13 12 23 25 34 25c9 0 14 -5 14 -13c0 -9 -2 -16 -16 -29c-19 -19 -48 -45 -83 -45c-40 0 -57 23 -57 62c0 26 15 74 15 84s-2 18 -15 18c-44 0 -140 -99 -155 -151c-6 -21 -17 -28 -29 -28c-11 0 -20 12 -20 30c0 45 63 240 156 389
c66 106 131 162 172 162c19 0 43 -16 43 -41c0 -30 -11 -92 -85 -177c-79 -91 -139 -120 -174 -154c-21 -20 -40 -80 -42 -87c48 59 114 100 157 100c30 0 41 -16 41 -40c0 -25 -15 -76 -15 -102c0 -15 4 -25 20 -25zM312 519c-27 0 -77 -51 -126 -133
c-50 -83 -69 -138 -69 -138s65 33 128 109c70 86 82 130 82 148c0 11 -7 14 -15 14z" />
    <glyph glyph-name="hungarumlaut" unicode="&#x2dd;" horiz-adv-x="226" 
d="M92 346c10 0 23 -16 23 -28c0 -10 -4 -15 -16 -26c-25 -25 -62 -43 -81 -43c-9 0 -13 4 -13 8s3 10 11 12c16 5 43 37 61 67c5 8 9 10 15 10zM200 346c9 0 23 -16 23 -28c0 -10 -4 -15 -16 -26c-25 -25 -62 -43 -81 -43c-9 0 -13 4 -13 8s2 10 11 12c16 5 42 37 61 67
c4 8 9 10 15 10z" />
    <glyph glyph-name="hyphen" unicode="-" horiz-adv-x="198" 
d="M163 133h-137c-5 0 -8 3 -8 8c0 7 8 29 17 29h136c7 0 9 -2 9 -7c0 -7 -9 -30 -17 -30z" />
    <glyph glyph-name="hyphen1" unicode="&#x2010;" horiz-adv-x="198" 
d="M163 249h-137c-5 0 -8 3 -8 7c0 7 8 30 17 30h136c7 0 9 -3 9 -7c0 -8 -9 -30 -17 -30z" />
    <glyph glyph-name="i" unicode="i" horiz-adv-x="167" 
d="M197 419c10 0 22 -8 22 -28c0 -24 -27 -38 -39 -38s-17 21 -17 35s14 31 34 31zM62 36c29 0 101 73 137 121c12 15 20 25 31 25c9 0 14 -6 14 -14c0 -9 -4 -15 -15 -29c-48 -57 -138 -142 -188 -142c-17 0 -41 18 -41 51c0 44 51 142 59 157c11 19 20 35 33 35
c9 0 23 -7 23 -18s-10 -21 -19 -36c-22 -38 -52 -108 -52 -130c0 -9 5 -20 18 -20z" />
    <glyph glyph-name="i.salt" unicode="&#xe02d;" horiz-adv-x="162" 
d="M197 419c10 0 22 -8 22 -28c0 -24 -27 -38 -39 -38s-17 21 -17 35s14 31 34 31zM62 36c13 0 27 11 38 23c13 12 23 25 34 25c9 0 14 -5 14 -14c0 -8 -2 -15 -16 -28c-19 -20 -47 -45 -91 -45c-23 0 -41 18 -41 51c0 44 51 142 59 157c11 19 20 35 33 35c9 0 23 -7 23 -18
s-10 -21 -19 -36c-22 -38 -52 -108 -52 -130c0 -9 5 -20 18 -20z" />
    <glyph glyph-name="iacute" unicode="&#xed;" horiz-adv-x="167" 
d="M62 36c29 0 101 73 137 121c12 15 20 25 31 25c9 0 14 -6 14 -14c0 -9 -4 -15 -15 -29c-48 -57 -138 -142 -188 -142c-17 0 -41 18 -41 51c0 44 51 142 59 157c11 19 20 35 33 35c9 0 23 -7 23 -18s-10 -21 -19 -36c-22 -38 -52 -108 -52 -130c0 -9 5 -20 18 -20z
M169 375c10 0 23 -16 23 -29c0 -10 -4 -14 -16 -26c-25 -24 -62 -43 -81 -43c-9 0 -13 4 -13 9c0 4 3 10 11 12c16 5 43 36 61 67c5 8 9 10 15 10z" />
    <glyph glyph-name="iacute.salt" unicode="&#xe02e;" horiz-adv-x="162" 
d="M62 36c13 0 27 11 38 23c13 12 23 25 34 25c9 0 14 -5 14 -14c0 -8 -2 -15 -16 -28c-19 -20 -47 -45 -91 -45c-23 0 -41 18 -41 51c0 44 51 142 59 157c11 19 20 35 33 35c9 0 23 -7 23 -18s-10 -21 -19 -36c-22 -38 -52 -108 -52 -130c0 -9 5 -20 18 -20zM169 377
c10 0 23 -16 23 -28c0 -10 -4 -15 -16 -26c-25 -25 -62 -43 -81 -43c-9 0 -13 3 -13 8c0 4 3 10 11 12c16 5 43 36 61 67c5 8 9 10 15 10z" />
    <glyph glyph-name="ibreve" unicode="&#x12d;" horiz-adv-x="167" 
d="M62 36c29 0 101 73 137 121c12 15 20 25 31 25c9 0 14 -6 14 -14c0 -9 -4 -15 -15 -29c-48 -57 -138 -142 -188 -142c-17 0 -41 18 -41 51c0 44 51 142 59 157c11 19 20 35 33 35c9 0 23 -7 23 -18s-10 -21 -19 -36c-22 -38 -52 -108 -52 -130c0 -9 5 -20 18 -20z
M110 265c-36 0 -78 27 -78 65c0 13 10 30 27 30c10 0 22 -5 22 -22c0 -6 -6 -11 -6 -18c0 -10 17 -22 38 -22c31 0 53 18 53 28c0 23 16 34 27 34s22 -7 22 -20s-7 -26 -16 -35c-20 -24 -42 -40 -89 -40z" />
    <glyph glyph-name="ibreve.salt" unicode="&#xe02f;" horiz-adv-x="162" 
d="M62 36c13 0 27 11 38 23c13 12 23 25 34 25c9 0 14 -5 14 -14c0 -8 -2 -15 -16 -28c-19 -20 -47 -45 -91 -45c-23 0 -41 18 -41 51c0 44 51 142 59 157c11 19 20 35 33 35c9 0 23 -7 23 -18s-10 -21 -19 -36c-22 -38 -52 -108 -52 -130c0 -9 5 -20 18 -20zM110 266
c-36 0 -78 27 -78 65c0 13 10 29 27 29c10 0 22 -4 22 -21c0 -6 -6 -11 -6 -18c0 -11 17 -22 38 -22c31 0 53 17 53 28c0 23 16 33 27 33s22 -7 22 -19c0 -13 -7 -26 -16 -35c-20 -24 -42 -40 -89 -40z" />
    <glyph glyph-name="icircumflex" unicode="&#xee;" horiz-adv-x="167" 
d="M62 36c29 0 101 73 137 121c12 15 20 25 31 25c9 0 14 -6 14 -14c0 -9 -4 -15 -15 -29c-48 -57 -138 -142 -188 -142c-17 0 -41 18 -41 51c0 44 51 142 59 157c11 19 20 35 33 35c9 0 23 -7 23 -18s-10 -21 -19 -36c-22 -38 -52 -108 -52 -130c0 -9 5 -20 18 -20z
M131 312c-29 -16 -69 -37 -78 -37c-6 0 -10 3 -10 8s4 8 12 13c18 11 31 22 52 47c9 11 15 20 31 20c18 0 18 -10 24 -23c10 -20 20 -35 28 -44c6 -6 11 -8 11 -13c0 -6 -3 -8 -9 -8s-26 5 -61 37z" />
    <glyph glyph-name="icircumflex.salt" unicode="&#xe030;" horiz-adv-x="162" 
d="M62 36c13 0 27 11 38 23c13 12 23 25 34 25c9 0 14 -5 14 -14c0 -8 -2 -15 -16 -28c-19 -20 -47 -45 -91 -45c-23 0 -41 18 -41 51c0 44 51 142 59 157c11 19 20 35 33 35c9 0 23 -7 23 -18s-10 -21 -19 -36c-22 -38 -52 -108 -52 -130c0 -9 5 -20 18 -20zM126 289
c-29 -16 -70 -37 -78 -37c-6 0 -10 3 -10 8s4 8 11 13c19 11 32 22 53 47c9 11 15 20 30 20c18 0 19 -10 25 -23c9 -20 19 -35 28 -44c5 -7 11 -8 11 -13c0 -6 -4 -8 -9 -8c-7 0 -27 5 -61 37z" />
    <glyph glyph-name="idieresis" unicode="&#xef;" horiz-adv-x="167" 
d="M62 36c29 0 101 73 137 121c12 15 20 25 31 25c9 0 14 -6 14 -14c0 -9 -4 -15 -15 -29c-48 -57 -138 -142 -188 -142c-17 0 -41 18 -41 51c0 44 51 142 59 157c11 19 20 35 33 35c9 0 23 -7 23 -18s-10 -21 -19 -36c-22 -38 -52 -108 -52 -130c0 -9 5 -20 18 -20zM50 283
c0 17 19 47 44 47c11 0 15 -7 15 -18c0 -19 -16 -48 -42 -48c-12 0 -17 9 -17 19zM135 283c0 17 19 47 44 47c11 0 15 -7 15 -18c0 -19 -16 -48 -42 -48c-12 0 -17 9 -17 19z" />
    <glyph glyph-name="idieresis.salt" unicode="&#xe031;" horiz-adv-x="162" 
d="M62 36c13 0 27 11 38 23c13 12 23 25 34 25c9 0 14 -5 14 -14c0 -8 -2 -15 -16 -28c-19 -20 -47 -45 -91 -45c-23 0 -41 18 -41 51c0 44 51 142 59 157c11 19 20 35 33 35c9 0 23 -7 23 -18s-10 -21 -19 -36c-22 -38 -52 -108 -52 -130c0 -9 5 -20 18 -20zM43 290
c0 18 19 48 44 48c12 0 15 -8 15 -18c0 -20 -16 -48 -42 -48c-11 0 -17 8 -17 18zM128 290c0 18 19 48 44 48c11 0 15 -8 15 -18c0 -20 -16 -48 -42 -48c-12 0 -17 8 -17 18z" />
    <glyph glyph-name="igrave" unicode="&#xec;" horiz-adv-x="167" 
d="M62 36c29 0 101 73 137 121c12 15 20 25 31 25c9 0 14 -6 14 -14c0 -9 -4 -15 -15 -29c-48 -57 -138 -142 -188 -142c-17 0 -41 18 -41 51c0 44 51 142 59 157c11 19 20 35 33 35c9 0 23 -7 23 -18s-10 -21 -19 -36c-22 -38 -52 -108 -52 -130c0 -9 5 -20 18 -20zM90 354
c6 0 11 -2 15 -10c19 -31 45 -62 61 -67c9 -2 10 -6 10 -10s-3 -11 -12 -11c-18 0 -55 19 -81 44c-11 11 -15 16 -15 26c0 12 13 28 22 28z" />
    <glyph glyph-name="igrave.salt" unicode="&#xe032;" horiz-adv-x="162" 
d="M62 36c13 0 27 11 38 23c13 12 23 25 34 25c9 0 14 -5 14 -14c0 -8 -2 -15 -16 -28c-19 -20 -47 -45 -91 -45c-23 0 -41 18 -41 51c0 44 51 142 59 157c11 19 20 35 33 35c9 0 23 -7 23 -18s-10 -21 -19 -36c-22 -38 -52 -108 -52 -130c0 -9 5 -20 18 -20zM73 362
c6 0 11 -2 16 -10c18 -31 44 -62 60 -67c9 -2 10 -6 10 -10c0 -5 -3 -11 -12 -11c-18 0 -55 19 -81 43c-11 12 -15 16 -15 26c0 13 13 29 22 29z" />
    <glyph glyph-name="integral" unicode="&#x222b;" horiz-adv-x="236" 
d="M146 494v-385c0 -86 -54 -121 -94 -121c-26 0 -40 19 -40 35c0 15 10 27 26 27c14 0 17 -8 23 -16c1 -2 3 -6 6 -6c6 0 25 14 25 37v384c0 86 54 122 94 122c26 0 40 -19 40 -35c0 -15 -10 -27 -26 -27c-14 0 -18 8 -23 16c-1 2 -3 6 -6 6c-6 0 -25 -14 -25 -37z" />
    <glyph glyph-name="j" unicode="j" horiz-adv-x="147" 
d="M91 413c18 0 31 -20 31 -32s-3 -28 -22 -28c-18 0 -38 14 -38 27s11 33 29 33zM59 246c7 0 26 -10 26 -22c0 -18 -9 -81 -9 -104c0 -5 0 -9 2 -9c7 0 41 31 93 65c12 8 26 14 35 14c12 0 17 -11 17 -18c0 -10 -17 -15 -36 -28c-43 -29 -107 -65 -126 -109
c-8 -18 -10 -120 -63 -248c-52 -128 -117 -174 -151 -174c-19 0 -49 19 -49 57c0 37 13 97 70 191c64 105 150 181 156 194s17 155 17 169s4 22 18 22zM6 -13c0 0 -45 -55 -107 -151c-45 -71 -60 -145 -60 -162c0 -16 9 -21 15 -21c20 0 60 40 106 151c23 55 46 120 46 183z
" />
    <glyph glyph-name="j.01" unicode="&#xe033;" horiz-adv-x="116" 
d="M91 413c18 0 31 -20 31 -32s-3 -28 -22 -28c-18 0 -38 14 -38 27s11 33 29 33zM41 224c0 14 4 22 18 22c7 0 26 -10 26 -22c0 -40 -10 -220 -32 -313c20 3 39 4 57 4s29 -5 29 -26s-17 -27 -24 -27c-8 0 -17 13 -42 13c-7 0 -16 -1 -26 -2c-59 -188 -137 -290 -240 -290
c-35 0 -70 27 -70 77c0 99 126 202 270 239c22 97 34 257 34 325zM-191 -379c59 0 147 98 188 236c-109 -36 -216 -104 -216 -201c0 -22 13 -35 28 -35z" />
    <glyph glyph-name="j.02" unicode="&#xe034;" horiz-adv-x="147" 
d="M91 413c18 0 31 -20 31 -32s-3 -28 -22 -28c-18 0 -38 14 -38 27s11 33 29 33zM69 55c-26 -187 -91 -477 -257 -477c-45 0 -81 30 -81 62c0 21 15 30 26 30c14 0 21 -10 21 -23c0 -17 12 -31 36 -31c121 0 188 261 210 439c8 64 17 155 17 169s4 22 18 22
c7 0 26 -10 26 -22c0 -18 -6 -96 -16 -169z" />
    <glyph glyph-name="j.03" unicode="&#xe035;" horiz-adv-x="147" 
d="M91 413c18 0 31 -20 31 -32s-3 -28 -22 -28c-18 0 -38 14 -38 27s11 33 29 33zM85 224c0 -70 -18 -245 -64 -396c45 -5 90 -10 130 -10c175 0 236 39 281 84c11 11 25 37 46 37c14 0 22 -8 22 -21c0 -15 -12 -34 -36 -53c-67 -51 -140 -85 -307 -85c-51 0 -101 4 -148 10
c-53 -168 -140 -317 -291 -317c-105 0 -162 71 -162 150c0 136 134 218 312 218c33 0 73 -3 110 -7c45 143 63 328 63 390c0 14 4 22 18 22c7 0 26 -10 26 -22zM-280 -484c118 0 195 131 243 278c-33 4 -65 7 -92 7c-151 0 -271 -59 -271 -176c0 -59 33 -109 120 -109z" />
    <glyph glyph-name="j.04" unicode="&#xe036;" horiz-adv-x="147" 
d="M91 413c18 0 31 -20 31 -32s-3 -28 -22 -28c-18 0 -38 14 -38 27s11 33 29 33zM85 224c0 -88 -18 -204 -39 -298c9 1 19 1 29 1c124 0 227 -47 227 -117c0 -16 -7 -29 -21 -29c-28 0 -25 25 -34 47c-12 31 -81 63 -176 63h-33c-50 -203 -135 -415 -305 -415
c-93 0 -160 54 -160 145c0 160 217 278 429 302c20 91 39 220 39 301c0 14 4 22 18 22c7 0 26 -10 26 -22zM-267 -484c136 0 215 197 260 371c-185 -24 -376 -128 -376 -264c0 -67 33 -107 116 -107z" />
    <glyph glyph-name="jx.salt" unicode="&#xe037;" horiz-adv-x="434" 
d="M91 413c18 0 31 -20 31 -32s-3 -28 -22 -28c-18 0 -38 14 -38 27s11 33 29 33zM6 -13c0 0 -45 -55 -107 -151c-45 -71 -60 -145 -60 -162c0 -16 9 -21 15 -21c20 0 60 40 106 151c23 55 46 120 46 183zM338 35c23 0 36 9 48 20c13 13 23 26 34 26c9 0 14 -6 14 -14
s-3 -15 -16 -29c-19 -19 -48 -44 -92 -44c-40 0 -61 66 -70 66c-7 0 -65 -65 -107 -102c-16 -13 -23 -21 -35 -21s-19 8 -19 20c0 8 9 16 23 27c41 32 124 119 124 135c0 15 -9 66 -19 66c-28 0 -144 -124 -164 -168c-7 -18 -8 -102 -61 -230c-52 -128 -117 -174 -151 -174
c-19 0 -49 19 -49 57c0 37 13 97 70 191c64 105 150 181 156 194s17 155 17 169s4 22 18 22c7 0 26 -10 26 -22c0 -18 -9 -81 -9 -104c0 -5 0 -9 2 -9c7 0 103 123 155 123c42 0 43 -78 47 -78c5 0 43 37 69 76c15 23 24 37 36 37c9 0 18 -7 18 -16c0 -12 -13 -26 -24 -41
c-24 -33 -86 -100 -86 -107c0 -6 21 -70 45 -70z" />
    <glyph glyph-name="k" unicode="k" horiz-adv-x="313" 
d="M202 35c47 0 108 74 144 122c11 15 20 25 31 25c9 0 13 -6 13 -14c0 -9 -3 -15 -15 -29c-46 -57 -113 -142 -183 -142c-54 0 -90 68 -90 90c0 12 37 14 84 48c20 14 40 32 40 44c0 8 -6 16 -14 16c-12 0 -49 -18 -103 -82c-34 -38 -60 -74 -60 -98c0 -8 -17 -24 -27 -24
s-26 5 -26 28c0 43 94 288 140 378c45 89 106 163 159 163c18 0 41 -21 41 -39c0 -27 -16 -85 -80 -177c-64 -91 -143 -143 -163 -162c-5 -5 -24 -44 -24 -55c0 -1 0 -2 1 -2c3 0 10 7 24 21c69 70 113 90 145 90c15 0 31 -17 31 -38c0 -67 -122 -113 -122 -121
c0 -12 21 -42 54 -42zM284 521c-24 0 -70 -60 -110 -139c-38 -77 -63 -142 -64 -145c8 6 67 59 119 133c51 74 69 127 69 137c0 11 -6 14 -14 14z" />
    <glyph glyph-name="k.02" unicode="&#xe038;" horiz-adv-x="313" 
d="M52 117c0 -2 1 -4 2 -4c3 0 11 6 24 21c70 75 114 102 161 102c15 0 31 -17 31 -38c0 -67 -122 -113 -122 -121c0 -12 21 -42 54 -42c47 0 108 74 144 122c11 15 20 25 31 25c9 0 13 -6 13 -14c0 -9 -3 -15 -15 -29c-46 -57 -113 -142 -183 -142c-54 0 -90 68 -90 90
c0 12 37 14 84 48c20 14 40 32 40 44c0 8 -6 16 -14 16c-12 0 -49 -18 -103 -82c-34 -38 -60 -74 -60 -98c0 -8 -17 -24 -27 -24s-26 5 -26 28c0 169 86 384 183 516c18 24 29 35 41 35c13 0 22 -6 22 -19c0 -12 -4 -17 -22 -35c-84 -85 -168 -330 -168 -399z" />
    <glyph glyph-name="k.salt" unicode="&#xe039;" horiz-adv-x="304" 
d="M202 35c18 0 37 12 49 24c13 12 23 25 34 25c9 0 14 -5 14 -14c0 -8 -3 -15 -16 -28c-19 -20 -47 -45 -91 -45c-54 0 -90 62 -90 90c0 12 37 14 84 48c20 14 40 32 40 44c0 8 -6 16 -14 16c-12 0 -49 -18 -103 -82c-34 -38 -60 -74 -60 -98c0 -8 -17 -24 -27 -24
s-26 5 -26 28c0 43 94 288 140 378c45 89 106 163 159 163c18 0 41 -21 41 -39c0 -27 -16 -85 -80 -177c-64 -91 -143 -143 -163 -162c-8 -7 -24 -48 -24 -56c0 0 0 -2 2 -2c4 0 10 3 24 18c67 75 112 94 144 94c15 0 31 -17 31 -38c0 -67 -122 -113 -122 -121
c0 -12 21 -42 54 -42zM284 521c-24 0 -70 -60 -110 -139c-38 -77 -63 -142 -64 -145c8 6 67 59 119 133c51 74 69 127 69 137c0 11 -6 14 -14 14z" />
    <glyph glyph-name="l" unicode="l" horiz-adv-x="210" 
d="M79 31c43 0 119 78 155 126c12 15 20 25 31 25c9 0 14 -6 14 -14c0 -9 -4 -15 -16 -29c-47 -57 -134 -145 -191 -145c-33 0 -72 27 -72 73c0 85 65 239 122 337c60 103 105 154 161 154c19 0 39 -21 39 -41c0 -29 -16 -90 -88 -182c-65 -82 -112 -115 -156 -150
c-18 -29 -32 -85 -32 -107c0 -29 11 -47 33 -47zM263 512c-13 0 -54 -28 -105 -121c-53 -93 -65 -135 -68 -151c13 6 63 50 117 123c59 81 71 111 71 135c0 10 -5 14 -15 14z" />
    <glyph glyph-name="l.02" unicode="&#xe03a;" horiz-adv-x="226" 
d="M79 31c43 0 119 78 155 126c12 15 20 25 31 25c9 0 14 -6 14 -14c0 -9 -4 -15 -16 -29c-47 -57 -134 -145 -191 -145c-33 0 -72 27 -72 73c0 130 85 336 183 468c18 24 29 35 41 35c13 0 22 -6 22 -19c0 -12 -4 -17 -22 -35c-85 -85 -181 -330 -181 -438
c0 -29 14 -47 36 -47z" />
    <glyph glyph-name="l.salt" unicode="&#xe03b;" horiz-adv-x="186" 
d="M81 31c18 0 38 13 50 24c13 13 23 26 34 26c9 0 14 -6 14 -14s-3 -15 -16 -29c-19 -19 -48 -44 -91 -44c-33 0 -72 27 -72 73c0 85 65 239 122 337c60 103 105 154 161 154c19 0 39 -21 39 -41c0 -29 -16 -90 -88 -182c-65 -82 -101 -102 -143 -144
c-25 -25 -45 -91 -45 -113c0 -29 13 -47 35 -47zM263 512c-13 0 -54 -28 -105 -121c-53 -93 -65 -135 -68 -151c13 6 63 50 117 123c59 81 71 111 71 135c0 10 -5 14 -15 14z" />
    <glyph glyph-name="lacute" unicode="&#x13a;" horiz-adv-x="210" 
d="M79 31c43 0 119 78 155 126c12 15 20 25 31 25c9 0 14 -6 14 -14c0 -9 -4 -15 -16 -29c-47 -57 -134 -145 -191 -145c-33 0 -72 27 -72 73c0 85 65 239 122 337c60 103 105 154 161 154c19 0 39 -21 39 -41c0 -29 -16 -90 -88 -182c-65 -82 -112 -115 -156 -150
c-18 -29 -32 -85 -32 -107c0 -29 11 -47 33 -47zM263 512c-13 0 -54 -28 -105 -121c-53 -93 -65 -135 -68 -151c13 6 63 50 117 123c59 81 71 111 71 135c0 10 -5 14 -15 14zM320 677c10 0 23 -16 23 -29c0 -10 -4 -14 -16 -26c-25 -24 -62 -43 -81 -43c-9 0 -13 4 -13 9
c0 3 3 10 11 12c16 4 42 36 61 67c5 8 9 10 15 10z" />
    <glyph glyph-name="lacute.02" unicode="&#xe03c;" horiz-adv-x="210" 
d="M79 31c43 0 119 78 155 126c12 15 20 25 31 25c9 0 14 -6 14 -14c0 -9 -4 -15 -16 -29c-47 -57 -134 -145 -191 -145c-33 0 -72 27 -72 73c0 130 85 336 183 468c18 24 29 35 41 35c13 0 22 -6 22 -19c0 -12 -4 -17 -22 -35c-85 -85 -181 -330 -181 -438
c0 -29 14 -47 36 -47zM273 689c9 0 22 -16 22 -28c0 -10 -4 -15 -15 -27c-26 -24 -63 -43 -81 -43c-10 0 -13 4 -13 9c0 4 2 10 10 12c17 5 43 36 61 67c5 8 9 10 16 10z" />
    <glyph glyph-name="lacute.salt" unicode="&#xe03d;" horiz-adv-x="186" 
d="M81 31c18 0 38 13 50 24c13 13 23 26 34 26c9 0 14 -6 14 -14s-3 -15 -16 -29c-19 -19 -48 -44 -91 -44c-33 0 -72 27 -72 73c0 85 65 239 122 337c60 103 105 154 161 154c19 0 39 -21 39 -41c0 -29 -16 -90 -88 -182c-65 -82 -101 -102 -143 -144
c-25 -25 -45 -91 -45 -113c0 -29 13 -47 35 -47zM263 512c-13 0 -54 -28 -105 -121c-53 -93 -65 -135 -68 -151c13 6 63 50 117 123c59 81 71 111 71 135c0 10 -5 14 -15 14zM343 681c9 0 22 -16 22 -29c0 -10 -4 -14 -15 -26c-26 -25 -63 -43 -81 -43c-10 0 -13 4 -13 8
s2 10 10 13c17 4 43 36 61 67c5 7 9 10 16 10z" />
    <glyph glyph-name="lcaron" unicode="&#x13e;" horiz-adv-x="303" 
d="M79 31c43 0 119 78 155 126c12 15 20 25 31 25c9 0 14 -6 14 -14c0 -9 -4 -15 -16 -29c-47 -57 -134 -145 -191 -145c-33 0 -72 27 -72 73c0 85 65 239 122 337c60 103 105 154 161 154c19 0 39 -21 39 -41c0 -29 -16 -90 -88 -182c-65 -82 -112 -115 -156 -150
c-18 -29 -32 -85 -32 -107c0 -29 11 -47 33 -47zM263 512c-13 0 -54 -28 -105 -121c-53 -93 -65 -135 -68 -151c13 6 63 50 117 123c59 81 71 111 71 135c0 10 -5 14 -15 14zM347 527c0 -6 2 -13 2 -20c0 -19 -15 -37 -15 -47c0 -7 2 -10 10 -10c11 0 56 44 56 75
c0 17 -6 30 -25 30c-18 0 -28 -16 -28 -28z" />
    <glyph glyph-name="lcaron.02" unicode="&#xe03e;" horiz-adv-x="210" 
d="M79 31c43 0 119 78 155 126c12 15 20 25 31 25c9 0 14 -6 14 -14c0 -9 -4 -15 -16 -29c-47 -57 -134 -145 -191 -145c-33 0 -72 27 -72 73c0 130 85 336 183 468c18 24 29 35 41 35c13 0 22 -6 22 -19c0 -12 -4 -17 -22 -35c-85 -85 -181 -330 -181 -438
c0 -29 14 -47 36 -47zM269 538c0 -7 2 -14 2 -20c0 -19 -15 -37 -15 -48c0 -6 3 -10 10 -10c11 0 57 45 57 76c0 17 -7 30 -26 30c-17 0 -28 -16 -28 -28z" />
    <glyph glyph-name="lcaron.salt" unicode="&#xe03f;" horiz-adv-x="186" 
d="M81 31c18 0 38 13 50 24c13 13 23 26 34 26c9 0 14 -6 14 -14s-3 -15 -16 -29c-19 -19 -48 -44 -91 -44c-33 0 -72 27 -72 73c0 85 65 239 122 337c60 103 105 154 161 154c19 0 39 -21 39 -41c0 -29 -16 -90 -88 -182c-65 -82 -101 -102 -143 -144
c-25 -25 -45 -91 -45 -113c0 -29 13 -47 35 -47zM263 512c-13 0 -54 -28 -105 -121c-53 -93 -65 -135 -68 -151c13 6 63 50 117 123c59 81 71 111 71 135c0 10 -5 14 -15 14zM336 524c0 -7 2 -13 2 -20c0 -19 -15 -37 -15 -47c0 -7 3 -10 10 -10c11 0 57 44 57 75
c0 17 -7 30 -26 30c-18 0 -28 -16 -28 -28z" />
    <glyph glyph-name="less" unicode="&#x3c;" horiz-adv-x="249" 
d="M21 226c0 0 185 139 192 139c14 0 23 -18 23 -29c0 -7 -1 -10 -8 -15c-109 -82 -143 -106 -159 -118l162 -119c6 -4 8 -9 8 -16c0 -6 -7 -26 -23 -26c-3 0 -10 2 -13 3c-17 13 -118 85 -182 133c-10 8 -16 15 -16 24c0 7 9 17 16 24z" />
    <glyph glyph-name="lessequal" unicode="&#x2264;" horiz-adv-x="299" 
d="M216 383c4 2 7 5 13 5c14 0 22 -18 22 -28c0 -8 -2 -11 -8 -16l-159 -118l162 -119c7 -4 8 -8 8 -16c0 -6 -7 -26 -22 -26c-4 0 -10 2 -13 4c-18 12 -118 84 -183 132c-10 8 -15 15 -15 24c0 7 8 18 15 24c14 11 63 49 180 134zM262 1h-242c-10 0 -18 7 -18 18
c0 12 10 26 26 26h242c13 0 20 -10 20 -18c0 -14 -16 -26 -28 -26z" />
    <glyph glyph-name="logicalnot" unicode="&#xac;" horiz-adv-x="284" 
d="M223 176h-203c-15 0 -20 12 -20 25c0 11 5 24 20 24h225c24 0 28 -15 28 -23v-101c0 -15 -11 -19 -24 -19c-12 0 -26 3 -26 20v74z" />
    <glyph glyph-name="lozenge" unicode="&#x25ca;" horiz-adv-x="316" 
d="M306 225c0 -6 -4 -15 -4 -15c-36 -62 -103 -175 -113 -190c-7 -10 -19 -15 -32 -15c-14 0 -27 7 -34 18c-36 60 -81 130 -117 189c-3 4 -4 9 -4 13s3 12 5 14c29 50 78 131 116 188c6 9 16 18 35 18c18 0 25 -8 30 -15c48 -76 88 -151 115 -193c2 -4 3 -8 3 -12zM156 390
c-68 -110 -87 -140 -102 -165l105 -170c56 101 79 140 97 170c-24 41 -75 125 -100 165z" />
    <glyph glyph-name="lslash" unicode="&#x142;" horiz-adv-x="210" 
d="M107 139l-54 -17c-4 -18 -7 -34 -7 -44c0 -29 11 -47 33 -47c43 0 119 78 155 126c12 15 20 25 31 25c9 0 14 -6 14 -14c0 -9 -4 -15 -16 -29c-47 -57 -134 -145 -191 -145c-33 0 -72 27 -72 73c0 12 2 25 4 38l-27 -8c-3 0 -5 2 -6 5c-2 4 -3 23 1 25l38 12
c21 84 69 191 112 265c60 103 105 154 161 154c19 0 39 -21 39 -41c0 -29 -16 -90 -88 -182c-65 -82 -112 -115 -156 -150c-5 -8 -9 -18 -13 -28l37 12c3 1 5 0 7 -3c1 -6 2 -24 -2 -27zM263 512c-13 0 -54 -28 -105 -121c-53 -93 -65 -135 -68 -151c13 6 63 50 117 123
c59 81 71 111 71 135c0 10 -5 14 -15 14z" />
    <glyph glyph-name="m" unicode="m" horiz-adv-x="466" 
d="M372 37c33 0 90 72 126 120c12 15 20 25 31 25c9 0 14 -6 14 -14c0 -9 -4 -15 -16 -29c-31 -40 -114 -142 -167 -142c-27 0 -44 19 -44 53c0 41 22 112 22 119s-2 13 -10 13c-32 0 -114 -107 -129 -146c-10 -23 -18 -38 -27 -38c-10 0 -25 13 -25 24c0 12 45 126 45 156
c0 8 -5 16 -16 16c-12 0 -64 -39 -99 -89c-18 -25 -35 -60 -46 -83c-9 -19 -10 -36 -25 -36c-9 0 -21 9 -21 22c0 14 45 133 76 229c7 22 18 33 26 33c12 0 24 -4 24 -19c0 -17 -29 -84 -33 -98c31 43 84 83 111 83c18 0 48 -10 48 -36c0 -24 -7 -51 -8 -60
c33 46 87 85 119 85c16 0 36 -14 36 -35s-27 -92 -27 -131c0 -14 3 -22 15 -22z" />
    <glyph glyph-name="m.salt" unicode="&#xe040;" horiz-adv-x="461" 
d="M375 34c18 0 34 13 45 25c14 12 24 25 34 25s14 -5 14 -14c0 -8 -2 -15 -15 -28c-19 -20 -49 -45 -93 -45c-27 0 -44 19 -44 53c0 41 22 109 22 116c0 6 -2 13 -10 13c-18 0 -114 -104 -129 -143c-10 -23 -18 -38 -27 -38c-10 0 -25 13 -25 24c0 12 45 124 45 154
c0 10 -5 16 -16 16c-14 0 -60 -37 -95 -87c-22 -31 -33 -57 -46 -83c-10 -19 -14 -36 -29 -36c-9 0 -21 9 -21 22c0 14 45 133 76 229c7 22 18 33 26 33c12 0 24 -4 24 -19c0 -17 -29 -84 -33 -98c31 43 84 83 111 83c24 0 48 -17 48 -34c0 -34 -4 -50 -8 -62
c33 46 87 85 119 85c16 0 36 -14 36 -35s-27 -92 -27 -131c0 -14 6 -25 18 -25z" />
    <glyph glyph-name="minus" unicode="&#x2212;" horiz-adv-x="314" 
d="M269 209h-244c-10 0 -17 5 -17 17s10 26 25 26h243c13 0 20 -9 20 -18c0 -14 -15 -25 -27 -25z" />
    <glyph glyph-name="mu" unicode="&#xb5;" horiz-adv-x="326" 
d="M89 166c-4 -7 -22 -40 -43 -84c3 -37 21 -43 29 -43c19 0 54 32 83 78c15 25 48 76 61 94c10 12 19 20 26 20c17 0 21 -10 21 -19c0 -3 -6 -14 -13 -23c-10 -14 -23 -36 -32 -62c-7 -21 -10 -38 -10 -53c0 -21 8 -33 18 -33c17 0 34 13 45 24c13 13 23 26 34 26
c9 0 14 -6 14 -14s-2 -15 -16 -28c-19 -20 -44 -45 -85 -45c-35 0 -49 28 -49 52c0 11 2 20 3 27c-33 -41 -68 -86 -110 -86c-22 0 -36 15 -42 31l-5 -15c-34 -91 -61 -195 -61 -246c0 -21 5 -28 5 -40c0 -11 -14 -26 -27 -26c-12 0 -24 9 -24 33c0 86 34 188 70 291
c31 91 59 146 71 170c13 24 26 44 43 44c10 0 27 -4 27 -16c0 -13 -20 -35 -33 -57z" />
    <glyph glyph-name="multiply" unicode="&#xd7;" horiz-adv-x="284" 
d="M54 372l85 -85l84 85c6 6 9 6 13 6c13 0 27 -14 27 -27c0 -5 -2 -9 -6 -13l-85 -85l85 -86c6 -5 6 -7 6 -12c0 -13 -14 -26 -27 -26c-5 0 -7 0 -13 5l-84 85l-87 -85c-3 -4 -10 -5 -13 -5c-10 0 -26 13 -26 26c0 7 0 8 5 14l86 84l-86 85c-5 5 -5 9 -5 15
c0 10 15 25 26 25c8 0 11 -1 15 -6z" />
    <glyph glyph-name="n" unicode="n" horiz-adv-x="363" 
d="M277 45c25 0 82 64 118 112c12 15 20 25 31 25c9 0 14 -6 14 -14c0 -9 -4 -15 -16 -29c-47 -57 -114 -134 -160 -134c-52 0 -58 54 -58 97c0 20 7 44 7 68c0 9 -2 16 -12 16c-31 0 -123 -103 -147 -135c-20 -28 -25 -63 -39 -63c-15 0 -30 4 -30 20c0 15 41 134 59 192
c13 43 18 59 45 59c5 0 16 -5 16 -16c0 -27 -35 -107 -35 -119c0 -3 2 -4 4 -4c3 0 96 116 149 116c20 0 36 -16 36 -37c0 -20 -6 -70 -6 -96c0 -34 0 -58 24 -58z" />
    <glyph glyph-name="n.salt" unicode="&#xe041;" horiz-adv-x="368" 
d="M281 43c14 0 32 12 43 24c13 12 23 25 34 25c9 0 14 -5 14 -13c0 -9 -2 -16 -15 -29c-20 -19 -49 -45 -93 -45c-51 0 -58 54 -58 97c0 18 3 51 3 66c0 9 -2 16 -12 16c-31 0 -109 -95 -139 -139c-20 -28 -29 -57 -43 -57c-15 0 -30 10 -30 20c0 15 37 116 54 178
c15 54 20 73 50 73c5 0 16 -5 16 -16c0 -27 -33 -104 -33 -117c0 -3 0 -6 1 -6c73 89 127 116 150 116c20 0 36 -16 36 -37c0 -20 -6 -70 -6 -90c0 -43 7 -66 28 -66z" />
    <glyph glyph-name="nacute" unicode="&#x144;" horiz-adv-x="363" 
d="M277 45c25 0 82 64 118 112c12 15 20 25 31 25c9 0 14 -6 14 -14c0 -9 -4 -15 -16 -29c-47 -57 -114 -134 -160 -134c-52 0 -58 54 -58 97c0 20 7 44 7 68c0 9 -2 16 -12 16c-31 0 -123 -103 -147 -135c-20 -28 -25 -63 -39 -63c-15 0 -30 4 -30 20c0 15 41 134 59 192
c13 43 18 59 45 59c5 0 16 -5 16 -16c0 -27 -35 -107 -35 -119c0 -3 2 -4 4 -4c3 0 96 116 149 116c20 0 36 -16 36 -37c0 -20 -6 -70 -6 -96c0 -34 0 -58 24 -58zM276 358c10 0 23 -16 23 -28c0 -10 -4 -15 -16 -27c-25 -24 -62 -43 -80 -43c-10 0 -14 4 -14 9
c0 4 3 10 11 12c16 5 43 36 61 67c5 8 9 10 15 10z" />
    <glyph glyph-name="nacute.salt" unicode="&#xe042;" horiz-adv-x="368" 
d="M281 43c14 0 32 12 43 24c13 12 23 25 34 25c9 0 14 -5 14 -13c0 -9 -2 -16 -15 -29c-20 -19 -49 -45 -93 -45c-51 0 -58 54 -58 97c0 18 3 51 3 66c0 9 -2 16 -12 16c-31 0 -109 -95 -139 -139c-20 -28 -29 -57 -43 -57c-15 0 -30 10 -30 20c0 15 37 116 54 178
c15 54 20 73 50 73c5 0 16 -5 16 -16c0 -27 -33 -104 -33 -117c0 -3 0 -6 1 -6c73 89 127 116 150 116c20 0 36 -16 36 -37c0 -20 -6 -70 -6 -90c0 -43 7 -66 28 -66zM249 353c9 0 22 -16 22 -28c0 -10 -4 -15 -15 -26c-26 -25 -63 -43 -81 -43c-9 0 -13 3 -13 8
c0 4 2 10 10 12c17 5 43 37 61 67c5 8 10 10 16 10z" />
    <glyph glyph-name="ncaron" unicode="&#x148;" horiz-adv-x="363" 
d="M277 45c25 0 82 64 118 112c12 15 20 25 31 25c9 0 14 -6 14 -14c0 -9 -4 -15 -16 -29c-47 -57 -114 -134 -160 -134c-52 0 -58 54 -58 97c0 20 7 44 7 68c0 9 -2 16 -12 16c-31 0 -123 -103 -147 -135c-20 -28 -25 -63 -39 -63c-15 0 -30 4 -30 20c0 15 41 134 59 192
c13 43 18 59 45 59c5 0 16 -5 16 -16c0 -27 -35 -107 -35 -119c0 -3 2 -4 4 -4c3 0 96 116 149 116c20 0 36 -16 36 -37c0 -20 -6 -70 -6 -96c0 -34 0 -58 24 -58zM227 258c-16 0 -31 22 -45 41c-13 19 -19 35 -19 42c0 9 4 12 9 12c4 0 8 -5 17 -13c13 -14 37 -37 45 -37
c15 0 42 19 60 37c7 7 12 12 19 12c3 0 8 -2 8 -9c0 -8 -5 -13 -35 -45c-19 -21 -45 -40 -59 -40z" />
    <glyph glyph-name="ncaron.salt" unicode="&#xe043;" horiz-adv-x="368" 
d="M281 43c14 0 32 12 43 24c13 12 23 25 34 25c9 0 14 -5 14 -13c0 -9 -2 -16 -15 -29c-20 -19 -49 -45 -93 -45c-51 0 -58 54 -58 97c0 18 3 51 3 66c0 9 -2 16 -12 16c-31 0 -109 -95 -139 -139c-20 -28 -29 -57 -43 -57c-15 0 -30 10 -30 20c0 15 37 116 54 178
c15 54 20 73 50 73c5 0 16 -5 16 -16c0 -27 -33 -104 -33 -117c0 -3 0 -6 1 -6c73 89 127 116 150 116c20 0 36 -16 36 -37c0 -20 -6 -70 -6 -90c0 -43 7 -66 28 -66zM223 263c-17 0 -31 22 -45 41s-19 36 -19 42c0 9 3 12 8 12s9 -5 17 -13c13 -14 37 -36 45 -36
c15 0 42 18 61 37c6 7 11 11 18 11c4 0 8 -1 8 -8c0 -9 -5 -14 -34 -46c-19 -20 -46 -40 -59 -40z" />
    <glyph glyph-name="nine" unicode="9" 
d="M243 500c-93 0 -163 -81 -163 -163c0 -41 33 -77 78 -77c70 0 112 53 112 87c0 28 16 36 29 36c16 0 24 -14 24 -29c0 -75 -91 -137 -165 -137c-83 0 -130 52 -130 110c0 117 100 217 221 217c94 0 155 -62 155 -152c0 -189 -135 -393 -304 -393c-72 0 -112 43 -112 94
c0 22 9 53 39 53c11 0 21 -8 21 -21c0 -10 -8 -20 -8 -32c0 -31 23 -51 70 -51c129 0 247 180 247 341c0 74 -43 117 -114 117z" />
    <glyph glyph-name="notequal" unicode="&#x2260;" horiz-adv-x="316" 
d="M259 188c10 0 18 0 18 -21c0 -19 -15 -22 -31 -22h-86c-88 -113 -109 -143 -111 -146c-3 -3 -7 -6 -14 -6c-16 0 -27 13 -27 28c0 5 0 7 4 11c17 23 40 49 86 113c-31 0 -58 0 -61 1c-13 0 -16 8 -16 19c0 14 1 21 18 21c8 1 46 1 91 1l35 47c-25 0 -53 0 -60 1
c-13 1 -15 8 -15 24c0 17 13 21 24 21h87c25 35 76 101 92 119c5 4 8 7 15 7s25 -13 25 -24c0 -3 -1 -9 -5 -16c-8 -14 -39 -53 -66 -86h66c9 0 19 -2 19 -21c0 -8 -7 -24 -18 -24c-70 0 -84 -1 -103 -1l-33 -46h66z" />
    <glyph glyph-name="ntilde" unicode="&#xf1;" horiz-adv-x="363" 
d="M277 45c25 0 82 64 118 112c12 15 20 25 31 25c9 0 14 -6 14 -14c0 -9 -4 -15 -16 -29c-47 -57 -114 -134 -160 -134c-52 0 -58 54 -58 97c0 20 7 44 7 68c0 9 -2 16 -12 16c-31 0 -123 -103 -147 -135c-20 -28 -25 -63 -39 -63c-15 0 -30 4 -30 20c0 15 41 134 59 192
c13 43 18 59 45 59c5 0 16 -5 16 -16c0 -27 -35 -107 -35 -119c0 -3 2 -4 4 -4c3 0 96 116 149 116c20 0 36 -16 36 -37c0 -20 -6 -70 -6 -96c0 -34 0 -58 24 -58zM260 256c-26 0 -48 20 -75 20c-15 0 -28 -10 -34 -10c-5 0 -9 2 -9 9c0 8 30 42 52 42c26 0 48 -21 75 -21
c14 0 33 14 39 14c5 0 8 -1 8 -7c0 -9 -29 -47 -56 -47z" />
    <glyph glyph-name="ntilde.salt" unicode="&#xe044;" horiz-adv-x="368" 
d="M281 43c14 0 32 12 43 24c13 12 23 25 34 25c9 0 14 -5 14 -13c0 -9 -2 -16 -15 -29c-20 -19 -49 -45 -93 -45c-51 0 -58 54 -58 97c0 18 3 51 3 66c0 9 -2 16 -12 16c-31 0 -109 -95 -139 -139c-20 -28 -29 -57 -43 -57c-15 0 -30 10 -30 20c0 15 37 116 54 178
c15 54 20 73 50 73c5 0 16 -5 16 -16c0 -27 -33 -104 -33 -117c0 -3 0 -6 1 -6c73 89 127 116 150 116c20 0 36 -16 36 -37c0 -20 -6 -70 -6 -90c0 -43 7 -66 28 -66zM260 254c-26 0 -48 21 -75 21c-15 0 -28 -11 -34 -11c-5 0 -9 2 -9 9c0 9 30 43 52 43
c26 0 48 -21 75 -21c14 0 33 14 39 14c5 0 8 -2 8 -7c0 -9 -29 -48 -56 -48z" />
    <glyph glyph-name="numbersign" unicode="#" horiz-adv-x="393" 
d="M265 353l33 91c4 11 18 13 25 13c13 0 23 -11 23 -23c0 -6 -17 -53 -27 -81h49c9 0 20 -4 20 -16c0 -14 -10 -29 -25 -29h-62l-34 -102h43c13 0 18 -3 18 -14c0 -13 -10 -30 -25 -30h-53l-30 -89c-4 -11 -13 -15 -28 -15c-13 0 -21 7 -21 20c0 11 18 56 27 84h-83
l-36 -93c-4 -10 -14 -11 -23 -11c-14 0 -23 11 -23 23c0 7 16 46 29 81h-37c-11 0 -18 10 -18 17c0 15 9 28 25 28h47l39 100c-23 1 -44 1 -47 2c-11 0 -17 6 -17 17c0 14 7 27 23 27h60l36 90c4 13 15 14 23 14c14 0 25 -11 25 -23l-31 -81h75zM133 207h81l35 100h-77z" />
    <glyph glyph-name="o" unicode="o" horiz-adv-x="246" 
d="M148 239c37 0 54 -18 54 -33c0 -8 0 -31 16 -31c41 0 80 28 90 28s18 -7 18 -17s-13 -22 -46 -37c-37 -17 -83 -17 -87 -17c-21 -60 -67 -139 -137 -139c-28 0 -56 21 -56 64c0 93 78 182 148 182zM142 194c-43 0 -100 -72 -100 -137c0 -18 12 -29 25 -29
c39 0 90 90 90 120c0 3 -15 8 -15 21c0 10 3 18 3 22c0 2 -1 3 -3 3z" />
    <glyph glyph-name="o.salt" unicode="&#xe045;" horiz-adv-x="233" 
d="M206 181c0 -65 -61 -188 -150 -188c-28 0 -56 21 -56 64c0 93 78 182 148 182c37 0 58 -23 58 -58zM142 194c-43 0 -100 -72 -100 -137c0 -18 12 -29 25 -29c39 0 90 90 90 120c0 3 -15 8 -15 21c0 10 3 18 3 22c0 2 -1 3 -3 3z" />
    <glyph glyph-name="oacute" unicode="&#xf3;" horiz-adv-x="246" 
d="M148 239c37 0 54 -18 54 -33c0 -8 0 -31 16 -31c41 0 80 28 90 28s18 -7 18 -17s-13 -22 -46 -37c-37 -17 -83 -17 -87 -17c-21 -60 -67 -139 -137 -139c-28 0 -56 21 -56 64c0 93 78 182 148 182zM142 194c-43 0 -100 -72 -100 -137c0 -18 12 -29 25 -29
c39 0 90 90 90 120c0 3 -15 8 -15 21c0 10 3 18 3 22c0 2 -1 3 -3 3zM209 357c10 0 23 -17 23 -29c0 -10 -4 -15 -16 -26c-25 -25 -62 -43 -80 -43c-10 0 -14 4 -14 8s3 10 11 13c16 4 43 36 61 66c5 8 9 11 15 11z" />
    <glyph glyph-name="oacute.o_f" unicode="&#xe049;" horiz-adv-x="381" 
d="M282 182c-10 -1 -20 -1 -30 -1c-17 0 -35 1 -52 5c1 -1 3 -5 3 -11c0 -8 -3 -21 -10 -43c-20 -60 -67 -139 -137 -139c-28 0 -56 21 -56 64c0 93 78 182 148 182c37 0 54 -12 75 -16c9 -1 17 -2 28 -2c12 0 29 1 49 2c29 68 47 106 89 178c47 82 121 145 160 145
c28 0 54 -15 54 -32c0 -20 -15 -37 -26 -37c-10 0 -16 5 -16 13c0 9 -3 14 -14 14c-21 0 -67 -32 -116 -112c-30 -50 -48 -85 -86 -169h111c10 0 17 -8 17 -16s-7 -14 -15 -14c-44 0 -92 -4 -130 -7c-45 -101 -104 -235 -104 -305c0 -17 5 -17 5 -35c0 -8 -11 -18 -21 -18
s-22 10 -22 38c0 80 57 227 96 316zM142 194c-43 0 -100 -72 -100 -137c0 -18 12 -29 25 -29c39 0 90 90 90 120c0 3 -15 8 -15 21c0 10 3 18 3 22c0 2 -1 3 -3 3zM213 363c10 0 23 -16 23 -28c0 -10 -4 -15 -16 -26c-25 -25 -62 -43 -81 -43c-9 0 -13 3 -13 8
c0 4 3 10 11 12c16 5 42 37 61 67c5 8 9 10 15 10z" />
    <glyph glyph-name="oacute.o_x" unicode="&#xe04a;" horiz-adv-x="506" 
d="M310 234c42 0 43 -78 47 -78c5 0 43 37 69 76c15 23 24 37 36 37c9 0 18 -7 18 -16c0 -12 -13 -26 -24 -41c-24 -33 -86 -100 -86 -107c0 -6 18 -68 42 -68c31 0 90 72 126 120c12 15 20 25 31 25c9 0 14 -6 14 -14c0 -9 -4 -15 -16 -29c-47 -57 -119 -145 -164 -145
c-40 0 -61 66 -70 66c-7 0 -65 -65 -107 -102c-16 -13 -23 -21 -35 -21s-19 8 -19 20c0 8 9 16 23 27c41 32 124 119 124 135c0 15 -15 67 -25 67c-26 0 -41 -45 -98 -47c-20 -60 -71 -146 -141 -146c-28 0 -57 21 -57 64c0 93 78 182 148 182c37 0 54 -18 54 -33
c0 -8 6 -15 23 -15c32 0 59 43 87 43zM140 194c-42 0 -100 -72 -100 -137c0 -18 12 -29 25 -29c40 0 91 90 91 120c0 3 -16 8 -16 21c0 10 3 18 3 22c0 2 -1 3 -3 3zM185 354c9 0 22 -16 22 -28c0 -10 -4 -15 -15 -26c-26 -25 -63 -44 -81 -44c-9 0 -13 4 -13 9
c0 4 2 10 11 12c16 5 42 36 60 67c5 8 10 10 16 10z" />
    <glyph glyph-name="oacute.o_z" unicode="&#xe04b;" 
d="M336 231c30 0 44 -21 44 -37c0 -50 -69 -120 -69 -126c0 -9 70 -14 70 -112c0 -13 -1 -23 -1 -28c7 3 26 8 50 8c25 0 55 -15 55 -32c0 -16 -12 -23 -22 -23c-17 0 -18 20 -41 20c-40 0 -49 -18 -52 -28c-11 -45 -30 -108 -70 -175c-41 -66 -97 -125 -156 -125
c-46 0 -62 34 -62 57c0 40 17 90 84 159c66 68 143 111 167 123c2 1 6 15 6 38c0 32 -9 74 -51 77c-19 1 -45 6 -45 25c0 18 19 20 37 38c19 18 53 67 53 84c0 8 -6 13 -14 13c-23 0 -59 -45 -121 -47c-21 -60 -72 -147 -142 -147c-28 0 -56 21 -56 64c0 93 78 182 148 182
c37 0 54 -18 54 -33c0 -8 4 -24 21 -24c40 0 77 49 113 49zM142 194c-43 0 -100 -72 -100 -137c0 -18 12 -29 25 -29c39 0 90 90 90 120c0 3 -15 8 -15 21c0 10 3 18 3 22c0 2 -1 3 -3 3zM323 -143c0 0 -70 -28 -131 -93c-60 -67 -68 -104 -68 -131c0 -16 10 -23 20 -23
c48 0 82 43 122 108c40 66 52 108 57 139zM200 354c9 0 23 -16 23 -28c0 -10 -4 -15 -16 -26c-25 -25 -62 -44 -81 -44c-9 0 -13 4 -13 9c0 4 2 10 11 12c16 5 42 36 61 67c4 8 9 10 15 10z" />
    <glyph glyph-name="oacute.oxsalt" unicode="&#xe04c;" horiz-adv-x="510" 
d="M417 35c23 0 36 9 47 20c13 13 23 26 34 26c9 0 14 -6 14 -14s-2 -15 -15 -29c-20 -19 -48 -44 -92 -44c-40 0 -62 66 -70 66c-7 0 -66 -65 -108 -102c-15 -13 -22 -21 -35 -21c-12 0 -19 8 -19 20c0 8 9 16 23 27c42 32 124 119 124 135c0 15 -14 67 -24 67
c-27 0 -41 -45 -98 -47c-21 -60 -72 -146 -142 -146c-28 0 -56 21 -56 64c0 93 78 182 148 182c37 0 54 -18 54 -33c0 -8 6 -15 22 -15c32 0 59 43 88 43c41 0 42 -78 47 -78c4 0 43 37 68 76c16 23 25 37 37 37c9 0 18 -7 18 -16c0 -12 -14 -26 -25 -41
c-23 -33 -86 -100 -86 -107c0 -6 22 -70 46 -70zM142 194c-43 0 -100 -72 -100 -137c0 -18 12 -29 25 -29c39 0 90 90 90 120c0 3 -15 8 -15 21c0 10 3 18 3 22c0 2 -1 3 -3 3zM200 362c9 0 23 -16 23 -29c0 -10 -4 -14 -16 -26c-25 -24 -62 -43 -81 -43c-9 0 -13 4 -13 9
c0 3 2 10 11 12c16 5 42 36 61 67c4 8 9 10 15 10z" />
    <glyph glyph-name="oacute.salt" unicode="&#xe04d;" horiz-adv-x="219" 
d="M206 181c0 -65 -61 -188 -150 -188c-28 0 -56 21 -56 64c0 93 78 182 148 182c37 0 58 -23 58 -58zM142 194c-43 0 -100 -72 -100 -137c0 -18 12 -29 25 -29c39 0 90 90 90 120c0 3 -15 8 -15 21c0 10 3 18 3 22c0 2 -1 3 -3 3zM200 362c9 0 23 -16 23 -29
c0 -10 -4 -14 -16 -26c-25 -24 -62 -43 -81 -43c-9 0 -13 4 -13 9c0 3 2 10 11 12c16 5 42 36 61 67c4 8 9 10 15 10z" />
    <glyph glyph-name="obreve" unicode="&#x14f;" horiz-adv-x="246" 
d="M148 239c37 0 54 -18 54 -33c0 -8 0 -31 16 -31c41 0 80 28 90 28s18 -7 18 -17s-13 -22 -46 -37c-37 -17 -83 -17 -87 -17c-21 -60 -67 -139 -137 -139c-28 0 -56 21 -56 64c0 93 78 182 148 182zM142 194c-43 0 -100 -72 -100 -137c0 -18 12 -29 25 -29
c39 0 90 90 90 120c0 3 -15 8 -15 21c0 10 3 18 3 22c0 2 -1 3 -3 3zM165 263c-36 0 -78 27 -78 65c0 13 10 29 26 29c10 0 23 -4 23 -21c0 -6 -6 -11 -6 -18c0 -11 16 -22 38 -22c31 0 53 17 53 28c0 22 15 33 27 33c11 0 21 -7 21 -19c0 -13 -6 -26 -15 -35
c-21 -24 -42 -40 -89 -40z" />
    <glyph glyph-name="obreve.o_f" unicode="&#xe04e;" horiz-adv-x="381" 
d="M282 182c-10 -1 -20 -1 -30 -1c-17 0 -35 1 -52 5c1 -1 3 -5 3 -11c0 -8 -3 -21 -10 -43c-20 -60 -67 -139 -137 -139c-28 0 -56 21 -56 64c0 93 78 182 148 182c37 0 54 -12 75 -16c9 -1 17 -2 28 -2c12 0 29 1 49 2c29 68 47 106 89 178c47 82 121 145 160 145
c28 0 54 -15 54 -32c0 -20 -15 -37 -26 -37c-10 0 -16 5 -16 13c0 9 -3 14 -14 14c-21 0 -67 -32 -116 -112c-30 -50 -48 -85 -86 -169h111c10 0 17 -8 17 -16s-7 -14 -15 -14c-44 0 -92 -4 -130 -7c-45 -101 -104 -235 -104 -305c0 -17 5 -17 5 -35c0 -8 -11 -18 -21 -18
s-22 10 -22 38c0 80 57 227 96 316zM142 194c-43 0 -100 -72 -100 -137c0 -18 12 -29 25 -29c39 0 90 90 90 120c0 3 -15 8 -15 21c0 10 3 18 3 22c0 2 -1 3 -3 3zM182 266c-36 0 -78 27 -78 66c0 13 10 29 26 29c10 0 22 -4 22 -21c0 -7 -5 -11 -5 -18c0 -11 16 -22 38 -22
c31 0 53 17 53 28c0 22 15 33 27 33c11 0 21 -7 21 -19c0 -13 -6 -26 -15 -36c-21 -23 -42 -40 -89 -40z" />
    <glyph glyph-name="obreve.o_x" unicode="&#xe04f;" horiz-adv-x="506" 
d="M310 234c42 0 43 -78 47 -78c5 0 43 37 69 76c15 23 24 37 36 37c9 0 18 -7 18 -16c0 -12 -13 -26 -24 -41c-24 -33 -86 -100 -86 -107c0 -6 18 -68 42 -68c31 0 90 72 126 120c12 15 20 25 31 25c9 0 14 -6 14 -14c0 -9 -4 -15 -16 -29c-47 -57 -119 -145 -164 -145
c-40 0 -61 66 -70 66c-7 0 -65 -65 -107 -102c-16 -13 -23 -21 -35 -21s-19 8 -19 20c0 8 9 16 23 27c41 32 124 119 124 135c0 15 -15 67 -25 67c-26 0 -41 -45 -98 -47c-20 -60 -71 -146 -141 -146c-28 0 -57 21 -57 64c0 93 78 182 148 182c37 0 54 -18 54 -33
c0 -8 6 -15 23 -15c32 0 59 43 87 43zM140 194c-42 0 -100 -72 -100 -137c0 -18 12 -29 25 -29c40 0 91 90 91 120c0 3 -16 8 -16 21c0 10 3 18 3 22c0 2 -1 3 -3 3zM166 266c-36 0 -77 27 -77 66c0 13 10 29 26 29c10 0 22 -4 22 -21c0 -7 -5 -11 -5 -18
c0 -11 16 -22 37 -22c31 0 54 17 54 28c0 22 15 33 26 33s22 -7 22 -19c0 -13 -7 -26 -15 -36c-21 -23 -43 -40 -90 -40z" />
    <glyph glyph-name="obreve.o_z" unicode="&#xe050;" 
d="M336 231c30 0 44 -21 44 -37c0 -50 -69 -120 -69 -126c0 -9 70 -14 70 -112c0 -13 -1 -23 -1 -28c7 3 26 8 50 8c25 0 55 -15 55 -32c0 -16 -12 -23 -22 -23c-17 0 -18 20 -41 20c-40 0 -49 -18 -52 -28c-11 -45 -30 -108 -70 -175c-41 -66 -97 -125 -156 -125
c-46 0 -62 34 -62 57c0 40 17 90 84 159c66 68 143 111 167 123c2 1 6 15 6 38c0 32 -9 74 -51 77c-19 1 -45 6 -45 25c0 18 19 20 37 38c19 18 53 67 53 84c0 8 -6 13 -14 13c-23 0 -59 -45 -121 -47c-21 -60 -72 -147 -142 -147c-28 0 -56 21 -56 64c0 93 78 182 148 182
c37 0 54 -18 54 -33c0 -8 4 -24 21 -24c40 0 77 49 113 49zM142 194c-43 0 -100 -72 -100 -137c0 -18 12 -29 25 -29c39 0 90 90 90 120c0 3 -15 8 -15 21c0 10 3 18 3 22c0 2 -1 3 -3 3zM323 -143c0 0 -70 -28 -131 -93c-60 -67 -68 -104 -68 -131c0 -16 10 -23 20 -23
c48 0 82 43 122 108c40 66 52 108 57 139zM182 266c-36 0 -78 27 -78 66c0 13 10 29 26 29c10 0 22 -4 22 -21c0 -7 -5 -11 -5 -18c0 -11 16 -22 38 -22c31 0 53 17 53 28c0 22 15 33 27 33c11 0 21 -7 21 -19c0 -13 -6 -26 -15 -36c-21 -23 -42 -40 -89 -40z" />
    <glyph glyph-name="obreve.oxsalt" unicode="&#xe051;" horiz-adv-x="510" 
d="M417 35c23 0 36 9 47 20c13 13 23 26 34 26c9 0 14 -6 14 -14s-2 -15 -15 -29c-20 -19 -48 -44 -92 -44c-40 0 -62 66 -70 66c-7 0 -66 -65 -108 -102c-15 -13 -22 -21 -35 -21c-12 0 -19 8 -19 20c0 8 9 16 23 27c42 32 124 119 124 135c0 15 -14 67 -24 67
c-27 0 -41 -45 -98 -47c-21 -60 -72 -146 -142 -146c-28 0 -56 21 -56 64c0 93 78 182 148 182c37 0 54 -18 54 -33c0 -8 6 -15 22 -15c32 0 59 43 88 43c41 0 42 -78 47 -78c4 0 43 37 68 76c16 23 25 37 37 37c9 0 18 -7 18 -16c0 -12 -14 -26 -25 -41
c-23 -33 -86 -100 -86 -107c0 -6 22 -70 46 -70zM142 194c-43 0 -100 -72 -100 -137c0 -18 12 -29 25 -29c39 0 90 90 90 120c0 3 -15 8 -15 21c0 10 3 18 3 22c0 2 -1 3 -3 3zM182 266c-36 0 -78 27 -78 66c0 13 10 29 26 29c10 0 22 -4 22 -21c0 -7 -5 -11 -5 -18
c0 -11 16 -22 38 -22c31 0 53 17 53 28c0 22 15 33 27 33c11 0 21 -7 21 -19c0 -13 -6 -26 -15 -36c-21 -23 -42 -40 -89 -40z" />
    <glyph glyph-name="obreve.salt" unicode="&#xe052;" horiz-adv-x="219" 
d="M206 181c0 -65 -61 -188 -150 -188c-28 0 -56 21 -56 64c0 93 78 182 148 182c37 0 58 -23 58 -58zM142 194c-43 0 -100 -72 -100 -137c0 -18 12 -29 25 -29c39 0 90 90 90 120c0 3 -15 8 -15 21c0 10 3 18 3 22c0 2 -1 3 -3 3zM143 266c-36 0 -78 27 -78 66
c0 13 10 29 27 29c10 0 22 -4 22 -21c0 -7 -5 -11 -5 -18c0 -11 16 -22 37 -22c31 0 53 17 53 28c0 22 16 33 27 33s22 -7 22 -19c0 -13 -7 -26 -15 -36c-21 -23 -43 -40 -90 -40z" />
    <glyph glyph-name="ocircumflex" unicode="&#xf4;" horiz-adv-x="246" 
d="M148 239c37 0 54 -18 54 -33c0 -8 0 -31 16 -31c41 0 80 28 90 28s18 -7 18 -17s-13 -22 -46 -37c-37 -17 -83 -17 -87 -17c-21 -60 -67 -139 -137 -139c-28 0 -56 21 -56 64c0 93 78 182 148 182zM142 194c-43 0 -100 -72 -100 -137c0 -18 12 -29 25 -29
c39 0 90 90 90 120c0 3 -15 8 -15 21c0 10 3 18 3 22c0 2 -1 3 -3 3zM170 289c-28 -16 -69 -37 -78 -37c-6 0 -10 3 -10 8s4 8 12 13c18 11 32 22 52 47c10 11 16 20 31 20c18 0 19 -10 25 -23c9 -20 19 -35 27 -44c6 -7 11 -8 11 -13c0 -6 -3 -8 -8 -8c-7 0 -27 5 -62 37z
" />
    <glyph glyph-name="ocircumflex.o_f" unicode="&#xe053;" horiz-adv-x="381" 
d="M282 182c-10 -1 -20 -1 -30 -1c-17 0 -35 1 -52 5c1 -1 3 -5 3 -11c0 -8 -3 -21 -10 -43c-20 -60 -67 -139 -137 -139c-28 0 -56 21 -56 64c0 93 78 182 148 182c37 0 54 -12 75 -16c9 -1 17 -2 28 -2c12 0 29 1 49 2c29 68 47 106 89 178c47 82 121 145 160 145
c28 0 54 -15 54 -32c0 -20 -15 -37 -26 -37c-10 0 -16 5 -16 13c0 9 -3 14 -14 14c-21 0 -67 -32 -116 -112c-30 -50 -48 -85 -86 -169h111c10 0 17 -8 17 -16s-7 -14 -15 -14c-44 0 -92 -4 -130 -7c-45 -101 -104 -235 -104 -305c0 -17 5 -17 5 -35c0 -8 -11 -18 -21 -18
s-22 10 -22 38c0 80 57 227 96 316zM142 194c-43 0 -100 -72 -100 -137c0 -18 12 -29 25 -29c39 0 90 90 90 120c0 3 -15 8 -15 21c0 10 3 18 3 22c0 2 -1 3 -3 3zM172 289c-29 -16 -70 -37 -78 -37c-6 0 -10 3 -10 8s4 8 11 13c19 11 32 22 53 47c9 11 15 20 31 20
c17 0 18 -10 24 -23c10 -20 20 -35 28 -44c5 -7 11 -8 11 -13c0 -6 -3 -8 -9 -8c-7 0 -27 5 -61 37z" />
    <glyph glyph-name="ocircumflex.o_x" unicode="&#xe054;" horiz-adv-x="506" 
d="M310 234c42 0 43 -78 47 -78c5 0 43 37 69 76c15 23 24 37 36 37c9 0 18 -7 18 -16c0 -12 -13 -26 -24 -41c-24 -33 -86 -100 -86 -107c0 -6 18 -68 42 -68c31 0 90 72 126 120c12 15 20 25 31 25c9 0 14 -6 14 -14c0 -9 -4 -15 -16 -29c-47 -57 -119 -145 -164 -145
c-40 0 -61 66 -70 66c-7 0 -65 -65 -107 -102c-16 -13 -23 -21 -35 -21s-19 8 -19 20c0 8 9 16 23 27c41 32 124 119 124 135c0 15 -15 67 -25 67c-26 0 -41 -45 -98 -47c-20 -60 -71 -146 -141 -146c-28 0 -57 21 -57 64c0 93 78 182 148 182c37 0 54 -18 54 -33
c0 -8 6 -15 23 -15c32 0 59 43 87 43zM140 194c-42 0 -100 -72 -100 -137c0 -18 12 -29 25 -29c40 0 91 90 91 120c0 3 -16 8 -16 21c0 10 3 18 3 22c0 2 -1 3 -3 3zM156 289c-28 -16 -69 -37 -77 -37c-7 0 -10 3 -10 8s3 8 11 13c19 11 32 22 52 47c10 11 16 20 31 20
c18 0 19 -10 25 -23c9 -20 19 -35 28 -44c5 -7 10 -8 10 -13c0 -6 -3 -8 -8 -8c-7 0 -27 5 -62 37z" />
    <glyph glyph-name="ocircumflex.o_z" unicode="&#xe055;" 
d="M336 231c30 0 44 -21 44 -37c0 -50 -69 -120 -69 -126c0 -9 70 -14 70 -112c0 -13 -1 -23 -1 -28c7 3 26 8 50 8c25 0 55 -15 55 -32c0 -16 -12 -23 -22 -23c-17 0 -18 20 -41 20c-40 0 -49 -18 -52 -28c-11 -45 -30 -108 -70 -175c-41 -66 -97 -125 -156 -125
c-46 0 -62 34 -62 57c0 40 17 90 84 159c66 68 143 111 167 123c2 1 6 15 6 38c0 32 -9 74 -51 77c-19 1 -45 6 -45 25c0 18 19 20 37 38c19 18 53 67 53 84c0 8 -6 13 -14 13c-23 0 -59 -45 -121 -47c-21 -60 -72 -147 -142 -147c-28 0 -56 21 -56 64c0 93 78 182 148 182
c37 0 54 -18 54 -33c0 -8 4 -24 21 -24c40 0 77 49 113 49zM142 194c-43 0 -100 -72 -100 -137c0 -18 12 -29 25 -29c39 0 90 90 90 120c0 3 -15 8 -15 21c0 10 3 18 3 22c0 2 -1 3 -3 3zM323 -143c0 0 -70 -28 -131 -93c-60 -67 -68 -104 -68 -131c0 -16 10 -23 20 -23
c48 0 82 43 122 108c40 66 52 108 57 139zM164 289c-28 -16 -69 -37 -78 -37c-6 0 -10 3 -10 8s4 8 12 13c18 11 31 22 52 47c9 11 16 20 31 20c18 0 18 -10 25 -23c9 -20 19 -35 27 -44c6 -7 11 -8 11 -13c0 -6 -3 -8 -8 -8c-7 0 -27 5 -62 37z" />
    <glyph glyph-name="ocircumflex.oxsalt" unicode="&#xe056;" horiz-adv-x="510" 
d="M417 35c23 0 36 9 47 20c13 13 23 26 34 26c9 0 14 -6 14 -14s-2 -15 -15 -29c-20 -19 -48 -44 -92 -44c-40 0 -62 66 -70 66c-7 0 -66 -65 -108 -102c-15 -13 -22 -21 -35 -21c-12 0 -19 8 -19 20c0 8 9 16 23 27c42 32 124 119 124 135c0 15 -14 67 -24 67
c-27 0 -41 -45 -98 -47c-21 -60 -72 -146 -142 -146c-28 0 -56 21 -56 64c0 93 78 182 148 182c37 0 54 -18 54 -33c0 -8 6 -15 22 -15c32 0 59 43 88 43c41 0 42 -78 47 -78c4 0 43 37 68 76c16 23 25 37 37 37c9 0 18 -7 18 -16c0 -12 -14 -26 -25 -41
c-23 -33 -86 -100 -86 -107c0 -6 22 -70 46 -70zM142 194c-43 0 -100 -72 -100 -137c0 -18 12 -29 25 -29c39 0 90 90 90 120c0 3 -15 8 -15 21c0 10 3 18 3 22c0 2 -1 3 -3 3zM164 289c-28 -16 -69 -37 -78 -37c-6 0 -10 3 -10 8s4 8 12 13c18 11 31 22 52 47
c9 11 16 20 31 20c18 0 18 -10 25 -23c9 -20 19 -35 27 -44c6 -7 11 -8 11 -13c0 -6 -3 -8 -8 -8c-7 0 -27 5 -62 37z" />
    <glyph glyph-name="ocircumflex.salt" unicode="&#xe057;" horiz-adv-x="219" 
d="M206 181c0 -65 -61 -188 -150 -188c-28 0 -56 21 -56 64c0 93 78 182 148 182c37 0 58 -23 58 -58zM142 194c-43 0 -100 -72 -100 -137c0 -18 12 -29 25 -29c39 0 90 90 90 120c0 3 -15 8 -15 21c0 10 3 18 3 22c0 2 -1 3 -3 3zM164 289c-28 -16 -69 -37 -78 -37
c-6 0 -10 3 -10 8s4 8 12 13c18 11 31 22 52 47c9 11 16 20 31 20c18 0 18 -10 25 -23c9 -20 19 -35 27 -44c6 -7 11 -8 11 -13c0 -6 -3 -8 -8 -8c-7 0 -27 5 -62 37z" />
    <glyph glyph-name="odieresis" unicode="&#xf6;" horiz-adv-x="246" 
d="M148 239c37 0 54 -18 54 -33c0 -8 0 -31 16 -31c41 0 80 28 90 28s18 -7 18 -17s-13 -22 -46 -37c-37 -17 -83 -17 -87 -17c-21 -60 -67 -139 -137 -139c-28 0 -56 21 -56 64c0 93 78 182 148 182zM142 194c-43 0 -100 -72 -100 -137c0 -18 12 -29 25 -29
c39 0 90 90 90 120c0 3 -15 8 -15 21c0 10 3 18 3 22c0 2 -1 3 -3 3zM95 283c0 17 19 47 44 47c11 0 15 -7 15 -18c0 -19 -16 -48 -42 -48c-12 0 -17 9 -17 19zM179 283c0 17 20 47 44 47c12 0 16 -7 16 -18c0 -19 -16 -48 -43 -48c-11 0 -17 9 -17 19z" />
    <glyph glyph-name="odieresis.o_f" unicode="&#xe058;" horiz-adv-x="381" 
d="M282 182c-10 -1 -20 -1 -30 -1c-17 0 -35 1 -52 5c1 -1 3 -5 3 -11c0 -8 -3 -21 -10 -43c-20 -60 -67 -139 -137 -139c-28 0 -56 21 -56 64c0 93 78 182 148 182c37 0 54 -12 75 -16c9 -1 17 -2 28 -2c12 0 29 1 49 2c29 68 47 106 89 178c47 82 121 145 160 145
c28 0 54 -15 54 -32c0 -20 -15 -37 -26 -37c-10 0 -16 5 -16 13c0 9 -3 14 -14 14c-21 0 -67 -32 -116 -112c-30 -50 -48 -85 -86 -169h111c10 0 17 -8 17 -16s-7 -14 -15 -14c-44 0 -92 -4 -130 -7c-45 -101 -104 -235 -104 -305c0 -17 5 -17 5 -35c0 -8 -11 -18 -21 -18
s-22 10 -22 38c0 80 57 227 96 316zM142 194c-43 0 -100 -72 -100 -137c0 -18 12 -29 25 -29c39 0 90 90 90 120c0 3 -15 8 -15 21c0 10 3 18 3 22c0 2 -1 3 -3 3zM120 283c0 17 19 47 44 47c12 0 15 -7 15 -18c0 -19 -16 -48 -42 -48c-11 0 -17 9 -17 19zM205 283
c0 17 19 47 44 47c11 0 15 -7 15 -18c0 -19 -16 -48 -42 -48c-12 0 -17 9 -17 19z" />
    <glyph glyph-name="odieresis.o_x" unicode="&#xe059;" horiz-adv-x="506" 
d="M310 234c42 0 43 -78 47 -78c5 0 43 37 69 76c15 23 24 37 36 37c9 0 18 -7 18 -16c0 -12 -13 -26 -24 -41c-24 -33 -86 -100 -86 -107c0 -6 18 -68 42 -68c31 0 90 72 126 120c12 15 20 25 31 25c9 0 14 -6 14 -14c0 -9 -4 -15 -16 -29c-47 -57 -119 -145 -164 -145
c-40 0 -61 66 -70 66c-7 0 -65 -65 -107 -102c-16 -13 -23 -21 -35 -21s-19 8 -19 20c0 8 9 16 23 27c41 32 124 119 124 135c0 15 -15 67 -25 67c-26 0 -41 -45 -98 -47c-20 -60 -71 -146 -141 -146c-28 0 -57 21 -57 64c0 93 78 182 148 182c37 0 54 -18 54 -33
c0 -8 6 -15 23 -15c32 0 59 43 87 43zM140 194c-42 0 -100 -72 -100 -137c0 -18 12 -29 25 -29c40 0 91 90 91 120c0 3 -16 8 -16 21c0 10 3 18 3 22c0 2 -1 3 -3 3zM120 283c0 17 19 47 44 47c12 0 15 -7 15 -18c0 -19 -16 -48 -42 -48c-11 0 -17 9 -17 19zM205 283
c0 17 19 47 44 47c11 0 15 -7 15 -18c0 -19 -16 -48 -42 -48c-12 0 -17 9 -17 19z" />
    <glyph glyph-name="odieresis.o_z" unicode="&#xe05a;" 
d="M336 231c30 0 44 -21 44 -37c0 -50 -69 -120 -69 -126c0 -9 70 -14 70 -112c0 -13 -1 -23 -1 -28c7 3 26 8 50 8c25 0 55 -15 55 -32c0 -16 -12 -23 -22 -23c-17 0 -18 20 -41 20c-40 0 -49 -18 -52 -28c-11 -45 -30 -108 -70 -175c-41 -66 -97 -125 -156 -125
c-46 0 -62 34 -62 57c0 40 17 90 84 159c66 68 143 111 167 123c2 1 6 15 6 38c0 32 -9 74 -51 77c-19 1 -45 6 -45 25c0 18 19 20 37 38c19 18 53 67 53 84c0 8 -6 13 -14 13c-23 0 -59 -45 -121 -47c-21 -60 -72 -147 -142 -147c-28 0 -56 21 -56 64c0 93 78 182 148 182
c37 0 54 -18 54 -33c0 -8 4 -24 21 -24c40 0 77 49 113 49zM142 194c-43 0 -100 -72 -100 -137c0 -18 12 -29 25 -29c39 0 90 90 90 120c0 3 -15 8 -15 21c0 10 3 18 3 22c0 2 -1 3 -3 3zM323 -143c0 0 -70 -28 -131 -93c-60 -67 -68 -104 -68 -131c0 -16 10 -23 20 -23
c48 0 82 43 122 108c40 66 52 108 57 139zM120 283c0 17 19 47 44 47c12 0 15 -7 15 -18c0 -19 -16 -48 -42 -48c-11 0 -17 9 -17 19zM205 283c0 17 19 47 44 47c11 0 15 -7 15 -18c0 -19 -16 -48 -42 -48c-12 0 -17 9 -17 19z" />
    <glyph glyph-name="odieresis.oxsalt" unicode="&#xe05b;" horiz-adv-x="510" 
d="M417 35c23 0 36 9 47 20c13 13 23 26 34 26c9 0 14 -6 14 -14s-2 -15 -15 -29c-20 -19 -48 -44 -92 -44c-40 0 -62 66 -70 66c-7 0 -66 -65 -108 -102c-15 -13 -22 -21 -35 -21c-12 0 -19 8 -19 20c0 8 9 16 23 27c42 32 124 119 124 135c0 15 -14 67 -24 67
c-27 0 -41 -45 -98 -47c-21 -60 -72 -146 -142 -146c-28 0 -56 21 -56 64c0 93 78 182 148 182c37 0 54 -18 54 -33c0 -8 6 -15 22 -15c32 0 59 43 88 43c41 0 42 -78 47 -78c4 0 43 37 68 76c16 23 25 37 37 37c9 0 18 -7 18 -16c0 -12 -14 -26 -25 -41
c-23 -33 -86 -100 -86 -107c0 -6 22 -70 46 -70zM142 194c-43 0 -100 -72 -100 -137c0 -18 12 -29 25 -29c39 0 90 90 90 120c0 3 -15 8 -15 21c0 10 3 18 3 22c0 2 -1 3 -3 3zM120 283c0 17 19 47 44 47c12 0 15 -7 15 -18c0 -19 -16 -48 -42 -48c-11 0 -17 9 -17 19z
M205 283c0 17 19 47 44 47c11 0 15 -7 15 -18c0 -19 -16 -48 -42 -48c-12 0 -17 9 -17 19z" />
    <glyph glyph-name="odieresis.salt" unicode="&#xe05c;" horiz-adv-x="219" 
d="M206 181c0 -65 -61 -188 -150 -188c-28 0 -56 21 -56 64c0 93 78 182 148 182c37 0 58 -23 58 -58zM142 194c-43 0 -100 -72 -100 -137c0 -18 12 -29 25 -29c39 0 90 90 90 120c0 3 -15 8 -15 21c0 10 3 18 3 22c0 2 -1 3 -3 3zM120 283c0 17 19 47 44 47
c12 0 15 -7 15 -18c0 -19 -16 -48 -42 -48c-11 0 -17 9 -17 19zM205 283c0 17 19 47 44 47c11 0 15 -7 15 -18c0 -19 -16 -48 -42 -48c-12 0 -17 9 -17 19z" />
    <glyph glyph-name="oe" unicode="&#x153;" horiz-adv-x="373" 
d="M148 239c34 0 56 -19 58 -56c36 33 76 54 100 54c20 0 41 -16 41 -35c0 -51 -87 -109 -148 -123c-18 -4 -20 -10 -20 -20s7 -30 30 -30c89 0 160 80 196 128c12 15 20 25 31 25c9 0 14 -6 14 -14c0 -9 -4 -15 -16 -29c-47 -57 -130 -146 -241 -146c-24 0 -45 19 -54 41
c-25 -24 -54 -41 -83 -41c-28 0 -56 21 -56 64c0 93 78 182 148 182zM164 164c0 15 -5 32 -22 30c-43 -4 -100 -72 -100 -137c0 -18 12 -29 25 -29c39 0 97 106 97 136zM294 198c-31 0 -87 -64 -102 -88c36 1 114 57 114 78c0 8 -3 10 -12 10z" />
    <glyph glyph-name="ogonek" unicode="&#x2db;" horiz-adv-x="135" 
d="M100 4c5 0 9 -2 9 -7s-6 -8 -10 -9c-17 -6 -50 -33 -50 -57c0 -22 26 -34 43 -34c7 0 8 -2 8 -6c0 -3 -8 -31 -26 -31s-59 24 -59 59c0 49 64 85 85 85z" />
    <glyph glyph-name="ograve" unicode="&#xf2;" horiz-adv-x="246" 
d="M148 239c37 0 54 -18 54 -33c0 -8 0 -31 16 -31c41 0 80 28 90 28s18 -7 18 -17s-13 -22 -46 -37c-37 -17 -83 -17 -87 -17c-21 -60 -67 -139 -137 -139c-28 0 -56 21 -56 64c0 93 78 182 148 182zM142 194c-43 0 -100 -72 -100 -137c0 -18 12 -29 25 -29
c39 0 90 90 90 120c0 3 -15 8 -15 21c0 10 3 18 3 22c0 2 -1 3 -3 3zM142 346c7 0 11 -2 16 -10c18 -30 45 -62 61 -67c8 -2 10 -6 10 -10s-3 -10 -13 -10c-18 0 -55 18 -80 43c-12 11 -16 16 -16 26c0 12 13 28 22 28z" />
    <glyph glyph-name="ograve.o_f" unicode="&#xe05d;" horiz-adv-x="381" 
d="M282 182c-10 -1 -20 -1 -30 -1c-17 0 -35 1 -52 5c1 -1 3 -5 3 -11c0 -8 -3 -21 -10 -43c-20 -60 -67 -139 -137 -139c-28 0 -56 21 -56 64c0 93 78 182 148 182c37 0 54 -12 75 -16c9 -1 17 -2 28 -2c12 0 29 1 49 2c29 68 47 106 89 178c47 82 121 145 160 145
c28 0 54 -15 54 -32c0 -20 -15 -37 -26 -37c-10 0 -16 5 -16 13c0 9 -3 14 -14 14c-21 0 -67 -32 -116 -112c-30 -50 -48 -85 -86 -169h111c10 0 17 -8 17 -16s-7 -14 -15 -14c-44 0 -92 -4 -130 -7c-45 -101 -104 -235 -104 -305c0 -17 5 -17 5 -35c0 -8 -11 -18 -21 -18
s-22 10 -22 38c0 80 57 227 96 316zM142 194c-43 0 -100 -72 -100 -137c0 -18 12 -29 25 -29c39 0 90 90 90 120c0 3 -15 8 -15 21c0 10 3 18 3 22c0 2 -1 3 -3 3zM135 362c6 0 11 -2 15 -10c19 -31 45 -62 61 -67c8 -2 10 -6 10 -10c0 -5 -3 -11 -12 -11
c-19 0 -56 19 -81 43c-12 12 -16 16 -16 26c0 13 14 29 23 29z" />
    <glyph glyph-name="ograve.o_x" unicode="&#xe05e;" horiz-adv-x="506" 
d="M310 234c42 0 43 -78 47 -78c5 0 43 37 69 76c15 23 24 37 36 37c9 0 18 -7 18 -16c0 -12 -13 -26 -24 -41c-24 -33 -86 -100 -86 -107c0 -6 18 -68 42 -68c31 0 90 72 126 120c12 15 20 25 31 25c9 0 14 -6 14 -14c0 -9 -4 -15 -16 -29c-47 -57 -119 -145 -164 -145
c-40 0 -61 66 -70 66c-7 0 -65 -65 -107 -102c-16 -13 -23 -21 -35 -21s-19 8 -19 20c0 8 9 16 23 27c41 32 124 119 124 135c0 15 -15 67 -25 67c-26 0 -41 -45 -98 -47c-20 -60 -71 -146 -141 -146c-28 0 -57 21 -57 64c0 93 78 182 148 182c37 0 54 -18 54 -33
c0 -8 6 -15 23 -15c32 0 59 43 87 43zM140 194c-42 0 -100 -72 -100 -137c0 -18 12 -29 25 -29c40 0 91 90 91 120c0 3 -16 8 -16 21c0 10 3 18 3 22c0 2 -1 3 -3 3zM135 362c6 0 11 -2 15 -10c19 -31 45 -62 61 -67c8 -2 10 -6 10 -10c0 -5 -3 -11 -12 -11
c-19 0 -56 19 -81 43c-12 12 -16 16 -16 26c0 13 14 29 23 29z" />
    <glyph glyph-name="ograve.o_z" unicode="&#xe05f;" 
d="M336 231c30 0 44 -21 44 -37c0 -50 -69 -120 -69 -126c0 -9 70 -14 70 -112c0 -13 -1 -23 -1 -28c7 3 26 8 50 8c25 0 55 -15 55 -32c0 -16 -12 -23 -22 -23c-17 0 -18 20 -41 20c-40 0 -49 -18 -52 -28c-11 -45 -30 -108 -70 -175c-41 -66 -97 -125 -156 -125
c-46 0 -62 34 -62 57c0 40 17 90 84 159c66 68 143 111 167 123c2 1 6 15 6 38c0 32 -9 74 -51 77c-19 1 -45 6 -45 25c0 18 19 20 37 38c19 18 53 67 53 84c0 8 -6 13 -14 13c-23 0 -59 -45 -121 -47c-21 -60 -72 -147 -142 -147c-28 0 -56 21 -56 64c0 93 78 182 148 182
c37 0 54 -18 54 -33c0 -8 4 -24 21 -24c40 0 77 49 113 49zM142 194c-43 0 -100 -72 -100 -137c0 -18 12 -29 25 -29c39 0 90 90 90 120c0 3 -15 8 -15 21c0 10 3 18 3 22c0 2 -1 3 -3 3zM323 -143c0 0 -70 -28 -131 -93c-60 -67 -68 -104 -68 -131c0 -16 10 -23 20 -23
c48 0 82 43 122 108c40 66 52 108 57 139zM135 362c6 0 11 -2 15 -10c19 -31 45 -62 61 -67c8 -2 10 -6 10 -10c0 -5 -3 -11 -12 -11c-19 0 -56 19 -81 43c-12 12 -16 16 -16 26c0 13 14 29 23 29z" />
    <glyph glyph-name="ograve.oxsalt" unicode="&#xe060;" horiz-adv-x="510" 
d="M417 35c23 0 36 9 47 20c13 13 23 26 34 26c9 0 14 -6 14 -14s-2 -15 -15 -29c-20 -19 -48 -44 -92 -44c-40 0 -62 66 -70 66c-7 0 -66 -65 -108 -102c-15 -13 -22 -21 -35 -21c-12 0 -19 8 -19 20c0 8 9 16 23 27c42 32 124 119 124 135c0 15 -14 67 -24 67
c-27 0 -41 -45 -98 -47c-21 -60 -72 -146 -142 -146c-28 0 -56 21 -56 64c0 93 78 182 148 182c37 0 54 -18 54 -33c0 -8 6 -15 22 -15c32 0 59 43 88 43c41 0 42 -78 47 -78c4 0 43 37 68 76c16 23 25 37 37 37c9 0 18 -7 18 -16c0 -12 -14 -26 -25 -41
c-23 -33 -86 -100 -86 -107c0 -6 22 -70 46 -70zM142 194c-43 0 -100 -72 -100 -137c0 -18 12 -29 25 -29c39 0 90 90 90 120c0 3 -15 8 -15 21c0 10 3 18 3 22c0 2 -1 3 -3 3zM135 362c6 0 11 -2 15 -10c19 -31 45 -62 61 -67c8 -2 10 -6 10 -10c0 -5 -3 -11 -12 -11
c-19 0 -56 19 -81 43c-12 12 -16 16 -16 26c0 13 14 29 23 29z" />
    <glyph glyph-name="ograve.salt" unicode="&#xe061;" horiz-adv-x="219" 
d="M206 181c0 -65 -61 -188 -150 -188c-28 0 -56 21 -56 64c0 93 78 182 148 182c37 0 58 -23 58 -58zM142 194c-43 0 -100 -72 -100 -137c0 -18 12 -29 25 -29c39 0 90 90 90 120c0 3 -15 8 -15 21c0 10 3 18 3 22c0 2 -1 3 -3 3zM135 362c6 0 11 -2 15 -10
c19 -31 45 -62 61 -67c8 -2 10 -6 10 -10c0 -5 -3 -11 -12 -11c-19 0 -56 19 -81 43c-12 12 -16 16 -16 26c0 13 14 29 23 29z" />
    <glyph glyph-name="ohungarumlaut" unicode="&#x151;" horiz-adv-x="246" 
d="M148 239c37 0 54 -18 54 -33c0 -8 0 -31 16 -31c41 0 80 28 90 28s18 -7 18 -17s-13 -22 -46 -37c-37 -17 -83 -17 -87 -17c-21 -60 -67 -139 -137 -139c-28 0 -56 21 -56 64c0 93 78 182 148 182zM142 194c-43 0 -100 -72 -100 -137c0 -18 12 -29 25 -29
c39 0 90 90 90 120c0 3 -15 8 -15 21c0 10 3 18 3 22c0 2 -1 3 -3 3zM167 360c9 0 22 -17 22 -29c0 -10 -3 -15 -15 -26c-25 -25 -62 -43 -81 -43c-9 0 -13 4 -13 8s2 10 11 13c16 4 42 36 61 67c4 7 9 10 15 10zM275 360c9 0 22 -17 22 -29c0 -10 -4 -15 -15 -26
c-26 -25 -63 -43 -81 -43c-9 0 -13 4 -13 8s2 10 11 13c16 4 42 36 60 67c5 7 10 10 16 10z" />
    <glyph glyph-name="ohungarumlaut.o_f" unicode="&#xe062;" horiz-adv-x="381" 
d="M282 182c-10 -1 -20 -1 -30 -1c-17 0 -35 1 -52 5c1 -1 3 -5 3 -11c0 -8 -3 -21 -10 -43c-20 -60 -67 -139 -137 -139c-28 0 -56 21 -56 64c0 93 78 182 148 182c37 0 54 -12 75 -16c9 -1 17 -2 28 -2c12 0 29 1 49 2c29 68 47 106 89 178c47 82 121 145 160 145
c28 0 54 -15 54 -32c0 -20 -15 -37 -26 -37c-10 0 -16 5 -16 13c0 9 -3 14 -14 14c-21 0 -67 -32 -116 -112c-30 -50 -48 -85 -86 -169h111c10 0 17 -8 17 -16s-7 -14 -15 -14c-44 0 -92 -4 -130 -7c-45 -101 -104 -235 -104 -305c0 -17 5 -17 5 -35c0 -8 -11 -18 -21 -18
s-22 10 -22 38c0 80 57 227 96 316zM142 194c-43 0 -100 -72 -100 -137c0 -18 12 -29 25 -29c39 0 90 90 90 120c0 3 -15 8 -15 21c0 10 3 18 3 22c0 2 -1 3 -3 3zM192 370c10 0 23 -17 23 -29c0 -10 -4 -15 -16 -26c-25 -25 -62 -43 -80 -43c-10 0 -14 4 -14 8s3 10 11 13
c16 4 43 36 61 67c5 7 9 10 15 10zM293 370c9 0 22 -17 22 -29c0 -10 -4 -15 -15 -26c-26 -25 -63 -43 -81 -43c-10 0 -13 4 -13 8s2 10 10 13c17 4 43 36 61 67c5 7 9 10 16 10z" />
    <glyph glyph-name="ohungarumlaut.o_x" unicode="&#xe063;" horiz-adv-x="506" 
d="M310 234c42 0 43 -78 47 -78c5 0 43 37 69 76c15 23 24 37 36 37c9 0 18 -7 18 -16c0 -12 -13 -26 -24 -41c-24 -33 -86 -100 -86 -107c0 -6 18 -68 42 -68c31 0 90 72 126 120c12 15 20 25 31 25c9 0 14 -6 14 -14c0 -9 -4 -15 -16 -29c-47 -57 -119 -145 -164 -145
c-40 0 -61 66 -70 66c-7 0 -65 -65 -107 -102c-16 -13 -23 -21 -35 -21s-19 8 -19 20c0 8 9 16 23 27c41 32 124 119 124 135c0 15 -15 67 -25 67c-26 0 -41 -45 -98 -47c-20 -60 -71 -146 -141 -146c-28 0 -57 21 -57 64c0 93 78 182 148 182c37 0 54 -18 54 -33
c0 -8 6 -15 23 -15c32 0 59 43 87 43zM140 194c-42 0 -100 -72 -100 -137c0 -18 12 -29 25 -29c40 0 91 90 91 120c0 3 -16 8 -16 21c0 10 3 18 3 22c0 2 -1 3 -3 3zM192 370c10 0 23 -17 23 -29c0 -10 -4 -15 -16 -26c-25 -25 -62 -43 -80 -43c-10 0 -14 4 -14 8
s3 10 11 13c16 4 43 36 61 67c5 7 9 10 15 10zM293 370c9 0 22 -17 22 -29c0 -10 -4 -15 -15 -26c-26 -25 -63 -43 -81 -43c-10 0 -13 4 -13 8s2 10 10 13c17 4 43 36 61 67c5 7 9 10 16 10z" />
    <glyph glyph-name="ohungarumlaut.o_z" unicode="&#xe064;" 
d="M336 231c30 0 44 -21 44 -37c0 -50 -69 -120 -69 -126c0 -9 70 -14 70 -112c0 -13 -1 -23 -1 -28c7 3 26 8 50 8c25 0 55 -15 55 -32c0 -16 -12 -23 -22 -23c-17 0 -18 20 -41 20c-40 0 -49 -18 -52 -28c-11 -45 -30 -108 -70 -175c-41 -66 -97 -125 -156 -125
c-46 0 -62 34 -62 57c0 40 17 90 84 159c66 68 143 111 167 123c2 1 6 15 6 38c0 32 -9 74 -51 77c-19 1 -45 6 -45 25c0 18 19 20 37 38c19 18 53 67 53 84c0 8 -6 13 -14 13c-23 0 -59 -45 -121 -47c-21 -60 -72 -147 -142 -147c-28 0 -56 21 -56 64c0 93 78 182 148 182
c37 0 54 -18 54 -33c0 -8 4 -24 21 -24c40 0 77 49 113 49zM142 194c-43 0 -100 -72 -100 -137c0 -18 12 -29 25 -29c39 0 90 90 90 120c0 3 -15 8 -15 21c0 10 3 18 3 22c0 2 -1 3 -3 3zM323 -143c0 0 -70 -28 -131 -93c-60 -67 -68 -104 -68 -131c0 -16 10 -23 20 -23
c48 0 82 43 122 108c40 66 52 108 57 139zM192 370c10 0 23 -17 23 -29c0 -10 -4 -15 -16 -26c-25 -25 -62 -43 -80 -43c-10 0 -14 4 -14 8s3 10 11 13c16 4 43 36 61 67c5 7 9 10 15 10zM293 370c9 0 22 -17 22 -29c0 -10 -4 -15 -15 -26c-26 -25 -63 -43 -81 -43
c-10 0 -13 4 -13 8s2 10 10 13c17 4 43 36 61 67c5 7 9 10 16 10z" />
    <glyph glyph-name="ohungarumlaut.oxsalt" unicode="&#xe065;" horiz-adv-x="510" 
d="M417 35c23 0 36 9 47 20c13 13 23 26 34 26c9 0 14 -6 14 -14s-2 -15 -15 -29c-20 -19 -48 -44 -92 -44c-40 0 -62 66 -70 66c-7 0 -66 -65 -108 -102c-15 -13 -22 -21 -35 -21c-12 0 -19 8 -19 20c0 8 9 16 23 27c42 32 124 119 124 135c0 15 -14 67 -24 67
c-27 0 -41 -45 -98 -47c-21 -60 -72 -146 -142 -146c-28 0 -56 21 -56 64c0 93 78 182 148 182c37 0 54 -18 54 -33c0 -8 6 -15 22 -15c32 0 59 43 88 43c41 0 42 -78 47 -78c4 0 43 37 68 76c16 23 25 37 37 37c9 0 18 -7 18 -16c0 -12 -14 -26 -25 -41
c-23 -33 -86 -100 -86 -107c0 -6 22 -70 46 -70zM142 194c-43 0 -100 -72 -100 -137c0 -18 12 -29 25 -29c39 0 90 90 90 120c0 3 -15 8 -15 21c0 10 3 18 3 22c0 2 -1 3 -3 3zM192 370c10 0 23 -17 23 -29c0 -10 -4 -15 -16 -26c-25 -25 -62 -43 -80 -43c-10 0 -14 4 -14 8
s3 10 11 13c16 4 43 36 61 67c5 7 9 10 15 10zM293 370c9 0 22 -17 22 -29c0 -10 -4 -15 -15 -26c-26 -25 -63 -43 -81 -43c-10 0 -13 4 -13 8s2 10 10 13c17 4 43 36 61 67c5 7 9 10 16 10z" />
    <glyph glyph-name="ohungarumlaut.salt" unicode="&#xe066;" horiz-adv-x="219" 
d="M206 181c0 -65 -61 -188 -150 -188c-28 0 -56 21 -56 64c0 93 78 182 148 182c37 0 58 -23 58 -58zM142 194c-43 0 -100 -72 -100 -137c0 -18 12 -29 25 -29c39 0 90 90 90 120c0 3 -15 8 -15 21c0 10 3 18 3 22c0 2 -1 3 -3 3zM154 370c9 0 22 -17 22 -29
c0 -10 -4 -15 -15 -26c-25 -25 -62 -43 -81 -43c-9 0 -13 4 -13 8s2 10 11 13c16 4 42 36 61 67c4 7 9 10 15 10zM254 370c9 0 22 -17 22 -29c0 -10 -3 -15 -15 -26c-25 -25 -62 -43 -81 -43c-9 0 -13 4 -13 8s2 10 11 13c16 4 42 36 61 67c4 7 9 10 15 10z" />
    <glyph glyph-name="one" unicode="1" horiz-adv-x="192" 
d="M159 461c0 0 -44 -21 -67 -21c-14 0 -25 6 -25 21s11 24 23 24c69 0 109 59 133 59c8 0 22 -7 22 -22c0 -8 -12 -28 -22 -41c-80 -100 -171 -318 -171 -426c0 -13 6 -20 6 -31c0 -12 -11 -26 -27 -26c-12 0 -26 7 -26 31c0 141 97 349 154 432z" />
    <glyph glyph-name="onehalf" unicode="&#xbd;" horiz-adv-x="460" 
d="M200 56c-6 -10 -14 -23 -14 -31c0 -10 10 -23 19 -23c10 0 33 14 60 14c31 0 51 -13 85 -13c30 0 56 19 56 39c0 12 -9 18 -18 18c-8 0 -17 -5 -21 -11c-4 -7 -9 -11 -25 -11s-31 11 -66 11c-13 0 -23 0 -39 -6c33 67 193 137 193 230c0 42 -27 68 -69 68
c-43 0 -94 -25 -123 -71c-7 -11 -14 -23 -14 -34c0 -10 7 -18 15 -18c10 0 18 7 23 20c11 35 41 69 88 69c27 0 38 -16 38 -37c0 -76 -125 -121 -188 -214zM303 496c0 -4 -7 -20 -14 -35c-48 -101 -199 -429 -210 -455c-4 -8 -8 -20 -22 -20s-21 7 -21 19
c0 13 163 362 223 496c4 6 12 13 20 13c19 0 24 -9 24 -18zM13 193c0 86 54 204 89 254c-2 0 -20 -9 -33 -9c-9 0 -17 7 -17 16c0 11 9 19 16 19c42 0 66 30 81 30c9 0 21 -14 21 -23c0 -5 -5 -13 -14 -23c-50 -59 -107 -179 -107 -244c0 -8 7 -12 7 -26
c0 -11 -10 -21 -24 -21c-11 0 -19 13 -19 27z" />
    <glyph glyph-name="onequarter" unicode="&#xbc;" horiz-adv-x="473" 
d="M133 448c0 0 -20 -10 -34 -10c-8 0 -16 7 -16 16c0 11 9 19 16 19c42 0 66 30 80 30c10 0 22 -14 22 -23c0 -5 -7 -12 -14 -23c-44 -68 -109 -195 -109 -243c0 -8 6 -11 6 -25c0 -11 -10 -20 -22 -20c-17 0 -24 17 -24 32c0 73 64 190 95 247zM303 496
c0 -4 -7 -20 -14 -35c-48 -101 -199 -429 -210 -455c-4 -8 -8 -20 -22 -20s-21 7 -21 19c0 13 163 362 223 496c4 6 12 13 20 13c19 0 24 -9 24 -18zM299 304c0 7 -3 13 -3 21c0 11 10 15 16 15c14 0 25 -7 25 -30c0 -33 -46 -101 -91 -138c47 14 74 17 107 17
c22 54 47 95 65 124c10 16 22 27 33 27c8 0 14 -5 14 -14c0 -8 -8 -17 -15 -25c-21 -26 -42 -67 -63 -116c16 -5 23 -16 23 -23c0 -10 -6 -16 -14 -16s-12 8 -23 8c-16 -43 -28 -90 -28 -118c0 -8 5 -12 5 -20c0 -7 -7 -16 -17 -16c-8 0 -21 7 -21 26c0 38 11 82 28 131
c-64 0 -120 -22 -131 -22c-6 0 -18 10 -18 21c0 7 8 16 20 26c36 31 88 100 88 122z" />
    </font>
</defs>
</svg>
